Tags
Language
Tags
February 2023
Su Mo Tu We Th Fr Sa
29 30 31 1 2 3 4
5 6 7 8 9 10 11
12 13 14 15 16 17 18
19 20 21 22 23 24 25
26 27 28 1 2 3 4

Phil Collins - ...But Seriously (1989) {2016, Deluxe Edition}

Posted By: popsakov
Phil Collins - ...But Seriously (1989) {2016, Deluxe Edition}

Phil Collins - …But Seriously (1989) {2016, 2CD Deluxe Edition}
2CD | EAC Rip | FLAC (Img) + Cue + Log ~ 931 Mb | MP3 CBR320 ~ 312 Mb
Covers Included | 00:59:49 + 01:08:45 | RAR 5% Recovery
Rock, Art Rock, Progressive Rock | Atlantic #081227946487 PCCD 89

Originally released in December 1989, "…But Seriously" features many of Phil Collins' biggest hits and was one of the era's biggest selling albums. In the UK, it spent a total of 15 weeks at #1 during an extended run of almost a year in the Top 10 en route to becoming the biggest selling album of 1990. The album campaign culminated with his fourth and fifth BRIT Awards for British Single ( Another Day in Paradise ) and British Male. Internationally, the album scored #1 chart positions all over the globe including a four-week spell atop the Billboard 200.

This is one of the last releases in Collins' "Take A Look At Me Now" series. Entirely curated and compiled by Collins himself, his idea for the concept is to examine how his songs have evolved over time, with the majority of the additional content throughout the series focused on live versions of the tracks. By contrasting the original studio versions of the material with later performances, the series demonstrates how Collins' songs take on a life of their own once they're freed from the confines of the studio.

Each album in the series has been remastered by Grammy-nominated Nick Davis. Each album features a bold artwork concept in which Collins has recreated his poses from the original album covers with new photography that was shot in the present day. This will be released as a 2CD set, with the first disc being the original album remastered and the second disc compiling an array of demos, live recordings and S-sides from its parent album.

***************

Phil Collins - ...But Seriously (1989) {2016, Deluxe Edition}

Track List CD1:

01. Hang In Long Enough [04:45]
02. That’s Just the Way It Is [05:21]
03. Do You Remember? [04:36]
04. Something Happened on the Way to Heaven [04:52]
05. Colours [08:52]
06. I Wish It Would Rain Down [05:28]
07. Another Day in Paradise [05:23]
08. Heat on the Street [03:52]
09. All of My Life [05:36]
10. Saturday Night and Sunday Morning [01:26]
11. Father to Son [03:28]
12. Find a Way to My Heart [06:15]

Exact Audio Copy V1.1 from 23. June 2015

EAC extraction logfile from 9. June 2016, 22:20

Phil Collins / But Seriously (CD1)

Used drive : HL-DT-STDVDRAM GH24NSD1 Adapter: 0 ID: 0

Read mode : Secure
Utilize accurate stream : Yes
Defeat audio cache : Yes
Make use of C2 pointers : No

Read offset correction : 6
Overread into Lead-In and Lead-Out : No
Fill up missing offset samples with silence : Yes
Delete leading and trailing silent blocks : No
Null samples used in CRC calculations : Yes
Used interface : Installed external ASPI interface

Used output format : Internal WAV Routines
Sample format : 44.100 Hz; 16 Bit; Stereo


TOC of the extracted CD

Track | Start | Length | Start sector | End sector
––––––––––––––––––––––––––––-
1 | 0:00.00 | 4:45.00 | 0 | 21374
2 | 4:45.00 | 5:20.22 | 21375 | 45396
3 | 10:05.22 | 4:36.00 | 45397 | 66096
4 | 14:41.22 | 4:51.44 | 66097 | 87965
5 | 19:32.66 | 8:51.07 | 87966 | 127797
6 | 28:23.73 | 5:27.56 | 127798 | 152378
7 | 33:51.54 | 5:22.10 | 152379 | 176538
8 | 39:13.64 | 3:51.47 | 176539 | 193910
9 | 43:05.36 | 5:35.37 | 193911 | 219072
10 | 48:40.73 | 1:25.63 | 219073 | 225510
11 | 50:06.61 | 3:27.72 | 225511 | 241107
12 | 53:34.58 | 6:14.51 | 241108 | 269208


Range status and errors

Selected range

Filename H:\SPOTNET\Phil Collins - But Seriously 2016 (EAC)\CD1\Phil Collins - But Seriously (CD1).wav

Peak level 95.6 %
Extraction speed 7.6 X
Range quality 100.0 %
Test CRC 590F3ED0
Copy CRC 590F3ED0
Copy OK

No errors occurred


AccurateRip summary

Track 1 not present in database
Track 2 not present in database
Track 3 not present in database
Track 4 not present in database
Track 5 not present in database
Track 6 not present in database
Track 7 not present in database
Track 8 not present in database
Track 9 not present in database
Track 10 not present in database
Track 11 not present in database
Track 12 not present in database

None of the tracks are present in the AccurateRip database

End of status report

[CUETools log; Date: 26.09.2019 12:51:21; Version: 2.1.6]
[CTDB TOCID: 2piaY5pX0s1zaL1Xg5GDkbiPW2c-] found.
Track | CTDB Status
1 | (648/650) Accurately ripped
2 | (648/650) Accurately ripped
3 | (649/650) Accurately ripped
4 | (649/650) Accurately ripped
5 | (649/650) Accurately ripped
6 | (649/650) Accurately ripped
7 | (649/650) Accurately ripped
8 | (648/650) Accurately ripped
9 | (648/650) Accurately ripped
10 | (649/650) Accurately ripped
11 | (649/650) Accurately ripped
12 | (648/650) Accurately ripped
[AccurateRip ID: 001bde3b-010275ec-a00e050c] found.
Track [ CRC | V2 ] Status
01 [dd5a0628|af55c292] (000+098/188) Accurately ripped
02 [7fbf748f|542f24b6] (000+099/191) Accurately ripped
03 [d6428a41|bf7b572e] (000+099/190) Accurately ripped
04 [18ee5f2a|76f0b7c1] (000+099/190) Accurately ripped
05 [743478a3|de2e0a8c] (000+099/190) Accurately ripped
06 [d00a4959|17156f6a] (000+099/193) Accurately ripped
07 [399b32ef|3d4aed10] (000+100/192) Accurately ripped
08 [7fb38e46|1424d8fa] (000+100/190) Accurately ripped
09 [711ca7ec|94fd170c] (000+100/191) Accurately ripped
10 [efbb775d|c304e0d3] (000+100/190) Accurately ripped
11 [f0e4ddf1|cb760222] (000+100/191) Accurately ripped
12 [585e9f71|58a3528a] (000+099/189) Accurately ripped
Offsetted by 6:
01 [5e9b1594] (000/188) No match
02 [1b185563] (000/191) No match
03 [1b1140d8] (000/190) No match
04 [41d6ab18] (000/190) No match
05 [853fdd41] (000/190) No match
06 [02f76706] (000/193) No match (V2 was not tested)
07 [0acb1625] (000/192) No match
08 [92592172] (000/190) No match
09 [636e57ae] (000/191) No match
10 [37eea01b] (000/190) No match
11 [8b960134] (000/191) No match
12 [51e91ca4] (000/189) No match
Offsetted by 12:
01 [2d1acb70] (000/188) No match (V2 was not tested)
02 [dcc1659f] (000/191) No match (V2 was not tested)
03 [31d2cbd9] (000/190) No match (V2 was not tested)
04 [134b734a] (000/190) No match (V2 was not tested)
05 [b6977fd3] (000/190) No match (V2 was not tested)
06 [174953b4] (000/193) No match (V2 was not tested)
07 [d214e1a4] (000/192) No match (V2 was not tested)
08 [80461c94] (000/190) No match (V2 was not tested)
09 [9c39f7fe] (000/191) No match (V2 was not tested)
10 [b0398c4e] (000/190) No match (V2 was not tested)
11 [ade87c7f] (000/191) No match (V2 was not tested)
12 [293971ca] (000/189) No match (V2 was not tested)

Track Peak [ CRC32 ] [W/O NULL] [ LOG ]
– 95,6 [590F3ED0] [9A0AE098] CRC32
01 93,8 [418B833E] [F393CF1D]
02 90,7 [D9D3FD04] [9FAD3995]
03 93,2 [FE278BDF] [78F6EB65]
04 95,6 [06DBA5E4] [E22E5BD5]
05 93,6 [4CD82C7D] [1718AF44]
06 95,6 [87CFA3DD] [8FFFC3BC]
07 94,6 [9B90251F] [1445E470]
08 95,6 [587BEA4E] [5E9025EB]
09 95,6 [65F4F51C] [0BD9CC33]
10 95,6 [6B72DDE2] [F2BA2BE6]
11 90,9 [4C496DF8] [EF0854C3]
12 92,2 [F6DC5D8E] [8D1D1759]

Phil Collins - ...But Seriously (1989) {2016, Deluxe Edition}

Track List CD2:

01. Hang In Long Enough (Live) [04:53]
02. Something Happened On The Way To Heaven (Live) [05:27]
03. Colours (Live) [11:21]
04. Saturday Night And Sunday Morning (Live) [01:55]
05. Always (Live) [04:31]
06. Find A Way To My Heart (Live) [05:41]
07. That's How I Feel (B-Side) [05:06]
08. You've Been In Love (That Little Bit Too Long) (B-Side) [04:50]
09. Another Day In Paradise (Demo) [05:22]
10. That's Just The Way It Is (Demo) [04:55]
11. I Wish It Would Rain Down (Demo) [05:31]
12. Hang In Long Enough (Demo) [04:35]
13. Do You Remember? (Demo) [04:45]

Exact Audio Copy V1.1 from 23. June 2015

EAC extraction logfile from 9. June 2016, 22:42

Phil Collins / Extra Seriously (CD2)

Used drive : HL-DT-STDVDRAM GH24NSD1 Adapter: 0 ID: 0

Read mode : Secure
Utilize accurate stream : Yes
Defeat audio cache : Yes
Make use of C2 pointers : No

Read offset correction : 6
Overread into Lead-In and Lead-Out : No
Fill up missing offset samples with silence : Yes
Delete leading and trailing silent blocks : No
Null samples used in CRC calculations : Yes
Used interface : Installed external ASPI interface

Used output format : Internal WAV Routines
Sample format : 44.100 Hz; 16 Bit; Stereo


TOC of the extracted CD

Track | Start | Length | Start sector | End sector
––––––––––––––––––––––––––––-
1 | 0:00.00 | 4:52.62 | 0 | 21961
2 | 4:52.62 | 5:26.17 | 21962 | 46428
3 | 10:19.04 | 11:20.12 | 46429 | 97440
4 | 21:39.16 | 1:54.48 | 97441 | 106038
5 | 23:33.64 | 4:30.03 | 106039 | 126291
6 | 28:03.67 | 5:40.25 | 126292 | 151816
7 | 33:44.17 | 5:05.04 | 151817 | 174695
8 | 38:49.21 | 4:49.53 | 174696 | 196423
9 | 43:38.74 | 5:21.46 | 196424 | 220544
10 | 49:00.45 | 4:54.43 | 220545 | 242637
11 | 53:55.13 | 5:30.09 | 242638 | 267396
12 | 59:25.22 | 4:34.45 | 267397 | 287991
13 | 63:59.67 | 4:45.00 | 287992 | 309366


Range status and errors

Selected range

Filename H:\SPOTNET\Phil Collins - But Seriously 2016 (EAC)\CD2\Phil Collins - Extra Seriously (CD2).wav

Peak level 98.9 %
Extraction speed 8.3 X
Range quality 100.0 %
Test CRC C1BB1F9E
Copy CRC C1BB1F9E
Copy OK

No errors occurred


AccurateRip summary

Track 1 not present in database
Track 2 not present in database
Track 3 not present in database
Track 4 not present in database
Track 5 not present in database
Track 6 not present in database
Track 7 not present in database
Track 8 not present in database
Track 9 not present in database
Track 10 not present in database
Track 11 not present in database
Track 12 not present in database
Track 13 not present in database

None of the tracks are present in the AccurateRip database

End of status report

[CUETools log; Date: 26.09.2019 12:52:11; Version: 2.1.6]
[CTDB TOCID: leMG2SfZLPjJF0_pk4KKwY2xFb8-] found.
Track | CTDB Status
1 | (248/249) Accurately ripped
2 | (248/249) Accurately ripped
3 | (248/249) Accurately ripped
4 | (248/249) Accurately ripped
5 | (248/249) Accurately ripped
6 | (248/249) Accurately ripped
7 | (248/249) Accurately ripped
8 | (248/249) Accurately ripped
9 | (248/249) Accurately ripped
10 | (248/249) Accurately ripped
11 | (244/249) Accurately ripped
12 | (248/249) Accurately ripped
13 | (248/249) Accurately ripped
[AccurateRip ID: 0022514f-0153777c-a0101c0d] found.
Track [ CRC | V2 ] Status
01 [85065e5f|d32bc203] (00+49/77) Accurately ripped
02 [4030237d|a8fa3fc7] (00+48/76) Accurately ripped
03 [2a818ca0|7d4b526d] (00+49/77) Accurately ripped
04 [409116e9|2b6c5c88] (00+49/77) Accurately ripped
05 [f7b230ab|56abd41e] (00+49/77) Accurately ripped
06 [1278fe83|cd5e6a0a] (00+49/77) Accurately ripped
07 [9432708a|9aa8ff2d] (00+49/77) Accurately ripped
08 [4ac4b2a4|5a008865] (00+49/77) Accurately ripped
09 [e734ebc5|8b025553] (00+49/77) Accurately ripped
10 [d1e10f94|a9f0fde8] (00+49/77) Accurately ripped
11 [a42eb442|999a13f6] (00+45/75) Accurately ripped
12 [b707f67a|71d52997] (00+49/77) Accurately ripped
13 [16989940|7b0352dc] (00+49/77) Accurately ripped
Offsetted by 12:
01 [f5d3c78a] (00/77) No match (V2 was not tested)
02 [5dbeac48] (00/76) No match (V2 was not tested)
03 [ebe30b37] (00/77) No match (V2 was not tested)
04 [fb27452f] (00/77) No match (V2 was not tested)
05 [c722898e] (00/77) No match (V2 was not tested)
06 [fa51b94e] (00/77) No match (V2 was not tested)
07 [4090cf6d] (00/77) No match (V2 was not tested)
08 [5eca2556] (00/77) No match (V2 was not tested)
09 [89890dc5] (00/77) No match (V2 was not tested)
10 [2faf20da] (00/77) No match (V2 was not tested)
11 [cf2ad08c] (00/75) No match (V2 was not tested)
12 [82a1947d] (00/77) No match (V2 was not tested)
13 [a51a3a9b] (00/77) No match (V2 was not tested)

Track Peak [ CRC32 ] [W/O NULL] [ LOG ]
– 98,9 [C1BB1F9E] [C3738C2B] CRC32
01 98,9 [187AB66C] [8488152B]
02 98,9 [C9C52623] [2B29C2D0]
03 98,9 [A81A7223] [755B820E]
04 96,4 [DC5DCDE6] [4317FF43]
05 94,4 [282C1104] [F7DFED83]
06 98,9 [9A00F0E2] [2DAEF47B]
07 98,9 [4315E7CC] [39A1DD47]
08 98,3 [5928623E] [A493D5A8]
09 95,0 [889FFB0A] [A3BF7570]
10 94,5 [0F6E5926] [29D48CB7]
11 96,0 [393C1B01] [5BE247C6]
12 95,6 [A2BB6A39] [A5427472]
13 65,6 [5AE0FA96] [6AF32495]

Phil Collins - ...But Seriously (1989) {2016, Deluxe Edition}


All thanks go to the original ripper(s) …

>>> Phil Collins in my Blog <<<

DOWNLOAD: