Tags
Language
Tags
May 2024
Su Mo Tu We Th Fr Sa
28 29 30 1 2 3 4
5 6 7 8 9 10 11
12 13 14 15 16 17 18
19 20 21 22 23 24 25
26 27 28 29 30 31 1

Harry Belafonte - 8 Classic Albums (Remastered) (2012)

Posted By: Rtax
Harry Belafonte - 8 Classic Albums (Remastered) (2012)

Harry Belafonte - 8 Classic Albums (Remastered) (2012)
EAC Rip | FLAC (tracks, cue, log) - 1.04 GB | MP3 CBR 320 kbps - 746 MB
5:09:37 | Jazz, Reggae, Blues, Calypso, Ballad, Religious | Label: Real Gone Music

Four CD set containing eight albums from the vocalist and activist: Mark Twain, Belafonte Sings the Blues, Calypso, to Wish You a Merry Christmas, Belafonte Sings the Caribbean, Belafonte, An Evening with Belafonte and Love Is a Gentle Thing.

Tracklist

CD1:
01. Mark Twain (3:46)
02. Man Piaba (3:33)
03. John Henry (3:31)
04. Tol' My Captain (2:49)
05. Kalenda Rock (Mourning Song) (3:27)
06. The Drummer and The Cook (2:06)
07. The Fox (2:48)
08. Soldier, Soldier (1:39)
09. The Next Big River (0:23)
10. Delia (3:02)
11. Mo Mary (2:17)
12. Lord Randall (4:14)
13. A Fool for You (3:42)
14. Losing Hand (4:20)
15. One for My Baby (4:38)
16. In the Evenin' Mama (3:32)
17. Hallelujah I Love Her So (2:56)
18. The Way That I Feel (4:34)
19. Cotton Fields (5:20)
20. God Bless the Child (5:07)
21. Mary Ann (2:39)
22. Sinner's Prayer (3:43)
23. Fare Thee Well (4:40)

CD2:
01. Day O (Banana Boat Songs) (3:05)
02. I Do Adore Her (2:50)
03. Jamaica Farewell (3:05)
04. Will His Love Be Like His Rum? (2:35)
05. Dolly Dawn (3:16)
06. Star-O (2:05)
07. The Jack-Ass Song (2:54)
08. Hosanna (2:40)
09. Come Back Liza (3:07)
10. Brown Skin Girl (2:45)
11. Man Smart (Woman Smarter) (3:35)
12. A Star in the East (4:18)
13. The Gifts They Gave (4:00)
14. The Son of Mary (3:23)
15. The Twelve Days of Christmas (3:50)
16. Where the Little Jesus Sleeps (2:08)
17. Medley (5:25)
18. Mary, Mary (3:24)
19. Jehova The Lord Will Provide (2:58)
20. Silent Night (3:37)
21. Christmas Is Coming (1:41)
22. Medley (4:30)
23. I Heard the Bells on Christmas Day (3:02)

CD3:
01. Scratch, Scratch (2:45)
02. Lucy's Door (3:45)
03. Cordelia Brown (2:56)
04. Don't Ever Love Me (2:49)
05. Love, Love Alone (3:21)
06. Cocoanut Woman (3:19)
07. Haiti Cherie (3:20)
08. Judy Drownded (3:28)
09. Island in the Sun (2:49)
10. Angelique-O (2:42)
11. Lead Man Holler (4:17)
12. Waterboy (3:40)
13. Troubles (3:32)
14. Suzanne (3:18)
15. Matilda (3:14)
16. Take My Mother Home (5:54)
17. Noah (4:50)
18. Scarlet Ribbons (3:17)
19. In That Great Gettin' Up Mornin' (3:18)
20. Unchained Melody (3:19)
21. Jump Down Spin Around (2:00)
22. Sylvie (5:16)

CD4:
01. Merci Bon Dieu (2:57)
02. Once Was (2:59)
03. Hava Nageela (3:10)
04. Danny Boy (5:27)
05. Come O My Love (4:27)
06. Shenandoah (3:48)
07. Mary's Boy Child (4:22)
08. Cu Cu Ru Cu Cu Paloma (5:29)
09. Eden Was Just Like This (3:01)
10. When The Saints Go Marching In (3:41)
11. Fifteen (2:50)
12. I Never Will Marry (2:45)
13. I'm Goin' Away (3:05)
14. Small One (2:54)
15. Bella Rosa (3:23)
16. All My Trials (4:30)
17. Green Grow the Lilacs (3:51)
18. Times Are Gettin' Hard (3:29)
19. Turn Around (2:23)
20. Go Away from My Window (3:09)
21. Delia's Gone (4:31)
22. Walkin' on the Green Grass (3:18)
Exact Audio Copy V1.3 from 2. September 2016

EAC extraction logfile from 31. December 2017, 20:03

Harry Belafonte / 8 Classic Albums CD1

Used drive : ASUS DRW-24D5MT Adapter: 1 ID: 0

Read mode : Secure
Utilize accurate stream : Yes
Defeat audio cache : Yes
Make use of C2 pointers : No

Read offset correction : 6
Overread into Lead-In and Lead-Out : No
Fill up missing offset samples with silence : Yes
Delete leading and trailing silent blocks : No
Null samples used in CRC calculations : Yes
Used interface : Native Win32 interface for Win NT & 2000
Gap handling : Appended to previous track

Used output format : User Defined Encoder
Selected bitrate : 1024 kBit/s
Quality : High
Add ID3 tag : No
Command line compressor : C:\Program Files (x86)\Exact Audio Copy\Flac\flac.exe
Additional command line options : -8 -V -T "ARTIST=%artist%" -T "TITLE=%title%" -T "ALBUM=%albumtitle%" -T "DATE=%year%" -T "TRACKNUMBER=%tracknr%" -T "TOTALTRACKS=%numtracks%" -T "GENRE=%genre%" -T "ALBUMARTIST=%albumartist%" -T "ALBUM ARTIST=%albumartist%" -T "DISCNUMBER=%cdnumber%" -T "TOTALDISCS=%totalcds%" -T "COMMENT=EAC Secure Mode, Test & Copy, AccurateRip, FLAC -8" %source%


TOC of the extracted CD

Track | Start | Length | Start sector | End sector
––––––––––––––––––––––––––––-
1 | 0:00.00 | 3:45.57 | 0 | 16931
2 | 3:45.57 | 3:32.41 | 16932 | 32872
3 | 7:18.23 | 3:30.42 | 32873 | 48664
4 | 10:48.65 | 2:49.06 | 48665 | 61345
5 | 13:37.71 | 3:26.46 | 61346 | 76841
6 | 17:04.42 | 2:06.27 | 76842 | 86318
7 | 19:10.69 | 2:47.59 | 86319 | 98902
8 | 21:58.53 | 1:39.35 | 98903 | 106362
9 | 23:38.13 | 0:23.01 | 106363 | 108088
10 | 24:01.14 | 3:01.59 | 108089 | 121722
11 | 27:02.73 | 2:17.34 | 121723 | 132031
12 | 29:20.32 | 4:14.12 | 132032 | 151093
13 | 33:34.44 | 3:41.40 | 151094 | 167708
14 | 37:16.09 | 4:20.15 | 167709 | 187223
15 | 41:36.24 | 4:38.09 | 187224 | 208082
16 | 46:14.33 | 3:31.54 | 208083 | 223961
17 | 49:46.12 | 2:55.72 | 223962 | 237158
18 | 52:42.09 | 4:34.03 | 237159 | 257711
19 | 57:16.12 | 5:19.62 | 257712 | 281698
20 | 62:35.74 | 5:07.22 | 281699 | 304745
21 | 67:43.21 | 2:39.18 | 304746 | 316688
22 | 70:22.39 | 3:43.24 | 316689 | 333437
23 | 74:05.63 | 4:40.35 | 333438 | 354472


Track 1

Filename E:\EAC Rips\Harry Belafonte - 8 Classic Albums (2012) {RM} {Real Gone Music RGMCD006}\CD1\01 - Mark Twain.wav

Pre-gap length 0:00:02.00

Peak level 98.3 %
Extraction speed 1.0 X
Track quality 99.9 %
Test CRC 59C232DA
Copy CRC 59C232DA
Accurately ripped (confidence 13) [7DE4AEFC] (AR v2)
Copy OK

Track 2

Filename E:\EAC Rips\Harry Belafonte - 8 Classic Albums (2012) {RM} {Real Gone Music RGMCD006}\CD1\02 - Man Piaba.wav

Peak level 92.8 %
Extraction speed 1.2 X
Track quality 100.0 %
Test CRC 1CB50E69
Copy CRC 1CB50E69
Accurately ripped (confidence 13) [973222CE] (AR v2)
Copy OK

Track 3

Filename E:\EAC Rips\Harry Belafonte - 8 Classic Albums (2012) {RM} {Real Gone Music RGMCD006}\CD1\03 - John Henry.wav

Peak level 94.0 %
Extraction speed 1.3 X
Track quality 100.0 %
Test CRC 62AE839B
Copy CRC 62AE839B
Accurately ripped (confidence 13) [A84EF96F] (AR v2)
Copy OK

Track 4

Filename E:\EAC Rips\Harry Belafonte - 8 Classic Albums (2012) {RM} {Real Gone Music RGMCD006}\CD1\04 - Tol' My Captain.wav

Peak level 99.1 %
Extraction speed 1.3 X
Track quality 100.0 %
Test CRC 11ED18FD
Copy CRC 11ED18FD
Accurately ripped (confidence 13) [F3066EBE] (AR v2)
Copy OK

Track 5

Filename E:\EAC Rips\Harry Belafonte - 8 Classic Albums (2012) {RM} {Real Gone Music RGMCD006}\CD1\05 - Kalenda Rock (Mourning Song).wav

Peak level 88.7 %
Extraction speed 1.4 X
Track quality 100.0 %
Test CRC 85B11E6D
Copy CRC 85B11E6D
Accurately ripped (confidence 13) [AD72380B] (AR v2)
Copy OK

Track 6

Filename E:\EAC Rips\Harry Belafonte - 8 Classic Albums (2012) {RM} {Real Gone Music RGMCD006}\CD1\06 - The Drummer and The Cook.wav

Peak level 91.9 %
Extraction speed 1.4 X
Track quality 100.0 %
Test CRC 2216A7CB
Copy CRC 2216A7CB
Accurately ripped (confidence 13) [29FC8B5F] (AR v2)
Copy OK

Track 7

Filename E:\EAC Rips\Harry Belafonte - 8 Classic Albums (2012) {RM} {Real Gone Music RGMCD006}\CD1\07 - The Fox.wav

Peak level 92.1 %
Extraction speed 1.5 X
Track quality 100.0 %
Test CRC 727BB47C
Copy CRC 727BB47C
Accurately ripped (confidence 13) [6E60C136] (AR v2)
Copy OK

Track 8

Filename E:\EAC Rips\Harry Belafonte - 8 Classic Albums (2012) {RM} {Real Gone Music RGMCD006}\CD1\08 - Soldier, Soldier.wav

Peak level 99.8 %
Extraction speed 1.4 X
Track quality 100.0 %
Test CRC 7710169A
Copy CRC 7710169A
Accurately ripped (confidence 13) [F6D29D5C] (AR v2)
Copy OK

Track 9

Filename E:\EAC Rips\Harry Belafonte - 8 Classic Albums (2012) {RM} {Real Gone Music RGMCD006}\CD1\09 - The Next Big River.wav

Peak level 93.5 %
Extraction speed 0.7 X
Track quality 100.0 %
Test CRC BD33F915
Copy CRC BD33F915
Accurately ripped (confidence 13) [B8EE1FAF] (AR v2)
Copy OK

Track 10

Filename E:\EAC Rips\Harry Belafonte - 8 Classic Albums (2012) {RM} {Real Gone Music RGMCD006}\CD1\10 - Delia.wav

Peak level 100.0 %
Extraction speed 1.6 X
Track quality 100.0 %
Test CRC 813B94D9
Copy CRC 813B94D9
Accurately ripped (confidence 13) [033E61CD] (AR v2)
Copy OK

Track 11

Filename E:\EAC Rips\Harry Belafonte - 8 Classic Albums (2012) {RM} {Real Gone Music RGMCD006}\CD1\11 - Mo Mary.wav

Peak level 100.0 %
Extraction speed 1.3 X
Track quality 99.9 %
Test CRC 691B5C32
Copy CRC 691B5C32
Accurately ripped (confidence 13) [A52A1504] (AR v2)
Copy OK

Track 12

Filename E:\EAC Rips\Harry Belafonte - 8 Classic Albums (2012) {RM} {Real Gone Music RGMCD006}\CD1\12 - Lord Randall.wav

Peak level 100.0 %
Extraction speed 1.8 X
Track quality 100.0 %
Test CRC 079FD51E
Copy CRC 079FD51E
Accurately ripped (confidence 13) [4CBC2D1B] (AR v2)
Copy OK

Track 13

Filename E:\EAC Rips\Harry Belafonte - 8 Classic Albums (2012) {RM} {Real Gone Music RGMCD006}\CD1\13 - A Fool for You.wav

Peak level 99.7 %
Extraction speed 1.8 X
Track quality 100.0 %
Test CRC 90F201C7
Copy CRC 90F201C7
Accurately ripped (confidence 13) [9C425523] (AR v2)
Copy OK

Track 14

Filename E:\EAC Rips\Harry Belafonte - 8 Classic Albums (2012) {RM} {Real Gone Music RGMCD006}\CD1\14 - Losing Hand.wav

Peak level 97.1 %
Extraction speed 1.9 X
Track quality 100.0 %
Test CRC 6905DA11
Copy CRC 6905DA11
Accurately ripped (confidence 13) [DDFE2045] (AR v2)
Copy OK

Track 15

Filename E:\EAC Rips\Harry Belafonte - 8 Classic Albums (2012) {RM} {Real Gone Music RGMCD006}\CD1\15 - One for My Baby.wav

Peak level 97.7 %
Extraction speed 2.1 X
Track quality 100.0 %
Test CRC C250D01E
Copy CRC C250D01E
Accurately ripped (confidence 13) [3812DF86] (AR v2)
Copy OK

Track 16

Filename E:\EAC Rips\Harry Belafonte - 8 Classic Albums (2012) {RM} {Real Gone Music RGMCD006}\CD1\16 - In the Evenin' Mama.wav

Peak level 93.0 %
Extraction speed 2.1 X
Track quality 100.0 %
Test CRC 5E2F69C9
Copy CRC 5E2F69C9
Accurately ripped (confidence 13) [9C2035C7] (AR v2)
Copy OK

Track 17

Filename E:\EAC Rips\Harry Belafonte - 8 Classic Albums (2012) {RM} {Real Gone Music RGMCD006}\CD1\17 - Hallelujah I Love Her So.wav

Peak level 94.2 %
Extraction speed 1.7 X
Track quality 99.9 %
Test CRC 0CF8D55E
Copy CRC 0CF8D55E
Accurately ripped (confidence 13) [54017225] (AR v2)
Copy OK

Track 18

Filename E:\EAC Rips\Harry Belafonte - 8 Classic Albums (2012) {RM} {Real Gone Music RGMCD006}\CD1\18 - The Way That I Feel.wav

Peak level 78.2 %
Extraction speed 2.2 X
Track quality 100.0 %
Test CRC BBE18AC4
Copy CRC BBE18AC4
Accurately ripped (confidence 13) [5442E12E] (AR v2)
Copy OK

Track 19

Filename E:\EAC Rips\Harry Belafonte - 8 Classic Albums (2012) {RM} {Real Gone Music RGMCD006}\CD1\19 - Cotton Fields.wav

Peak level 100.0 %
Extraction speed 2.3 X
Track quality 100.0 %
Test CRC C3A28C1F
Copy CRC C3A28C1F
Accurately ripped (confidence 13) [BB8F47F8] (AR v2)
Copy OK

Track 20

Filename E:\EAC Rips\Harry Belafonte - 8 Classic Albums (2012) {RM} {Real Gone Music RGMCD006}\CD1\20 - God Bless the Child.wav

Peak level 82.4 %
Extraction speed 2.4 X
Track quality 100.0 %
Test CRC 1440C75A
Copy CRC 1440C75A
Accurately ripped (confidence 13) [313CC206] (AR v2)
Copy OK

Track 21

Filename E:\EAC Rips\Harry Belafonte - 8 Classic Albums (2012) {RM} {Real Gone Music RGMCD006}\CD1\21 - Mary Ann.wav

Peak level 88.0 %
Extraction speed 2.2 X
Track quality 100.0 %
Test CRC E0AE399E
Copy CRC E0AE399E
Accurately ripped (confidence 13) [AF9E6325] (AR v2)
Copy OK

Track 22

Filename E:\EAC Rips\Harry Belafonte - 8 Classic Albums (2012) {RM} {Real Gone Music RGMCD006}\CD1\22 - Sinner's Prayer.wav

Peak level 87.2 %
Extraction speed 2.4 X
Track quality 100.0 %
Test CRC C39C7209
Copy CRC C39C7209
Accurately ripped (confidence 13) [2C89DA9B] (AR v2)
Copy OK

Track 23

Filename E:\EAC Rips\Harry Belafonte - 8 Classic Albums (2012) {RM} {Real Gone Music RGMCD006}\CD1\23 - Fare Thee Well.wav

Peak level 92.0 %
Extraction speed 2.5 X
Track quality 100.0 %
Test CRC 2C0867C1
Copy CRC 2C0867C1
Accurately ripped (confidence 12) [F0210143] (AR v2)
Copy OK


All tracks accurately ripped

No errors occurred

End of status report

–– CUETools DB Plugin V2.1.6

[CTDB TOCID: .wbOydFVVJmVDXtJBJ8heVWYb94-] found
Submit result: .wbOydFVVJmVDXtJBJ8heVWYb94- has been confirmed
Track | CTDB Status
1 | (30/31) Accurately ripped
2 | (30/31) Accurately ripped
3 | (30/31) Accurately ripped
4 | (29/31) Accurately ripped
5 | (30/31) Accurately ripped
6 | (30/31) Accurately ripped
7 | (30/31) Accurately ripped
8 | (30/31) Accurately ripped
9 | (30/31) Accurately ripped
10 | (30/31) Accurately ripped
11 | (30/31) Accurately ripped
12 | (30/31) Accurately ripped
13 | (30/31) Accurately ripped
14 | (30/31) Accurately ripped
15 | (30/31) Accurately ripped
16 | (30/31) Accurately ripped
17 | (30/31) Accurately ripped
18 | (30/31) Accurately ripped
19 | (30/31) Accurately ripped
20 | (30/31) Accurately ripped
21 | (30/31) Accurately ripped
22 | (30/31) Accurately ripped
23 | (30/31) Accurately ripped


==== Log checksum B1FDF87B1201930E619204DCCE78FB81C2032CF8FCD66F3FE8140C4D928F9A4A ====


Exact Audio Copy V1.3 from 2. September 2016

EAC extraction logfile from 31. December 2017, 21:40

Harry Belafonte / 8 Classic Albums CD2

Used drive : ASUS DRW-24D5MT Adapter: 1 ID: 0

Read mode : Secure
Utilize accurate stream : Yes
Defeat audio cache : Yes
Make use of C2 pointers : No

Read offset correction : 6
Overread into Lead-In and Lead-Out : No
Fill up missing offset samples with silence : Yes
Delete leading and trailing silent blocks : No
Null samples used in CRC calculations : Yes
Used interface : Native Win32 interface for Win NT & 2000
Gap handling : Appended to previous track

Used output format : User Defined Encoder
Selected bitrate : 1024 kBit/s
Quality : High
Add ID3 tag : No
Command line compressor : C:\Program Files (x86)\Exact Audio Copy\Flac\flac.exe
Additional command line options : -8 -V -T "ARTIST=%artist%" -T "TITLE=%title%" -T "ALBUM=%albumtitle%" -T "DATE=%year%" -T "TRACKNUMBER=%tracknr%" -T "TOTALTRACKS=%numtracks%" -T "GENRE=%genre%" -T "ALBUMARTIST=%albumartist%" -T "ALBUM ARTIST=%albumartist%" -T "DISCNUMBER=%cdnumber%" -T "TOTALDISCS=%totalcds%" -T "COMMENT=EAC Secure Mode, Test & Copy, AccurateRip, FLAC -8" %source%


TOC of the extracted CD

Track | Start | Length | Start sector | End sector
––––––––––––––––––––––––––––-
1 | 0:00.00 | 3:05.27 | 0 | 13901
2 | 3:05.27 | 2:49.62 | 13902 | 26638
3 | 5:55.14 | 3:04.72 | 26639 | 40510
4 | 9:00.11 | 2:35.18 | 40511 | 52153
5 | 11:35.29 | 3:15.63 | 52154 | 66841
6 | 14:51.17 | 2:04.63 | 66842 | 76204
7 | 16:56.05 | 2:53.45 | 76205 | 89224
8 | 19:49.50 | 2:39.60 | 89225 | 101209
9 | 22:29.35 | 3:06.62 | 101210 | 115221
10 | 25:36.22 | 2:45.21 | 115222 | 127617
11 | 28:21.43 | 3:35.32 | 127618 | 143774
12 | 31:57.00 | 4:17.52 | 143775 | 163101
13 | 36:14.52 | 4:00.10 | 163102 | 181111
14 | 40:14.62 | 3:23.06 | 181112 | 196342
15 | 43:37.68 | 3:50.22 | 196343 | 213614
16 | 47:28.15 | 2:08.09 | 213615 | 223223
17 | 49:36.24 | 5:24.49 | 223224 | 247572
18 | 55:00.73 | 3:23.48 | 247573 | 262845
19 | 58:24.46 | 2:58.35 | 262846 | 276230
20 | 61:23.06 | 3:37.29 | 276231 | 292534
21 | 65:00.35 | 1:41.10 | 292535 | 300119
22 | 66:41.45 | 4:29.44 | 300120 | 320338
23 | 71:11.14 | 3:01.57 | 320339 | 333970


Track 1

Filename E:\EAC Rips\Harry Belafonte - 8 Classic Albums (2012) {RM 4CD} {Real Gone Music RGMCD006}\CD2\01 - Day O (Banana Boat Songs).wav

Pre-gap length 0:00:02.00

Peak level 92.8 %
Extraction speed 1.0 X
Track quality 100.0 %
Test CRC 6846CB49
Copy CRC 6846CB49
Accurately ripped (confidence 13) [0B2E7143] (AR v2)
Copy OK

Track 2

Filename E:\EAC Rips\Harry Belafonte - 8 Classic Albums (2012) {RM 4CD} {Real Gone Music RGMCD006}\CD2\02 - I Do Adore Her.wav

Peak level 99.9 %
Extraction speed 1.1 X
Track quality 100.0 %
Test CRC 0A133A7A
Copy CRC 0A133A7A
Accurately ripped (confidence 13) [0278C1F3] (AR v2)
Copy OK

Track 3

Filename E:\EAC Rips\Harry Belafonte - 8 Classic Albums (2012) {RM 4CD} {Real Gone Music RGMCD006}\CD2\03 - Jamaica Farewell.wav

Peak level 99.5 %
Extraction speed 1.2 X
Track quality 100.0 %
Test CRC 00293C9C
Copy CRC 00293C9C
Accurately ripped (confidence 13) [384FEBA7] (AR v2)
Copy OK

Track 4

Filename E:\EAC Rips\Harry Belafonte - 8 Classic Albums (2012) {RM 4CD} {Real Gone Music RGMCD006}\CD2\04 - Will His Love Be Like His Rum.wav

Peak level 92.8 %
Extraction speed 1.2 X
Track quality 100.0 %
Test CRC CCCDAD72
Copy CRC CCCDAD72
Accurately ripped (confidence 13) [93E9F2A3] (AR v2)
Copy OK

Track 5

Filename E:\EAC Rips\Harry Belafonte - 8 Classic Albums (2012) {RM 4CD} {Real Gone Music RGMCD006}\CD2\05 - Dolly Dawn.wav

Peak level 92.5 %
Extraction speed 1.1 X
Track quality 99.9 %
Test CRC 5F01744B
Copy CRC 5F01744B
Accurately ripped (confidence 13) [771D0232] (AR v2)
Copy OK

Track 6

Filename E:\EAC Rips\Harry Belafonte - 8 Classic Albums (2012) {RM 4CD} {Real Gone Music RGMCD006}\CD2\06 - Star-O.wav

Peak level 92.8 %
Extraction speed 1.0 X
Track quality 99.9 %
Test CRC A1623D16
Copy CRC A1623D16
Accurately ripped (confidence 13) [BD186892] (AR v2)
Copy OK

Track 7

Filename E:\EAC Rips\Harry Belafonte - 8 Classic Albums (2012) {RM 4CD} {Real Gone Music RGMCD006}\CD2\07 - The Jack-Ass Song.wav

Peak level 92.7 %
Extraction speed 1.2 X
Track quality 99.9 %
Test CRC 6BB4B406
Copy CRC 6BB4B406
Accurately ripped (confidence 13) [13E6786B] (AR v2)
Copy OK

Track 8

Filename E:\EAC Rips\Harry Belafonte - 8 Classic Albums (2012) {RM 4CD} {Real Gone Music RGMCD006}\CD2\08 - Hosanna.wav

Peak level 91.9 %
Extraction speed 1.4 X
Track quality 100.0 %
Test CRC FD2FD9C7
Copy CRC FD2FD9C7
Accurately ripped (confidence 13) [2223C7E9] (AR v2)
Copy OK

Track 9

Filename E:\EAC Rips\Harry Belafonte - 8 Classic Albums (2012) {RM 4CD} {Real Gone Music RGMCD006}\CD2\09 - Come Back Liza.wav

Peak level 99.6 %
Extraction speed 1.5 X
Track quality 100.0 %
Test CRC 8BEC4129
Copy CRC 8BEC4129
Accurately ripped (confidence 13) [C1EC0CBE] (AR v2)
Copy OK

Track 10

Filename E:\EAC Rips\Harry Belafonte - 8 Classic Albums (2012) {RM 4CD} {Real Gone Music RGMCD006}\CD2\10 - Brown Skin Girl.wav

Peak level 99.7 %
Extraction speed 1.6 X
Track quality 100.0 %
Test CRC 5EBFE17B
Copy CRC 5EBFE17B
Accurately ripped (confidence 13) [313A1AFD] (AR v2)
Copy OK

Track 11

Filename E:\EAC Rips\Harry Belafonte - 8 Classic Albums (2012) {RM 4CD} {Real Gone Music RGMCD006}\CD2\11 - Man Smart (Woman Smarter).wav

Peak level 100.0 %
Extraction speed 1.5 X
Track quality 99.9 %
Test CRC 4BB9CCE4
Copy CRC 4BB9CCE4
Accurately ripped (confidence 13) [CD659F94] (AR v2)
Copy OK

Track 12

Filename E:\EAC Rips\Harry Belafonte - 8 Classic Albums (2012) {RM 4CD} {Real Gone Music RGMCD006}\CD2\12 - A Star in the East.wav

Peak level 94.8 %
Extraction speed 1.8 X
Track quality 100.0 %
Test CRC C850E2C1
Copy CRC C850E2C1
Accurately ripped (confidence 13) [87B94EFA] (AR v2)
Copy OK

Track 13

Filename E:\EAC Rips\Harry Belafonte - 8 Classic Albums (2012) {RM 4CD} {Real Gone Music RGMCD006}\CD2\13 - The Gifts They Gave.wav

Peak level 100.0 %
Extraction speed 1.8 X
Track quality 100.0 %
Test CRC 0A8B6427
Copy CRC 0A8B6427
Accurately ripped (confidence 13) [7DF2DFED] (AR v2)
Copy OK

Track 14

Filename E:\EAC Rips\Harry Belafonte - 8 Classic Albums (2012) {RM 4CD} {Real Gone Music RGMCD006}\CD2\14 - The Son of Mary.wav

Peak level 94.2 %
Extraction speed 1.9 X
Track quality 100.0 %
Test CRC B0FB8EE9
Copy CRC B0FB8EE9
Accurately ripped (confidence 13) [E283E8A2] (AR v2)
Copy OK

Track 15

Filename E:\EAC Rips\Harry Belafonte - 8 Classic Albums (2012) {RM 4CD} {Real Gone Music RGMCD006}\CD2\15 - The Twelve Days of Christmas.wav

Peak level 100.0 %
Extraction speed 2.0 X
Track quality 100.0 %
Test CRC 02162DAD
Copy CRC 02162DAD
Accurately ripped (confidence 13) [C37CBB9A] (AR v2)
Copy OK

Track 16

Filename E:\EAC Rips\Harry Belafonte - 8 Classic Albums (2012) {RM 4CD} {Real Gone Music RGMCD006}\CD2\16 - Where the Little Jesus Sleeps.wav

Peak level 69.6 %
Extraction speed 1.5 X
Track quality 99.9 %
Test CRC 0C998094
Copy CRC 0C998094
Accurately ripped (confidence 13) [9251C004] (AR v2)
Copy OK

Track 17

Filename E:\EAC Rips\Harry Belafonte - 8 Classic Albums (2012) {RM 4CD} {Real Gone Music RGMCD006}\CD2\17 - Medley.wav

Peak level 100.0 %
Extraction speed 2.2 X
Track quality 100.0 %
Test CRC 83EE0D50
Copy CRC 83EE0D50
Accurately ripped (confidence 13) [9CF261D8] (AR v2)
Copy OK

Track 18

Filename E:\EAC Rips\Harry Belafonte - 8 Classic Albums (2012) {RM 4CD} {Real Gone Music RGMCD006}\CD2\18 - Mary, Mary.wav

Peak level 89.4 %
Extraction speed 2.1 X
Track quality 100.0 %
Test CRC FE8C381E
Copy CRC FE8C381E
Accurately ripped (confidence 13) [8FE30C75] (AR v2)
Copy OK

Track 19

Filename E:\EAC Rips\Harry Belafonte - 8 Classic Albums (2012) {RM 4CD} {Real Gone Music RGMCD006}\CD2\19 - Jehova The Lord Will Provide.wav

Peak level 95.7 %
Extraction speed 2.1 X
Track quality 100.0 %
Test CRC F315BBF8
Copy CRC F315BBF8
Accurately ripped (confidence 13) [D4E94FFF] (AR v2)
Copy OK

Track 20

Filename E:\EAC Rips\Harry Belafonte - 8 Classic Albums (2012) {RM 4CD} {Real Gone Music RGMCD006}\CD2\20 - Silent Night.wav

Peak level 83.1 %
Extraction speed 2.2 X
Track quality 100.0 %
Test CRC AC3CFD6D
Copy CRC AC3CFD6D
Accurately ripped (confidence 13) [F2F5E3CE] (AR v2)
Copy OK

Track 21

Filename E:\EAC Rips\Harry Belafonte - 8 Classic Albums (2012) {RM 4CD} {Real Gone Music RGMCD006}\CD2\21 - Christmas Is Coming.wav

Peak level 100.0 %
Extraction speed 1.9 X
Track quality 100.0 %
Test CRC DCDB6415
Copy CRC DCDB6415
Accurately ripped (confidence 13) [67004386] (AR v2)
Copy OK

Track 22

Filename E:\EAC Rips\Harry Belafonte - 8 Classic Albums (2012) {RM 4CD} {Real Gone Music RGMCD006}\CD2\22 - Medley.wav

Peak level 94.1 %
Extraction speed 2.1 X
Track quality 99.9 %
Test CRC 840E1D4E
Copy CRC 840E1D4E
Accurately ripped (confidence 13) [FB48DFA7] (AR v2)
Copy OK

Track 23

Filename E:\EAC Rips\Harry Belafonte - 8 Classic Albums (2012) {RM 4CD} {Real Gone Music RGMCD006}\CD2\23 - I Heard the Bells on Christmas Day.wav

Peak level 95.1 %
Extraction speed 2.2 X
Track quality 100.0 %
Test CRC C4E336B4
Copy CRC C4E336B4
Accurately ripped (confidence 12) [62B496F8] (AR v2)
Copy OK


All tracks accurately ripped

No errors occurred

End of status report

–– CUETools DB Plugin V2.1.6

[CTDB TOCID: E_xXZ5aQhkhld5g.mzfB1ySI9NA-] found
Submit result: E_xXZ5aQhkhld5g.mzfB1ySI9NA- has been confirmed
Track | CTDB Status
1 | (27/27) Accurately ripped
2 | (27/27) Accurately ripped
3 | (27/27) Accurately ripped
4 | (27/27) Accurately ripped
5 | (27/27) Accurately ripped
6 | (27/27) Accurately ripped
7 | (27/27) Accurately ripped
8 | (27/27) Accurately ripped
9 | (27/27) Accurately ripped
10 | (27/27) Accurately ripped
11 | (27/27) Accurately ripped
12 | (27/27) Accurately ripped
13 | (27/27) Accurately ripped
14 | (27/27) Accurately ripped
15 | (27/27) Accurately ripped
16 | (27/27) Accurately ripped
17 | (27/27) Accurately ripped
18 | (27/27) Accurately ripped
19 | (27/27) Accurately ripped
20 | (27/27) Accurately ripped
21 | (27/27) Accurately ripped
22 | (27/27) Accurately ripped
23 | (27/27) Accurately ripped


==== Log checksum 592C0D993CD8B9E8A2BC9C63680F18082C99C804396CA57B2AE15330E273D55D ====


Exact Audio Copy V1.3 from 2. September 2016

EAC extraction logfile from 1. January 2018, 12:58

Harry Belafonte / 8 Classic Albums CD3

Used drive : ASUS DRW-24D5MT Adapter: 1 ID: 0

Read mode : Secure
Utilize accurate stream : Yes
Defeat audio cache : Yes
Make use of C2 pointers : No

Read offset correction : 6
Overread into Lead-In and Lead-Out : No
Fill up missing offset samples with silence : Yes
Delete leading and trailing silent blocks : No
Null samples used in CRC calculations : Yes
Used interface : Native Win32 interface for Win NT & 2000
Gap handling : Appended to previous track

Used output format : User Defined Encoder
Selected bitrate : 1024 kBit/s
Quality : High
Add ID3 tag : No
Command line compressor : C:\Program Files (x86)\Exact Audio Copy\Flac\flac.exe
Additional command line options : -8 -V -T "ARTIST=%artist%" -T "TITLE=%title%" -T "ALBUM=%albumtitle%" -T "DATE=%year%" -T "TRACKNUMBER=%tracknr%" -T "TOTALTRACKS=%numtracks%" -T "GENRE=%genre%" -T "ALBUMARTIST=%albumartist%" -T "ALBUM ARTIST=%albumartist%" -T "DISCNUMBER=%cdnumber%" -T "TOTALDISCS=%totalcds%" -T "COMMENT=EAC Secure Mode, Test & Copy, AccurateRip, FLAC -8" %source%


TOC of the extracted CD

Track | Start | Length | Start sector | End sector
––––––––––––––––––––––––––––-
1 | 0:00.00 | 2:44.40 | 0 | 12339
2 | 2:44.40 | 3:45.28 | 12340 | 29242
3 | 6:29.68 | 2:56.32 | 29243 | 42474
4 | 9:26.25 | 2:48.74 | 42475 | 55148
5 | 12:15.24 | 3:20.64 | 55149 | 70212
6 | 15:36.13 | 3:19.06 | 70213 | 85143
7 | 18:55.19 | 3:19.41 | 85144 | 100109
8 | 22:14.60 | 3:28.00 | 100110 | 115709
9 | 25:42.60 | 2:48.53 | 115710 | 128362
10 | 28:31.38 | 2:42.37 | 128363 | 140549
11 | 31:14.00 | 4:16.57 | 140550 | 159806
12 | 35:30.57 | 3:40.21 | 159807 | 176327
13 | 39:11.03 | 3:32.10 | 176328 | 192237
14 | 42:43.13 | 3:18.14 | 192238 | 207101
15 | 46:01.27 | 3:13.43 | 207102 | 221619
16 | 49:14.70 | 5:53.69 | 221620 | 248163
17 | 55:08.64 | 4:50.31 | 248164 | 269944
18 | 59:59.20 | 3:16.64 | 269945 | 284708
19 | 63:16.09 | 3:18.00 | 284709 | 299558
20 | 66:34.09 | 3:19.18 | 299559 | 314501
21 | 69:53.27 | 2:00.05 | 314502 | 323506
22 | 71:53.32 | 5:15.55 | 323507 | 347186


Track 1

Filename E:\EAC Rips\Harry Belafonte - 8 Classic Albums (2012) {RM 4CD} {Real Gone Music RGMCD006}\CD3\01 - Scratch, Scratch.wav

Pre-gap length 0:00:02.00

Peak level 99.1 %
Extraction speed 1.0 X
Track quality 100.0 %
Test CRC D0DB665C
Copy CRC D0DB665C
Accurately ripped (confidence 9) [BEBC501E] (AR v2)
Copy OK

Track 2

Filename E:\EAC Rips\Harry Belafonte - 8 Classic Albums (2012) {RM 4CD} {Real Gone Music RGMCD006}\CD3\02 - Lucy's Door.wav

Peak level 99.8 %
Extraction speed 1.2 X
Track quality 100.0 %
Test CRC 1190977F
Copy CRC 1190977F
Accurately ripped (confidence 9) [8EB4C15E] (AR v2)
Copy OK

Track 3

Filename E:\EAC Rips\Harry Belafonte - 8 Classic Albums (2012) {RM 4CD} {Real Gone Music RGMCD006}\CD3\03 - Cordelia Brown.wav

Peak level 99.9 %
Extraction speed 1.2 X
Track quality 100.0 %
Test CRC B9C7D908
Copy CRC B9C7D908
Accurately ripped (confidence 9) [43B03587] (AR v2)
Copy OK

Track 4

Filename E:\EAC Rips\Harry Belafonte - 8 Classic Albums (2012) {RM 4CD} {Real Gone Music RGMCD006}\CD3\04 - Don't Ever Love Me.wav

Peak level 99.7 %
Extraction speed 1.1 X
Track quality 99.9 %
Test CRC 3B061D8F
Copy CRC 3B061D8F
Accurately ripped (confidence 9) [EC61B19E] (AR v2)
Copy OK

Track 5

Filename E:\EAC Rips\Harry Belafonte - 8 Classic Albums (2012) {RM 4CD} {Real Gone Music RGMCD006}\CD3\05 - Love, Love Alone.wav

Peak level 100.0 %
Extraction speed 1.2 X
Track quality 99.9 %
Test CRC 39DB8D45
Copy CRC 39DB8D45
Accurately ripped (confidence 9) [F796FE71] (AR v2)
Copy OK

Track 6

Filename E:\EAC Rips\Harry Belafonte - 8 Classic Albums (2012) {RM 4CD} {Real Gone Music RGMCD006}\CD3\06 - Cocoanut Woman.wav

Peak level 100.0 %
Extraction speed 1.5 X
Track quality 100.0 %
Test CRC 94C0662C
Copy CRC 94C0662C
Accurately ripped (confidence 9) [BC21F21F] (AR v2)
Copy OK

Track 7

Filename E:\EAC Rips\Harry Belafonte - 8 Classic Albums (2012) {RM 4CD} {Real Gone Music RGMCD006}\CD3\07 - Haiti Cherie.wav

Peak level 89.2 %
Extraction speed 1.3 X
Track quality 99.9 %
Test CRC 289444B6
Copy CRC 289444B6
Accurately ripped (confidence 9) [DA412E63] (AR v2)
Copy OK

Track 8

Filename E:\EAC Rips\Harry Belafonte - 8 Classic Albums (2012) {RM 4CD} {Real Gone Music RGMCD006}\CD3\08 - Judy Drownded.wav

Peak level 100.0 %
Extraction speed 1.6 X
Track quality 100.0 %
Test CRC 8EB8F5B7
Copy CRC 8EB8F5B7
Accurately ripped (confidence 9) [076E00B0] (AR v2)
Copy OK

Track 9

Filename E:\EAC Rips\Harry Belafonte - 8 Classic Albums (2012) {RM 4CD} {Real Gone Music RGMCD006}\CD3\09 - Island in the Sun.wav

Peak level 99.8 %
Extraction speed 1.6 X
Track quality 100.0 %
Test CRC E6AEDDA0
Copy CRC E6AEDDA0
Accurately ripped (confidence 9) [FD290D2F] (AR v2)
Copy OK

Track 10

Filename E:\EAC Rips\Harry Belafonte - 8 Classic Albums (2012) {RM 4CD} {Real Gone Music RGMCD006}\CD3\10 - Angelique-O.wav

Peak level 99.9 %
Extraction speed 1.6 X
Track quality 100.0 %
Test CRC F0EB027B
Copy CRC F0EB027B
Accurately ripped (confidence 8) [1EF2DED9] (AR v2)
Copy OK

Track 11

Filename E:\EAC Rips\Harry Belafonte - 8 Classic Albums (2012) {RM 4CD} {Real Gone Music RGMCD006}\CD3\11 - Lead Man Holler.wav

Peak level 99.3 %
Extraction speed 1.8 X
Track quality 100.0 %
Test CRC A80EFF3A
Copy CRC A80EFF3A
Accurately ripped (confidence 8) [40E5C08C] (AR v2)
Copy OK

Track 12

Filename E:\EAC Rips\Harry Belafonte - 8 Classic Albums (2012) {RM 4CD} {Real Gone Music RGMCD006}\CD3\12 - Waterboy.wav

Peak level 92.8 %
Extraction speed 1.8 X
Track quality 100.0 %
Test CRC 9E2D8D1D
Copy CRC 9E2D8D1D
Accurately ripped (confidence 9) [32D7D6C7] (AR v2)
Copy OK

Track 13

Filename E:\EAC Rips\Harry Belafonte - 8 Classic Albums (2012) {RM 4CD} {Real Gone Music RGMCD006}\CD3\13 - Troubles.wav

Peak level 92.8 %
Extraction speed 1.7 X
Track quality 99.9 %
Test CRC 0C355F83
Copy CRC 0C355F83
Accurately ripped (confidence 9) [F800EC5A] (AR v2)
Copy OK

Track 14

Filename E:\EAC Rips\Harry Belafonte - 8 Classic Albums (2012) {RM 4CD} {Real Gone Music RGMCD006}\CD3\14 - Suzanne.wav

Peak level 99.9 %
Extraction speed 1.7 X
Track quality 99.9 %
Test CRC 65A6195C
Copy CRC 65A6195C
Accurately ripped (confidence 9) [6E3D52A3] (AR v2)
Copy OK

Track 15

Filename E:\EAC Rips\Harry Belafonte - 8 Classic Albums (2012) {RM 4CD} {Real Gone Music RGMCD006}\CD3\15 - Matilda.wav

Peak level 95.3 %
Extraction speed 1.9 X
Track quality 100.0 %
Test CRC 02A6A43B
Copy CRC 02A6A43B
Accurately ripped (confidence 9) [BFDB6C23] (AR v2)
Copy OK

Track 16

Filename E:\EAC Rips\Harry Belafonte - 8 Classic Albums (2012) {RM 4CD} {Real Gone Music RGMCD006}\CD3\16 - Take My Mother Home.wav

Peak level 98.4 %
Extraction speed 2.0 X
Track quality 99.9 %
Test CRC 4C8FF580
Copy CRC 4C8FF580
Accurately ripped (confidence 9) [87E0C169] (AR v2)
Copy OK

Track 17

Filename E:\EAC Rips\Harry Belafonte - 8 Classic Albums (2012) {RM 4CD} {Real Gone Music RGMCD006}\CD3\17 - Noah.wav

Peak level 92.5 %
Extraction speed 2.2 X
Track quality 100.0 %
Test CRC F54804CF
Copy CRC F54804CF
Accurately ripped (confidence 9) [59AA9E64] (AR v2)
Copy OK

Track 18

Filename E:\EAC Rips\Harry Belafonte - 8 Classic Albums (2012) {RM 4CD} {Real Gone Music RGMCD006}\CD3\18 - Scarlet Ribbons.wav

Peak level 90.0 %
Extraction speed 1.9 X
Track quality 99.9 %
Test CRC 735908E5
Copy CRC 735908E5
Accurately ripped (confidence 9) [AC27E923] (AR v2)
Copy OK

Track 19

Filename E:\EAC Rips\Harry Belafonte - 8 Classic Albums (2012) {RM 4CD} {Real Gone Music RGMCD006}\CD3\19 - In That Great Gettin' Up Mornin'.wav

Peak level 92.8 %
Extraction speed 2.2 X
Track quality 100.0 %
Test CRC FE157098
Copy CRC FE157098
Accurately ripped (confidence 8) [08EC6DA5] (AR v2)
Copy OK

Track 20

Filename E:\EAC Rips\Harry Belafonte - 8 Classic Albums (2012) {RM 4CD} {Real Gone Music RGMCD006}\CD3\20 - Unchained Melody.wav

Peak level 92.8 %
Extraction speed 2.3 X
Track quality 100.0 %
Test CRC 7F9552EB
Copy CRC 7F9552EB
Accurately ripped (confidence 8) [E13E7A36] (AR v2)
Copy OK

Track 21

Filename E:\EAC Rips\Harry Belafonte - 8 Classic Albums (2012) {RM 4CD} {Real Gone Music RGMCD006}\CD3\21 - Jump Down Spin Around.wav

Peak level 92.8 %
Extraction speed 2.1 X
Track quality 100.0 %
Test CRC 754EBB69
Copy CRC 754EBB69
Accurately ripped (confidence 9) [210433E9] (AR v2)
Copy OK

Track 22

Filename E:\EAC Rips\Harry Belafonte - 8 Classic Albums (2012) {RM 4CD} {Real Gone Music RGMCD006}\CD3\22 - Sylvie.wav

Peak level 99.5 %
Extraction speed 2.3 X
Track quality 99.9 %
Test CRC 218D5940
Copy CRC 218D5940
Accurately ripped (confidence 9) [1B8F743D] (AR v2)
Copy OK


All tracks accurately ripped

No errors occurred

End of status report

–– CUETools DB Plugin V2.1.6

[CTDB TOCID: qyO9bIGZhaINQK2hLF6qCcRnUWs-] found
Submit result: qyO9bIGZhaINQK2hLF6qCcRnUWs- has been confirmed
Track | CTDB Status
1 | (23/23) Accurately ripped
2 | (23/23) Accurately ripped
3 | (23/23) Accurately ripped
4 | (23/23) Accurately ripped
5 | (23/23) Accurately ripped
6 | (23/23) Accurately ripped
7 | (23/23) Accurately ripped
8 | (23/23) Accurately ripped
9 | (23/23) Accurately ripped
10 | (22/23) Accurately ripped, or (1/23) differs in 302 samples @00:40:72,00:41:43-00:41:44,00:41:58-00:41:59,00:43:01,00:43:16-00:43:17
11 | (22/23) Accurately ripped, or (1/23) differs in 65 samples @00:09:73,00:10:14,00:46:23
12 | (23/23) Accurately ripped
13 | (23/23) Accurately ripped
14 | (23/23) Accurately ripped
15 | (23/23) Accurately ripped
16 | (23/23) Accurately ripped
17 | (23/23) Accurately ripped
18 | (22/23) Accurately ripped, or (1/23) differs in 97 samples @02:55:12-02:55:13
19 | (22/23) Accurately ripped, or (1/23) differs in 17 samples @01:46:49
20 | (23/23) Accurately ripped
21 | (22/23) Accurately ripped, or (1/23) differs in 8 samples @00:04:06
22 | (23/23) Accurately ripped


==== Log checksum C683C31C358D23115E34FAF34D06E95AD6246A97CEAA35498262226E2FC02B65 ====