Tags
Language
Tags
December 2022
Su Mo Tu We Th Fr Sa
27 28 29 30 1 2 3
4 5 6 7 8 9 10
11 12 13 14 15 16 17
18 19 20 21 22 23 24
25 26 27 28 29 30 31

Harold Mabern Trio - Don't Know Why (2003) [Reissue 2010]

Posted By: gribovar
Harold Mabern Trio - Don't Know Why (2003) [Reissue 2010]

Harold Mabern Trio - Don't Know Why (2003) [Reissue 2010]
EAC Rip | FLAC (image+.cue+log) - 425 MB | MP3 CBR 320 kbps (LAME 3.93) - 137 MB | Covers - 38 MB
Genre: Jazz, Bop, Hard Bop | RAR 3% Rec. | Label: Venus Records (VHCD-78140)

It's difficult not to break into a smile when hearing Harold Mabern play piano, as the hard bop stylist has a knack for giving his all as if he were entertaining an audience, even during a studio date. This trio meeting with bassist Nat Reeves and drummer Joe Farnsworth finds Mabern covering a lot of styles, including a few surprising choices. He takes Peter Brown's disco hit "Dance with Me" into new ground with a brisk arrangement incorporating funk, Latin, and driving post-bop. Jesse Harris' soft ballad "Don't Know Why" was a huge hit for singer/pianist Norah Jones on her platinum-selling CD Come Away with Me, though Mabern infuses it with a brighter tempo and a bit of country flavor, plus just a hint of gospel. For most jazz musicians, it's hard to avoid a modal approach to "My Favorite Things" since John Coltrane reworked it into that setting; Mabern follows that path but does his best to avoid outright cloning of McCoy Tyner's technique in Coltrane's historic recording, though total avoidance is impossible. The pianist's potent originals include the hard-driving, gospel-flavored "Edward Lee" and the tense, infectious "Nightlife in Tokyo." Reeves and Farnsworth excel in their support of Mabern, though the hard-charging pianist is practically a one-man band with his boundless energy.
Tracklist:
01. Edward Lee
02. Dance with Me
03. My Favorite Things
04. Don't Know Why
05. Dreamy
06. Cabu
07. The Surrey with the Fringe on Top
08. Nightlife in Tokyo
09. Blues for David
10. My Shining Hour

Total time: 58:13

Exact Audio Copy V1.3 from 2. September 2016

Отчёт EAC об извлечении, выполненном 1. января 2022, 14:04

Harold Mabern / Don't Know Why

Дисковод: PLEXTOR DVDR PX-755A Adapter: 1 ID: 0

Режим чтения : Достоверность
Использование точного потока : Да
Отключение кэша аудио : Да
Использование указателей C2 : Нет

Коррекция смещения при чтении : 30
Способность читать области Lead-in и Lead-out : Нет
Заполнение пропущенных сэмплов тишиной : Да
Удаление блоков с тишиной в начале и конце : Нет
При вычислениях CRC использовались нулевые сэмплы : Да
Интерфейс : Встроенный Win32-интерфейс для Win NT/2000

Выходной формат : Пользовательский кодировщик
Выбранный битрейт : 128 kBit/s
Качество : Высокий
Добавление ID3-тега : Нет
Утилита сжатия : C:\Program Files (x86)\Exact Audio Copy\Flac\flac.exe
Дополнительные параметры : -V -8 -T "Date=%year%" -T "Genre=%genre%" %source%


TOC извлечённого CD

Трек | Старт | Длительность | Начальный сектор | Конечный сектор
––––––––––––––––––––––––––––––––––-
1 | 0:00.00 | 6:24.00 | 0 | 28799
2 | 6:24.00 | 6:43.01 | 28800 | 59025
3 | 13:07.01 | 5:23.01 | 59026 | 83251
4 | 18:30.02 | 4:44.01 | 83252 | 104552
5 | 23:14.03 | 6:32.01 | 104553 | 133953
6 | 29:46.04 | 6:16.01 | 133954 | 162154
7 | 36:02.05 | 6:19.01 | 162155 | 190580
8 | 42:21.06 | 6:14.00 | 190581 | 218630
9 | 48:35.06 | 5:05.01 | 218631 | 241506
10 | 53:40.07 | 4:33.17 | 241507 | 261998


Характеристики диапазона извлечения и сообщения об ошибках

Выбранный диапазон

Имя файла D:\РАЗДАЧА\Harold Mabern - Don't Know Why - 2011 (2004) Japan\Harold Mabern - Don't Know Why.wav

Пиковый уровень 100.0 %
Скорость извлечения 2.4 X
Качество диапазона 99.9 %
CRC теста 9631F8EE
CRC копии 9631F8EE
Копирование… OK

Ошибок не произошло


AccurateRip: сводка

Трек 1 точность не определена (достоверность 9) [444FB8BF], AccurateRip вернул [90A451CA] (AR v2)
Трек 2 точность не определена (достоверность 9) [A13FACCD], AccurateRip вернул [BC09D9DE] (AR v2)
Трек 3 точность не определена (достоверность 9) [068DB46D], AccurateRip вернул [C3285516] (AR v2)
Трек 4 точность не определена (достоверность 9) [D4721E54], AccurateRip вернул [D1236BEC] (AR v2)
Трек 5 точность не определена (достоверность 9) [91433CE1], AccurateRip вернул [4D547E17] (AR v2)
Трек 6 точность не определена (достоверность 9) [44190281], AccurateRip вернул [DAA50A8B] (AR v2)
Трек 7 точность не определена (достоверность 8) [D13E3C5A], AccurateRip вернул [1056FA97] (AR v2)
Трек 8 точность не определена (достоверность 8) [5B46B909], AccurateRip вернул [D7B36A47] (AR v2)
Трек 9 точность не определена (достоверность 8) [2A4C57C0], AccurateRip вернул [83DE51F5] (AR v2)
Трек 10 точность не определена (достоверность 9) [6AA89A2F], AccurateRip вернул [41444141] (AR v2)

Ни один трек не прошёл проверки на точность
В вашей базе может быть иной вариант штамповки диска

Конец отчёта

–– CUETools DB Plugin V2.1.6

[CTDB TOCID: h3axoi9GgudAraKtuA_BrjGxeho-] found
Submit result: h3axoi9GgudAraKtuA_BrjGxeho- has been confirmed
Track | CTDB Status
1 | (55/56) Accurately ripped
2 | (56/56) Accurately ripped
3 | (54/56) Accurately ripped
4 | (55/56) Accurately ripped
5 | (56/56) Accurately ripped
6 | (55/56) Accurately ripped
7 | (55/56) Accurately ripped
8 | (56/56) Accurately ripped
9 | (56/56) Accurately ripped
10 | (55/56) Accurately ripped


==== Контрольная сумма отчёта 28A34CD1A4EEF418AC0C086AE09CBC054360E92E0E2B050AA244AF43CE973209 ====

[CUETools log; Date: 24.11.2022 13:41:39; Version: 2.1.4]
[CTDB TOCID: h3axoi9GgudAraKtuA_BrjGxeho-] found.
Track | CTDB Status
1 | (59/60) Accurately ripped
2 | (60/60) Accurately ripped
3 | (58/60) Accurately ripped
4 | (59/60) Accurately ripped
5 | (60/60) Accurately ripped
6 | (59/60) Accurately ripped
7 | (59/60) Accurately ripped
8 | (60/60) Accurately ripped
9 | (60/60) Accurately ripped
10 | (59/60) Accurately ripped
[AccurateRip ID: 0016a6aa-00b45697-920da50a] found.
Track [ CRC | V2 ] Status
01 [bd9ca1d2|444fb8bf] (00+00/16) No match
02 [d82f4bb9|a13faccd] (00+00/16) No match
03 [7ad13aee|068db46d] (00+00/16) No match
04 [7dc70f10|d4721e54] (00+00/16) No match
05 [556c19d7|91433ce1] (00+00/16) No match
06 [b2b9e973|44190281] (00+00/16) No match
07 [24e5bcf4|d13e3c5a] (00+00/15) No match
08 [efb58c31|5b46b909] (00+00/15) No match
09 [b1b88579|2a4c57c0] (00+00/15) No match
10 [5f82e25a|6aa89a2f] (00+00/16) No match
Offsetted by -6:
01 [06f80eba] (06/16) Accurately ripped
02 [efd86803] (06/16) Accurately ripped
03 [34ecf5d2] (06/16) Accurately ripped
04 [7842e5fa] (06/16) Accurately ripped
05 [0e749bc5] (06/16) Accurately ripped
06 [465c06fb] (06/16) Accurately ripped
07 [610b5b08] (06/15) Accurately ripped
08 [693a196d] (06/15) Accurately ripped
09 [08f04af7] (06/15) Accurately ripped
10 [34b35953] (06/16) Accurately ripped

Track Peak [ CRC32 ] [W/O NULL] [ LOG ]
– 100,0 [9631F8EE] [00642F7F] CRC32
01 100,0 [E90FBF76] [A7B137A9]
02 100,0 [37E182BB] [151444D4]
03 100,0 [FD4CC16D] [060CA164]
04 100,0 [CDB19A59] [A3054F93]
05 100,0 [1E8C0FC9] [3D1D585E]
06 100,0 [C34FA31D] [B7BA7250]
07 100,0 [99CA8EB4] [187522D7]
08 100,0 [FC96C847] [22CEB4B3]
09 100,0 [01F7A025] [16D67BC9]
10 100,0 [2A199DBE] [3C1CC667]

Thanks to pishin

See also:
Harold Mabern Trio - Falling In Love With Love (2002) [Reissue 2010]