Tags
Language
Tags
July 2024
Su Mo Tu We Th Fr Sa
30 1 2 3 4 5 6
7 8 9 10 11 12 13
14 15 16 17 18 19 20
21 22 23 24 25 26 27
28 29 30 31 1 2 3

George Barnes & Carl Kress - Guitars, Anyone? (1963) & The Second George Barnes Quartet - Swing, Guitar! (1973) [Reissue 2003]

Posted By: gribovar
George Barnes & Carl Kress - Guitars, Anyone? (1963) & The Second George Barnes Quartet - Swing, Guitar! (1973) [Reissue 2003]

George Barnes & Carl Kress - Guitars, Anyone? Why Not Start at the Top? (1963) & The Second George Barnes Quartet - Swing, Guitar! (1973) [Reissue 2003]
EAC Rip | FLAC (tracks+.cue+log) - 315 MB | MP3 CBR 320 kbps (LAME 3.93) - 161 MB | Covers - 24 MB
Genre: Jazz, Mainstream Jazz, Swing, Guitar Jazz | RAR 3% Rec. | Label: Audiophile Records (ACD-87)

George Barnes and Carl Kress often teamed up to play guitar duets from 1962-65, although they made relatively few recordings. "Guitars Anyone?" was their last meeting on record, and it finds the pair in high spirits on a dozen selections. The second part of this CD features Barnes' Second Quartet with Dick Hyman, Hank Jones, Milt Hinton, Jo Jones and others.
Tracklist:

George Barnes & Carl Kress - Guitars, Anyone? Why Not Start at the Top? (1963):
01. Sentimental Journey
02. Blue Moon
03. Clap Yo' Hands
04. Memories of You
05. Undecided
06. The Blue Room
07. Don't Be Nervous
08. Willow Weep for Me
09. The Girl Friend
10. Satin Doll
11. As Long as I Live
12. Tea for Two

The Second George Barnes Quartet - Swing, Guitar! (1973):
13. The Opener
14. My One and Only Love
15. Struttin' with Some Barbecue
16. Blue Again
17. Laughing at Life
18. My Honey's Lovin' Arms
19. Merchandise Mart Indians
20. Funk, Chicago Style

Total time: 01:08:27

Exact Audio Copy V1.6 from 23. October 2020

EAC extraction logfile from 6. July 2024, 15:54

George Barnes & Carl Kress / Guitars, Anyone? Why Not Start At The Top? / Swing, Guitars

Used drive : HL-DT-STBD-RE WH16NS40 Adapter: 1 ID: 0

Read mode : Secure
Utilize accurate stream : Yes
Defeat audio cache : Yes
Make use of C2 pointers : No

Read offset correction : 6
Overread into Lead-In and Lead-Out : No
Fill up missing offset samples with silence : Yes
Delete leading and trailing silent blocks : No
Null samples used in CRC calculations : Yes
Used interface : Native Win32 interface for Win NT & 2000
Gap handling : Appended to previous track

Used output format : User Defined Encoder
Selected bitrate : 1024 kBit/s
Quality : High
Add ID3 tag : No
Command line compressor : C:\Program Files (x86)\Exact Audio Copy\FLAC\FLAC.EXE
Additional command line options : -8 -V -T "ARTIST=%artist%" -T "TITLE=%title%" -T "ALBUM=%albumtitle%" -T "DATE=%year%" -T "TRACKNUMBER=%tracknr%" -T "GENRE=%genre%" -T "PERFORMER=%albuminterpret%" -T "COMPOSER=%composer%" %haslyrics%–tag-from-file=LYRICS="%lyricsfile%"%haslyrics% -T "ALBUMARTIST=%albumartist%" -T "DISCNUMBER=%cdnumber%" -T "TOTALDISCS=%totalcds%" -T "TOTALTRACKS=%numtracks%" -T "COMMENT=%comment%" %source% -o %dest%


TOC of the extracted CD

Track | Start | Length | Start sector | End sector
––––––––––––––––––––––––––––-
1 | 0:00.00 | 2:40.70 | 0 | 12069
2 | 2:40.70 | 4:05.25 | 12070 | 30469
3 | 6:46.20 | 2:39.02 | 30470 | 42396
4 | 9:25.22 | 3:16.53 | 42397 | 57149
5 | 12:42.00 | 2:43.32 | 57150 | 69406
6 | 15:25.32 | 2:21.25 | 69407 | 80006
7 | 17:46.57 | 2:33.48 | 80007 | 91529
8 | 20:20.30 | 3:06.17 | 91530 | 105496
9 | 23:26.47 | 2:26.70 | 105497 | 116516
10 | 25:53.42 | 3:52.33 | 116517 | 133949
11 | 29:46.00 | 2:26.22 | 133950 | 144921
12 | 32:12.22 | 2:44.48 | 144922 | 157269
13 | 34:56.70 | 4:49.25 | 157270 | 178969
14 | 39:46.20 | 3:27.30 | 178970 | 194524
15 | 43:13.50 | 4:33.30 | 194525 | 215029
16 | 47:47.05 | 3:08.20 | 215030 | 229149
17 | 50:55.25 | 4:08.45 | 229150 | 247794
18 | 55:03.70 | 3:31.17 | 247795 | 263636
19 | 58:35.12 | 4:48.63 | 263637 | 285299
20 | 63:24.00 | 5:02.57 | 285300 | 308006


Track 1

Filename C:\EAC Rips\Guitars, Anyone Why Not Start At The Top + Swing, Guitars (2003) [FLAC] {ACD-87}\01 - George Barnes & Carl Kress - Sentimental Journey.wav

Pre-gap length 0:00:02.00

Peak level 99.4 %
Extraction speed 4.4 X
Track quality 100.0 %
Test CRC 70225284
Copy CRC 70225284
Accurately ripped (confidence 1) [F268FEC2] (AR v1)
Copy OK

Track 2

Filename C:\EAC Rips\Guitars, Anyone Why Not Start At The Top + Swing, Guitars (2003) [FLAC] {ACD-87}\02 - George Barnes & Carl Kress - Blue Moon.wav

Pre-gap length 0:00:02.43

Peak level 96.4 %
Extraction speed 4.3 X
Track quality 99.9 %
Test CRC 3F147661
Copy CRC 3F147661
Accurately ripped (confidence 1) [85937872] (AR v1)
Copy OK

Track 3

Filename C:\EAC Rips\Guitars, Anyone Why Not Start At The Top + Swing, Guitars (2003) [FLAC] {ACD-87}\03 - George Barnes & Carl Kress - Clap Yo' Hands.wav

Pre-gap length 0:00:02.43

Peak level 91.5 %
Extraction speed 4.0 X
Track quality 99.9 %
Test CRC 70B66675
Copy CRC 70B66675
Accurately ripped (confidence 1) [EE4410BB] (AR v1)
Copy OK

Track 4

Filename C:\EAC Rips\Guitars, Anyone Why Not Start At The Top + Swing, Guitars (2003) [FLAC] {ACD-87}\04 - George Barnes & Carl Kress - Memories Of You.wav

Pre-gap length 0:00:02.42

Peak level 98.8 %
Extraction speed 5.7 X
Track quality 100.0 %
Test CRC 0ECE11DC
Copy CRC 0ECE11DC
Accurately ripped (confidence 1) [7132C1E3] (AR v1)
Copy OK

Track 5

Filename C:\EAC Rips\Guitars, Anyone Why Not Start At The Top + Swing, Guitars (2003) [FLAC] {ACD-87}\05 - George Barnes & Carl Kress - Undecided.wav

Pre-gap length 0:00:02.43

Peak level 98.8 %
Extraction speed 5.8 X
Track quality 100.0 %
Test CRC 13C3D941
Copy CRC 13C3D941
Accurately ripped (confidence 1) [939A5B88] (AR v1)
Copy OK

Track 6

Filename C:\EAC Rips\Guitars, Anyone Why Not Start At The Top + Swing, Guitars (2003) [FLAC] {ACD-87}\06 - George Barnes & Carl Kress - The Blue Room.wav

Pre-gap length 0:00:02.42

Peak level 99.5 %
Extraction speed 5.8 X
Track quality 100.0 %
Test CRC 66488F35
Copy CRC 66488F35
Accurately ripped (confidence 1) [07E6D761] (AR v1)
Copy OK

Track 7

Filename C:\EAC Rips\Guitars, Anyone Why Not Start At The Top + Swing, Guitars (2003) [FLAC] {ACD-87}\07 - George Barnes & Carl Kress - Don't Be Nervous.wav

Pre-gap length 0:00:02.42

Peak level 98.8 %
Extraction speed 6.1 X
Track quality 100.0 %
Test CRC CD2F6D5E
Copy CRC CD2F6D5E
Accurately ripped (confidence 1) [54A46596] (AR v1)
Copy OK

Track 8

Filename C:\EAC Rips\Guitars, Anyone Why Not Start At The Top + Swing, Guitars (2003) [FLAC] {ACD-87}\08 - George Barnes & Carl Kress - Willow Weep For Me.wav

Pre-gap length 0:00:02.43

Peak level 98.8 %
Extraction speed 5.2 X
Track quality 99.9 %
Test CRC 1CB4BFBA
Copy CRC 1CB4BFBA
Accurately ripped (confidence 1) [32207575] (AR v1)
Copy OK

Track 9

Filename C:\EAC Rips\Guitars, Anyone Why Not Start At The Top + Swing, Guitars (2003) [FLAC] {ACD-87}\09 - George Barnes & Carl Kress - The Girl Friend.wav

Pre-gap length 0:00:02.42

Peak level 98.8 %
Extraction speed 6.5 X
Track quality 100.0 %
Test CRC 06984E64
Copy CRC 06984E64
Accurately ripped (confidence 1) [972142D7] (AR v1)
Copy OK

Track 10

Filename C:\EAC Rips\Guitars, Anyone Why Not Start At The Top + Swing, Guitars (2003) [FLAC] {ACD-87}\10 - George Barnes & Carl Kress - Satin Doll.wav

Pre-gap length 0:00:02.42

Peak level 98.8 %
Extraction speed 7.4 X
Track quality 100.0 %
Test CRC F3ACB46A
Copy CRC F3ACB46A
Accurately ripped (confidence 1) [59D78DCB] (AR v1)
Copy OK

Track 11

Filename C:\EAC Rips\Guitars, Anyone Why Not Start At The Top + Swing, Guitars (2003) [FLAC] {ACD-87}\11 - George Barnes & Carl Kress - As Long As I Live.wav

Pre-gap length 0:00:02.43

Peak level 98.8 %
Extraction speed 7.1 X
Track quality 100.0 %
Test CRC FA2E51E6
Copy CRC FA2E51E6
Accurately ripped (confidence 1) [D0C18F4F] (AR v1)
Copy OK

Track 12

Filename C:\EAC Rips\Guitars, Anyone Why Not Start At The Top + Swing, Guitars (2003) [FLAC] {ACD-87}\12 - George Barnes & Carl Kress - Tea For Two.wav

Pre-gap length 0:00:02.42

Peak level 98.7 %
Extraction speed 5.7 X
Track quality 99.9 %
Test CRC B04D6E35
Copy CRC B04D6E35
Accurately ripped (confidence 1) [0F07AC2B] (AR v1)
Copy OK

Track 13

Filename C:\EAC Rips\Guitars, Anyone Why Not Start At The Top + Swing, Guitars (2003) [FLAC] {ACD-87}\13 - The Second George Barnes Quartet - The Opener.wav

Pre-gap length 0:00:02.43

Peak level 92.4 %
Extraction speed 8.3 X
Track quality 100.0 %
Test CRC 994266FC
Copy CRC 994266FC
Accurately ripped (confidence 1) [DD1E632F] (AR v1)
Copy OK

Track 14

Filename C:\EAC Rips\Guitars, Anyone Why Not Start At The Top + Swing, Guitars (2003) [FLAC] {ACD-87}\14 - The Second George Barnes Quartet - My One And Only Love.wav

Pre-gap length 0:00:02.43

Peak level 98.8 %
Extraction speed 8.2 X
Track quality 100.0 %
Test CRC 98B87901
Copy CRC 98B87901
Accurately ripped (confidence 1) [7970D6F8] (AR v1)
Copy OK

Track 15

Filename C:\EAC Rips\Guitars, Anyone Why Not Start At The Top + Swing, Guitars (2003) [FLAC] {ACD-87}\15 - The Second George Barnes Quartet - Struttin' With Some Barbecue.wav

Pre-gap length 0:00:02.43

Peak level 98.8 %
Extraction speed 8.7 X
Track quality 100.0 %
Test CRC 4049FDC6
Copy CRC 4049FDC6
Accurately ripped (confidence 1) [39F6FC25] (AR v1)
Copy OK

Track 16

Filename C:\EAC Rips\Guitars, Anyone Why Not Start At The Top + Swing, Guitars (2003) [FLAC] {ACD-87}\16 - The Second George Barnes Quartet - Blue Again.wav

Pre-gap length 0:00:02.43

Peak level 98.8 %
Extraction speed 8.4 X
Track quality 100.0 %
Test CRC 21BC6174
Copy CRC 21BC6174
Accurately ripped (confidence 1) [BBEB1B84] (AR v1)
Copy OK

Track 17

Filename C:\EAC Rips\Guitars, Anyone Why Not Start At The Top + Swing, Guitars (2003) [FLAC] {ACD-87}\17 - The Second George Barnes Quartet - Laughing At Life.wav

Pre-gap length 0:00:02.43

Peak level 98.8 %
Extraction speed 9.1 X
Track quality 100.0 %
Test CRC 45BDC187
Copy CRC 45BDC187
Accurately ripped (confidence 1) [94B619E9] (AR v1)
Copy OK

Track 18

Filename C:\EAC Rips\Guitars, Anyone Why Not Start At The Top + Swing, Guitars (2003) [FLAC] {ACD-87}\18 - The Second George Barnes Quartet - My Honey's Lovin' Arms.wav

Pre-gap length 0:00:02.43

Peak level 96.8 %
Extraction speed 5.9 X
Track quality 100.0 %
Test CRC DE3C3D23
Copy CRC DE3C3D23
Accurately ripped (confidence 1) [2B5DE0B6] (AR v1)
Copy OK

Track 19

Filename C:\EAC Rips\Guitars, Anyone Why Not Start At The Top + Swing, Guitars (2003) [FLAC] {ACD-87}\19 - The Second George Barnes Quartet - Merchandise Mart Indians.wav

Pre-gap length 0:00:02.42

Peak level 99.5 %
Extraction speed 8.3 X
Track quality 99.9 %
Test CRC 8E61B949
Copy CRC 8E61B949
Accurately ripped (confidence 1) [DD2789FE] (AR v1)
Copy OK

Track 20

Filename C:\EAC Rips\Guitars, Anyone Why Not Start At The Top + Swing, Guitars (2003) [FLAC] {ACD-87}\20 - The Second George Barnes Quartet - Funk, Chicago Style.wav

Pre-gap length 0:00:02.43

Peak level 94.5 %
Extraction speed 8.4 X
Track quality 99.9 %
Test CRC 48F983E1
Copy CRC 48F983E1
Accurately ripped (confidence 1) [14960850] (AR v1)
Copy OK


All tracks accurately ripped

No errors occurred

End of status report

–– CUETools DB Plugin V2.1.6

[CTDB TOCID: iiqcH4cMLoSEv4sZali1JKSHcZc-] found
Submit result: iiqcH4cMLoSEv4sZali1JKSHcZc- has been confirmed
Track | CTDB Status
1 | (2/2) Accurately ripped
2 | (2/2) Accurately ripped
3 | (2/2) Accurately ripped
4 | (2/2) Accurately ripped
5 | (2/2) Accurately ripped
6 | (2/2) Accurately ripped
7 | (2/2) Accurately ripped
8 | (2/2) Accurately ripped
9 | (2/2) Accurately ripped
10 | (2/2) Accurately ripped
11 | (2/2) Accurately ripped
12 | (2/2) Accurately ripped
13 | (2/2) Accurately ripped
14 | (2/2) Accurately ripped
15 | (2/2) Accurately ripped
16 | (2/2) Accurately ripped
17 | (2/2) Accurately ripped
18 | (2/2) Accurately ripped
19 | (2/2) Accurately ripped
20 | (2/2) Accurately ripped


==== Log checksum 208F759A06D96D2FF81E8140BC47FB05A3528E1BAC61AB0ED1CD49652F9E3DF5 ====

[CUETools log; Date: 10.07.2024 16:37:05; Version: 2.1.4]
[CTDB TOCID: iiqcH4cMLoSEv4sZali1JKSHcZc-] found.
Track | CTDB Status
1 | (3/3) Accurately ripped
2 | (3/3) Accurately ripped
3 | (3/3) Accurately ripped
4 | (3/3) Accurately ripped
5 | (3/3) Accurately ripped
6 | (3/3) Accurately ripped
7 | (3/3) Accurately ripped
8 | (3/3) Accurately ripped
9 | (3/3) Accurately ripped
10 | (3/3) Accurately ripped
11 | (3/3) Accurately ripped
12 | (3/3) Accurately ripped
13 | (3/3) Accurately ripped
14 | (3/3) Accurately ripped
15 | (3/3) Accurately ripped
16 | (3/3) Accurately ripped
17 | (3/3) Accurately ripped
18 | (3/3) Accurately ripped
19 | (3/3) Accurately ripped
20 | (3/3) Accurately ripped
[AccurateRip ID: 002d3891-02a0373c-3a100a14] found.
Track [ CRC | V2 ] Status
01 [f268fec2|670d0b42] (1+0/3) Accurately ripped
02 [85937872|f62ca8ee] (1+0/3) Accurately ripped
03 [ee4410bb|0f06e58c] (1+0/3) Accurately ripped
04 [7132c1e3|fdc78c02] (1+0/3) Accurately ripped
05 [939a5b88|fae1d626] (1+0/3) Accurately ripped
06 [07e6d761|a3886e33] (1+0/3) Accurately ripped
07 [54a46596|d8115ed3] (1+0/3) Accurately ripped
08 [32207575|7ba151bd] (1+0/3) Accurately ripped
09 [972142d7|26e53afb] (1+0/3) Accurately ripped
10 [59d78dcb|5c50a67c] (1+0/3) Accurately ripped
11 [d0c18f4f|4836235b] (1+0/3) Accurately ripped
12 [0f07ac2b|93a1b40a] (1+0/3) Accurately ripped
13 [dd1e632f|454d1a51] (1+0/3) Accurately ripped
14 [7970d6f8|75d55631] (1+0/3) Accurately ripped
15 [39f6fc25|81b26cf1] (1+0/3) Accurately ripped
16 [bbeb1b84|88f309fd] (1+0/3) Accurately ripped
17 [94b619e9|a001c241] (1+0/3) Accurately ripped
18 [2b5de0b6|01f2b295] (1+0/3) Accurately ripped
19 [dd2789fe|21b8c904] (1+0/3) Accurately ripped
20 [14960850|42a91d46] (1+0/3) Accurately ripped
Offsetted by -30:
01 [4aca39d4] (1/3) Accurately ripped
02 [09902894] (1/3) Accurately ripped
03 [e99e01ef] (1/3) Accurately ripped
04 [d0aec52f] (1/3) Accurately ripped
05 [130fa6fa] (1/3) Accurately ripped
06 [28f60923] (1/3) Accurately ripped
07 [ba51eeb2] (1/3) Accurately ripped
08 [214261d9] (1/3) Accurately ripped
09 [6374baab] (1/3) Accurately ripped
10 [f9bc32d5] (1/3) Accurately ripped
11 [5ceb75f7] (1/3) Accurately ripped
12 [8a6bfc1d] (1/3) Accurately ripped
13 [7b52e17d] (1/3) Accurately ripped
14 [507f41ee] (1/3) Accurately ripped
15 [4332887f] (1/3) Accurately ripped
16 [9b5e186a] (1/3) Accurately ripped
17 [416943a5] (1/3) Accurately ripped
18 [e2bb93ee] (1/3) Accurately ripped
19 [ecedf198] (1/3) Accurately ripped
20 [552d36d4] (1/3) Accurately ripped

Track Peak [ CRC32 ] [W/O NULL] [ LOG ]
– 99,5 [BC52006A] [87083FB8]
01 99,4 [70225284] [E1503684] CRC32
02 96,4 [3F147661] [E4688398] CRC32
03 91,5 [70B66675] [2BFDFED5] CRC32
04 98,8 [0ECE11DC] [E1E2E6FC] CRC32
05 98,8 [13C3D941] [224020A2] CRC32
06 99,5 [66488F35] [50EFE81A] CRC32
07 98,8 [CD2F6D5E] [1578CF89] CRC32
08 98,8 [1CB4BFBA] [BCD36C6B] CRC32
09 98,8 [06984E64] [1606273C] CRC32
10 98,8 [F3ACB46A] [D2C478F6] CRC32
11 98,8 [FA2E51E6] [18963719] CRC32
12 98,7 [B04D6E35] [799491DA] CRC32
13 92,4 [994266FC] [62BEC023] CRC32
14 98,8 [98B87901] [55D23D23] CRC32
15 98,8 [4049FDC6] [181897A1] CRC32
16 98,8 [21BC6174] [0CB6A2D9] CRC32
17 98,8 [45BDC187] [AF55A171] CRC32
18 96,8 [DE3C3D23] [58E324DF] CRC32
19 99,5 [8E61B949] [5D95AAB4] CRC32
20 94,5 [48F983E1] [EE57E53D] CRC32

Thanks to AudioCloth