Tags
Language
Tags
February 2024
Su Mo Tu We Th Fr Sa
28 29 30 31 1 2 3
4 5 6 7 8 9 10
11 12 13 14 15 16 17
18 19 20 21 22 23 24
25 26 27 28 29 1 2
Attention❗ To save your time, in order to download anything on this site, you must be registered 👉 HERE. If you do not have a registration yet, it is better to do it right away. ✌

( • )( • ) ( ͡⚆ ͜ʖ ͡⚆ ) (‿ˠ‿)
SpicyMags.xyz

Smokey Robinson - Time Flies When You're Having Fun (2009)

Posted By: Designol
Smokey Robinson - Time Flies When You're Having Fun (2009)

Smokey Robinson - Time Flies When You're Having Fun (2009)
featuring Carlos Santana, Joss Stone and India.Arie

EAC | FLAC | Image (Cue&Log) ~ 329 Mb | Mp3 (CBR320) ~ 138 Mb | Scans included
R&B, Soul, Pop-Soul | Label: Robso Records | # 8 51404 00200 4 | 00:57:25

The time that has flown is Smokey's 50 years in the business, but it could just as well refer to the number of years since Robinson has released a smooth soul album: almost 20 full years! Smokey, of course, has stayed active during the interim, both on-stage and on record, but Time Flies When You're Having Fun marks a return to the coolly simmering quiet storm that was his stock in trade during the '70s and '80s. Apart from production techniques, not much has changed in Smokey's music during the time off, either: this is still smooth, unhurried soul that vacillates between elegance and supper-club classiness. Of course, since these are two sides of the same coin, they fit together seamlessly, with the only question being whether the immaculately polished music veers toward the corny, but whenever it does, Smokey's impeccably tailored vocals steer it back to toward the sweetly romantic. After all these years, Smokey still makes it all seem easy – so easy that it's puzzling why he hasn't made a record like this in so long, because as this comforting, velvety album proves, nobody does it better than he.

Review by Stephen Thomas Erlewine, Allmusic.com

Much has been written about Smokey's contribution to the next volume of the Great American Songbook. He has a dozen or so candidates that either he wrote or produced or performed or did all at once. With a career that now spans 6 decades, Smokey still sounds relevant. His voice is the definitive falsetto that has inspired a legion of vocalist through the years. Here in this return to form, we get an album of new material after waiting a long, long time. His last album was a splendid collection from the Great American Songbook, entitled "Timeless Love". Prior to that, I believe he recorded a gospel/inspirational album. With assist from the genius of Carlos Santana, Joss Stone and India Arie, he sounds contemporary and refreshing. His take on the Jackson 5 classic, "I Want You Back" is transformational and "Don't Know Why" could have been written by him, it so perfectly suits him. "One Time" is a smoldering midtempo cut that breeds seduction. They don't make them like they used to…….Babyface may at one time been the "new Smokey", but, who needs a facsimile when the real one is still oh so relevant. For me, "You're Just My Life" is the jewel in a setting of jewels. That romantic swoon so easily associated with his best work is taken to new heights in this duet w/India Arie. If you know "Give Her Up" or "Much Better Off", classic B-side copyrights from Smokey at his first creative peak in the 60s, this song stands right up there with his finest work. Equally as compelling is his duet w/Joss Stone, "You're the One for Me". On a more sober note, the album has been released independently on Robso (a mergering of his first/last name) through ADA. That leaves on Stevie still actively recording for whatever is left of Motown/Universal as we once knew it. Alas, we can just celebrate that Smokey remains as relevant as he did when he first hit the top of the charts in the 60s. The title track sums it up best in its classy beauty…….it is a fun reminder of one of our greats (check out the artwork by Shepard Fairey)!

Review by L. Boki, Amazon.com

Smokey Robinson at Allmusic
Smokey Robinson Website
Smokey Robinson at Wiki

Tracklist:

01. Time Flies (4:59)
02. Don't Know Why (3:54)
03. Girlfriend (4:26)
04. You're The One For Me (Feat. Joss Stone) (5:05)
05. One Time (4:48)
06. Please Don't Take Your Love (Feat. Santana) (4:50)
07. That Place (4:54)
08. Love Bath (5:33)
09. Whatcha Gonna Do (5:19)
10. Satisfy You (4:46)
11. You're Just My Life (Feat India.Arie) (4:09)
12. I Want You Back (4:43)*

*Track 12 is a bonus track that is not listed on the CD package


Exact Audio Copy V0.99 prebeta 4 from 23. January 2008

Отчёт EAC об извлечении, выполненном 9. сентября 2009, 22:00

Smokey Robinson / Time Flies When You're Having Fun

Дисковод: Optiarc DVD RW AD-7203S Adapter: 1 ID: 1

Режим чтения : Достоверность
Использование точного потока : Да
Отключение кэша аудио : Да
Использование указателей C2 : Нет

Коррекция смещения при чтении : 48
Способность читать области Lead-in и Lead-out : Нет
Заполнение пропущенных сэмплов тишиной : Да
Удаление блоков с тишиной в начале и конце : Нет
При вычислениях CRC использовались нулевые сэмплы : Да
Интерфейс : Встроенный Win32-интерфейс для Win NT/2000

Выходной формат : Пользовательский кодировщик
Выбранный битрейт : 1024 kBit/s
Качество : Высокий
Добавление ID3-тэга : Нет
Утилита сжатия : C:\Program Files\Exact Audio Copy\Flac\flac.exe
Дополнительные параметры : -V -8 -T "artist=%a" -T "title=%t" -T "album=%g" -T "date=%y" -T "tracknumber=%n" -T "genre=%m" %s


TOC извлечённого CD

Трек | Старт | Длительность | Начальный сектор | Конечный сектор
––––––––––––––––––––––––––––––––––-
1 | 0:00.00 | 4:59.05 | 0 | 22429
2 | 4:59.05 | 3:54.29 | 22430 | 40008
3 | 8:53.34 | 4:25.39 | 40009 | 59922
4 | 13:18.73 | 5:05.19 | 59923 | 82816
5 | 18:24.17 | 4:47.48 | 82817 | 104389
6 | 23:11.65 | 4:49.39 | 104390 | 126103
7 | 28:01.29 | 4:53.67 | 126104 | 148145
8 | 32:55.21 | 5:32.74 | 148146 | 173119
9 | 38:28.20 | 5:19.04 | 173120 | 197048
10 | 43:47.24 | 4:45.38 | 197049 | 218461
11 | 48:32.62 | 4:09.19 | 218462 | 237155
12 | 52:42.06 | 4:42.67 | 237156 | 258372


Характеристики диапазона извлечения и сообщения об ошибках

Выбранный диапазон

Имя файла D:\EAC-FOLDER\2009-Smokey Robinson - Time Flies When You're Having Fun\2009-Smokey Robinson - Time Flies When You're Having Fun\Smokey Robinson - Time Flies When You're Having Fun.wav

Пиковый уровень 100.0 %
Качество диапазона 100.0 %
CRC теста B079BC77
CRC копии B079BC77
Копирование… OK

Ошибок не произошло


AccurateRip: сводка

Трек 1 нет в базе данных
Трек 2 нет в базе данных
Трек 3 нет в базе данных
Трек 4 нет в базе данных
Трек 5 нет в базе данных
Трек 6 нет в базе данных
Трек 7 нет в базе данных
Трек 8 нет в базе данных
Трек 9 нет в базе данных
Трек 10 нет в базе данных
Трек 11 нет в базе данных
Трек 12 нет в базе данных

Ни одного трека нет в базе AccurateRip

Конец отчёта

[CUETools log; Date: 29.03.2018 23:41:59; Version: 2.1.4]
[CTDB TOCID: 6jaaqdY6W.BqibgP4JwKU5yQKJE-] found.
Track | CTDB Status
1 | (16/16) Accurately ripped
2 | (16/16) Accurately ripped
3 | (16/16) Accurately ripped
4 | (16/16) Accurately ripped
5 | (16/16) Accurately ripped
6 | (16/16) Accurately ripped
7 | (15/16) Accurately ripped
8 | (15/16) Accurately ripped
9 | (15/16) Accurately ripped
10 | (15/16) Accurately ripped
11 | (15/16) Accurately ripped
12 | (15/16) Accurately ripped
[AccurateRip ID: 0019738b-00eec9fa-940d740c] found.
Track [ CRC | V2 ] Status
01 [bf0ae6ab|3fdd2c1c] (07+12/21) Accurately ripped
02 [2ceaebe9|39b1f8f7] (08+12/22) Accurately ripped
03 [1f157cc7|a682c938] (08+12/22) Accurately ripped
04 [676386ca|7727a820] (08+11/21) Accurately ripped
05 [a0a21133|3c5463dd] (08+11/21) Accurately ripped
06 [29bcb784|de536dc6] (08+11/21) Accurately ripped
07 [a97af132|90317005] (08+11/21) Accurately ripped
08 [7c73e146|6f3d22dc] (08+11/21) Accurately ripped
09 [2f498c92|4ad8aee8] (08+11/21) Accurately ripped
10 [2dcc660f|b87eb052] (08+11/21) Accurately ripped
11 [551c6596|7734b12b] (08+11/21) Accurately ripped
12 [09c72de7|173d2eed] (08+10/20) Accurately ripped
Offsetted by 6:
01 [cb48bc51] (00/21) No match (V2 was not tested)
02 [561e12cb] (00/22) No match (V2 was not tested)
03 [818d3aa7] (00/22) No match (V2 was not tested)
04 [2431d8e0] (00/21) No match (V2 was not tested)
05 [ff2d9d55] (00/21) No match (V2 was not tested)
06 [ea65c5d6] (00/21) No match (V2 was not tested)
07 [2ac538c4] (00/21) No match (V2 was not tested)
08 [02a5f5d6] (00/21) No match (V2 was not tested)
09 [752ad28e] (00/21) No match (V2 was not tested)
10 [6242c24d] (00/21) No match (V2 was not tested)
11 [b350960c] (00/21) No match (V2 was not tested)
12 [e5383225] (00/20) No match (V2 was not tested)

Track Peak [ CRC32 ] [W/O NULL] [ LOG ]
– 100,0 [B079BC77] [0F5A595F] CRC32
01 98,8 [E99CF4D8] [6D5BC7EC]
02 98,8 [950DD43C] [8DFE2A4E]
03 98,8 [FAE29C4E] [B44B486B]
04 98,8 [E5D18B47] [75649827]
05 100,0 [A7A8C00F] [1ACDED0A]
06 98,8 [B686CB33] [5F1BB174]
07 98,8 [23FA6EE9] [B2CBBA60]
08 98,8 [AE8329C7] [3903A064]
09 98,8 [F83B81D5] [487DACC0]
10 98,8 [24BEAE84] [9975F305]
11 99,9 [FD9DE2E0] [CC9C800B]
12 98,8 [2B5A4234] [1B848CC3]

foobar2000 1.2 / Dynamic Range Meter 1.1.1
log date: 2018-03-29 23:44:57

––––––––––––––––––––––––––––––––––––––––
Analyzed: Smokey Robinson / Time Flies When You're Having Fun
––––––––––––––––––––––––––––––––––––––––

DR Peak RMS Duration Track
––––––––––––––––––––––––––––––––––––––––
DR10 -0.10 dB -11.62 dB 4:59 01-Time Flies
DR9 -0.10 dB -11.61 dB 3:54 02-Don't Know Why
DR8 -0.10 dB -9.38 dB 4:26 03- Girlfriend
DR7 -0.10 dB -8.52 dB 5:05 04-You're The One For Me (Feat. Joss Stone)
DR9 0.00 dB -9.97 dB 4:48 05-One Time
DR8 -0.10 dB -10.23 dB 4:50 06-Please Don't Take Your Love (Feat. Santana)
DR8 -0.10 dB -10.94 dB 4:54 07-That Place
DR8 -0.10 dB -8.54 dB 5:33 08-Love Bath
DR9 -0.10 dB -11.44 dB 5:19 09-Whatcha Gonna Do
DR8 -0.10 dB -9.62 dB 4:46 10-Satisfy You
DR8 0.00 dB -9.61 dB 4:09 11-You're Just My Life
DR10 -0.10 dB -12.06 dB 4:43 12-I Want You Back
––––––––––––––––––––––––––––––––––––––––

Number of tracks: 12
Official DR value: DR8

Samplerate: 44100 Hz
Channels: 2
Bits per sample: 16
Bitrate: 785 kbps
Codec: FLAC
================================================================================

Smokey Robinson - Time Flies When You're Having Fun (2009)

All thanks to original releaser

More interesting music in My Blog