Tags
Language
Tags
February 2023
Su Mo Tu We Th Fr Sa
29 30 31 1 2 3 4
5 6 7 8 9 10 11
12 13 14 15 16 17 18
19 20 21 22 23 24 25
26 27 28 1 2 3 4

Ruggero Robin Jazz Trio - Lo-Fi Project (2022) [Official Digital Download]

Posted By: pyatak
Ruggero Robin Jazz Trio - Lo-Fi Project (2022) [Official Digital Download]

Ruggero Robin Jazz Trio - Lo-Fi Project (2022) [Official Digital Download]
FLAC (tracks) 24-bit/44.1 kHz | Front Cover | Time - 01:46:22 minutes | 1.23 GB
Jazz | Studio Master, Official Digital Download

Ruggero Robin was born in Padova (Italy) on 29th april 1962. Guitarist of an excellent technic, he has very soon acquired a wide music culture, performing on an international basis, with artists such as:

Bruce Gaitsch, Janey Clewer, Joe Diorio, Trilok Gurtu, Enzo Todesco, Alex Acuña, Oskar Cartaya, Marc Jordan, John Patitucci, Marc Quinones, Richie Gajate García, Giulio Capiozzo, Flavio Boltro, Robert Bonisolo, Frank Tontoh, George Acogny, Thoss Panos and other great artists of the pop music as Zucchero Fornaciari, Andrea Bocelli, Giorgia, Nomadi, Riccardo Fogli and many others.

TRACKLIST

1. Ruggero Robin Jazz Trio - Undicesima
2. Ruggero Robin Jazz Trio - Dodicesima
3. Ruggero Robin Jazz Trio - La Quarta
4. Ruggero Robin Jazz Trio - La Decima
5. Ruggero Robin Jazz Trio - La Nona
6. Ruggero Robin Jazz Trio - La Quinta
7. Ruggero Robin Jazz Trio - La Seconda
8. Ruggero Robin Jazz Trio - La Settima
9. Ruggero Robin Jazz Trio - La Prima
10. Ruggero Robin Jazz Trio - La Terza
11. Ruggero Robin Jazz Trio - La Sesta
12. Ruggero Robin Jazz Trio - L'Ottava

foobar2000 1.6.2 / Dynamic Range Meter 1.1.1
log date: 2022-12-02 21:55:06

––––––––––––––––––––––––––––––––––––––––
Analyzed: Ruggero Robin Jazz Trio / Lo-Fi Project
––––––––––––––––––––––––––––––––––––––––

DR Peak RMS Duration Track
––––––––––––––––––––––––––––––––––––––––
DR6 0.00 dB -7.62 dB 3:39 01-Undicesima
DR6 0.00 dB -7.51 dB 5:35 02-Dodicesima
DR7 0.00 dB -7.93 dB 4:48 03-La Quarta
DR4 0.00 dB -4.62 dB 16:33 04-La Decima
DR8 -0.20 dB -9.40 dB 5:08 05-La Nona
DR6 0.00 dB -6.92 dB 15:32 06-La Quinta
DR7 0.00 dB -8.29 dB 8:41 07-La Seconda
DR8 0.00 dB -8.86 dB 6:22 08-La Settima
DR5 0.00 dB -6.63 dB 8:04 09-La Prima
DR5 0.00 dB -5.95 dB 8:47 10-La Terza
DR8 0.00 dB -9.20 dB 6:51 11-La Sesta
DR6 0.00 dB -8.35 dB 16:28 12-L'Ottava
––––––––––––––––––––––––––––––––––––––––

Number of tracks: 12
Official DR value: DR6

Samplerate: 44100 Hz
Channels: 2
Bits per sample: 24
Bitrate: 1638 kbps
Codec: FLAC
================================================================================



Thanks to the Original customer.