Tags
Language
Tags
February 2023
Su Mo Tu We Th Fr Sa
29 30 31 1 2 3 4
5 6 7 8 9 10 11
12 13 14 15 16 17 18
19 20 21 22 23 24 25
26 27 28 1 2 3 4

Esperanza Spalding - Radio Music Society (Deluxe) [Official Digital Download 24/96]

Posted By: pyatak
Esperanza Spalding - Radio Music Society (Deluxe) [Official Digital Download 24/96]

Esperanza Spalding - Radio Music Society (Deluxe) [Official Digital Download 24/96]
FLAC (tracks) 24-bit/96 kHz | Front Cover | Time - 61:28 minutes | 1,15 GB
Jazz | Studio Master, Official Digital Download

"With her new companion LP, Radio Music Society, the young virtuoso branches out sonically, injecting her jazz roots with some modern soul and pop juice, maybe even inspiring the Bieber faithful to check in on what all the fuss is about… At just 11 tracks, this record flexes serious range, but what’s even more impressive is that it rarely sounds overextended."
- Okayplayer

Celebrating the 10th Anniversary of Esperanza Spalding’s GRAMMY® Award winning 4th album, Radio Music Society comes this hi-res digital edition. Featuring the singles “Black Gold” and “Radio Song”, Radio Music Society earned Spalding her second GRAMMY Award, for Best Jazz Vocal Album, and is a companion to her album Chamber Music Society. The album features guests including Q-Tip, Terri Lyne Carrington, Jack DeJohnette, Joe Lovano, Lionel Loueke, Lalah Hathaway, Gretchen Parlato and more.

The Deluxe Edition features an all-new bonus track, "Jazz Ain't Nothin But Soul", featuring Joe Lovano.

TRACKLIST

1. Esperanza Spalding - Radio Song
2. Esperanza Spalding - Cinnamon Tree
3. Esperanza Spalding - Crowned & Kissed
4. Esperanza Spalding - Land Of The Free
5. Esperanza Spalding - Black Gold
6. Esperanza Spalding - I Can't Help It
7. Esperanza Spalding - Hold On Me
8. Esperanza Spalding - Vague Suspicions
9. Esperanza Spalding - Endangered Species
10. Esperanza Spalding - Let Her
11. Esperanza Spalding - City Of Roses
12. Esperanza Spalding - Smile Like That
13. Esperanza Spalding - Jazz Ain't Nothin But Soul

foobar2000 1.6.2 / Dynamic Range Meter 1.1.1
log date: 2022-12-02 19:41:58

––––––––––––––––––––––––––––––––––––––––
Analyzed: Esperanza Spalding / Radio Music Society
––––––––––––––––––––––––––––––––––––––––

DR Peak RMS Duration Track
––––––––––––––––––––––––––––––––––––––––
DR12 -0.22 dB -14.89 dB 6:32 01-Radio Song
DR13 -0.22 dB -15.99 dB 5:36 02-Cinnamon Tree
DR12 -0.22 dB -14.76 dB 4:35 03-Crowned & Kissed
DR10 -1.11 dB -18.80 dB 1:54 04-Land Of The Free
DR11 -0.52 dB -14.19 dB 5:17 05-Black Gold
DR12 -0.22 dB -14.95 dB 4:42 06-I Can't Help It
DR13 -0.22 dB -15.36 dB 3:39 07-Hold On Me
DR12 -0.24 dB -17.17 dB 5:51 08-Vague Suspicions
DR12 -0.22 dB -15.63 dB 6:37 09-Endangered Species
DR12 -0.22 dB -15.31 dB 4:21 10-Let Her
DR12 -0.22 dB -15.50 dB 4:35 11-City Of Roses
DR11 -0.22 dB -13.46 dB 4:18 12-Smile Like That
DR10 -0.42 dB -13.05 dB 3:37 13-Jazz Ain't Nothin But Soul
––––––––––––––––––––––––––––––––––––––––

Number of tracks: 13
Official DR value: DR12

Samplerate: 96000 Hz
Channels: 2
Bits per sample: 24
Bitrate: 2806 kbps
Codec: FLAC
================================================================================



Thanks to the Original customer.