Tags
Language
Tags
February 2023
Su Mo Tu We Th Fr Sa
29 30 31 1 2 3 4
5 6 7 8 9 10 11
12 13 14 15 16 17 18
19 20 21 22 23 24 25
26 27 28 1 2 3 4

Sergio Gallo - Anton Rubinstein- Piano Music (2022) [Official Digital Download]

Posted By: pyatak
Sergio Gallo - Anton Rubinstein- Piano Music (2022) [Official Digital Download]

Sergio Gallo - Anton Rubinstein- Piano Music (2022) [Official Digital Download]
FLAC (tracks) 24-bit/44.1 kHz | Front Cover | Time - 01:12:13 minutes | 567 MB
Classical | Studio Master, Official Digital Download

Anton Rubinstein occupied an uneasy place in the history of Russian music, largely because of his Jewish origins and the perception of him as a "German in Russia". In recent years his solo piano music has begun to be re-evaluated. This album focuses on the series of works written in the mid-1850s and reveals music of charm and flair. The Three Pieces, Op. 16 are conventional in form but attractive, and the Two Pieces, Op. 28 contain a strongly contrasted Nocturne and Caprice. More ambitious, and intended to be performed in his concert repertoire as one of the greatest virtuosos of the age, are the Six Pieces, Op. 51.

TRACKLIST

1. Sergio Gallo - No. 1, Impromptu
2. Sergio Gallo - No. 2, Berceuse
3. Sergio Gallo - No. 3, Sérénade
4. Sergio Gallo - No. 1, Allegretto scherzando
5. Sergio Gallo - No. 2, Allegro
6. Sergio Gallo - No. 3, Allegro risoluto
7. Sergio Gallo - No. 1, Nocturne
8. Sergio Gallo - No. 2, Caprice
9. Sergio Gallo - No. 1, Mélancholie
10. Sergio Gallo - No. 2, Enjouement
11. Sergio Gallo - No. 3, Rêverie
12. Sergio Gallo - No. 4, Caprice
13. Sergio Gallo - No. 5, Passion
14. Sergio Gallo - No. 6, Coquetterie

foobar2000 1.6.2 / Dynamic Range Meter 1.1.1
log date: 2022-12-02 21:09:40

––––––––––––––––––––––––––––––––––––––––
Analyzed: Sergio Gallo / Anton Rubinstein: Piano Music
––––––––––––––––––––––––––––––––––––––––

DR Peak RMS Duration Track
––––––––––––––––––––––––––––––––––––––––
DR13 -4.69 dB -23.09 dB 4:09 01-No. 1, Impromptu
DR13 -5.32 dB -23.84 dB 5:29 02-No. 2, Berceuse
DR14 -5.35 dB -26.07 dB 6:15 03-No. 3, Sérénade
DR14 -4.56 dB -22.61 dB 2:39 04-No. 1, Allegretto scherzando
DR13 -0.97 dB -18.64 dB 5:40 05-No. 2, Allegro
DR13 -1.00 dB -18.03 dB 4:43 06-No. 3, Allegro risoluto
DR14 -2.28 dB -23.94 dB 5:21 07-No. 1, Nocturne
DR14 -1.00 dB -19.68 dB 7:59 08-No. 2, Caprice
DR13 -3.87 dB -22.70 dB 5:36 09-No. 1, Mélancholie
DR14 -3.92 dB -23.55 dB 5:07 10-No. 2, Enjouement
DR15 -3.35 dB -24.11 dB 5:54 11-No. 3, Rêverie
DR14 -2.48 dB -22.19 dB 3:23 12-No. 4, Caprice
DR14 -2.52 dB -21.36 dB 5:30 13-No. 5, Passion
DR14 -2.26 dB -20.77 dB 4:36 14-No. 6, Coquetterie
––––––––––––––––––––––––––––––––––––––––

Number of tracks: 14
Official DR value: DR14

Samplerate: 44100 Hz
Channels: 2
Bits per sample: 24
Bitrate: 1079 kbps
Codec: FLAC
================================================================================



Thanks to the Original customer.