Tags
Language
Tags
February 2023
Su Mo Tu We Th Fr Sa
29 30 31 1 2 3 4
5 6 7 8 9 10 11
12 13 14 15 16 17 18
19 20 21 22 23 24 25
26 27 28 1 2 3 4

Jean-Pierre Armengaud - Franck- Piano Rarities - Original Works & Transcriptions (2022) [Official Digital Download 24/96]

Posted By: pyatak
Jean-Pierre Armengaud - Franck- Piano Rarities - Original Works & Transcriptions (2022) [Official Digital Download 24/96]

Jean-Pierre Armengaud - Franck- Piano Rarities - Original Works & Transcriptions (2022) [Official Digital Download 24/96]
FLAC (tracks) 24-bit/96 kHz | Front Cover | Time - 01:08:48 minutes | 1.22 GB
Classical | Studio Master, Official Digital Download

Few composers have enjoyed a late flowering to compare with that of César Franck. Many of the great works in this recording were composed during his final decades and still stand today as powerful representatives of French music in the post-Franco-Prussian War period. The influence of Wagner can be heard in the poetic evocations of Les Éolides, while the magnificent Prélude, Choral et Fugue, much admired by Liszt, reinterprets well-known Baroque-era genres into an unforgettably expressive Romantic aesthetic. Widely acknowledged as one today’s great interpreters of French music, Jean-Pierre Armengaud presents an album of rarities composed for piano by Franck and arrangements of the composer’s works by distinguished musicians from the early 20th century

TRACKLIST

1. Jean-Pierre Armengaud - I. Prélude. Andantino
2. Jean-Pierre Armengaud - II. Lento
3. Jean-Pierre Armengaud - III. Fugue. Allegretto ma non troppo
4. Jean-Pierre Armengaud - IV. Variation. Andantino
5. Jean-Pierre Armengaud - Les Éolides, Op. 26, FWV 43 (Arr. G. Samazeuilh & J.P. Armengaud for Piano)
6. Jean-Pierre Armengaud - Prière, Op. 20, FWV 32 (Arr. B. Selva for Piano)
7. Jean-Pierre Armengaud - No. 1, Prélude. Moderato
8. Jean-Pierre Armengaud - No. 2, Choral. Poco più lento
9. Jean-Pierre Armengaud - No. 3, Fugue
10. Jean-Pierre Armengaud - Introduction

foobar2000 1.6.2 / Dynamic Range Meter 1.1.1
log date: 2022-12-02 21:47:13

––––––––––––––––––––––––––––––––––––––––
Analyzed: Jean-Pierre Armengaud / Franck: Piano Rarities - Original Works & Transcriptions
––––––––––––––––––––––––––––––––––––––––

DR Peak RMS Duration Track
––––––––––––––––––––––––––––––––––––––––
DR13 -8.41 dB -25.65 dB 3:43 01-I. Prélude. Andantino
DR11 -7.27 dB -25.60 dB 0:59 02-II. Lento
DR12 -4.33 dB -22.94 dB 3:22 03-III. Fugue. Allegretto ma non troppo
DR14 -3.81 dB -23.36 dB 4:04 04-IV. Variation. Andantino
DR15 -1.74 dB -21.28 dB 14:54 05-Les Éolides, Op. 26, FWV 43 (Arr. G. Samazeuilh & J.P. Armengaud for Piano)
DR15 -5.73 dB -25.68 dB 14:13 06-Prière, Op. 20, FWV 32 (Arr. B. Selva for Piano)
DR14 -3.84 dB -23.43 dB 5:04 07-No. 1, Prélude. Moderato
DR14 -3.06 dB -23.53 dB 6:15 08-No. 2, Choral. Poco più lento
DR12 -3.60 dB -20.07 dB 8:48 09-No. 3, Fugue
DR18 -1.52 dB -25.71 dB 7:34 10-Introduction
––––––––––––––––––––––––––––––––––––––––

Number of tracks: 10
Official DR value: DR14

Samplerate: 96000 Hz
Channels: 2
Bits per sample: 24
Bitrate: 2425 kbps
Codec: FLAC
================================================================================



Thanks to the Original customer.