Tags
Language
Tags
February 2023
Su Mo Tu We Th Fr Sa
29 30 31 1 2 3 4
5 6 7 8 9 10 11
12 13 14 15 16 17 18
19 20 21 22 23 24 25
26 27 28 1 2 3 4

Birgit Ramsl - Arthur Lourié- Chamber & Instrumental music, Vol. 1 (2022) [Official Digital Download 24/96]

Posted By: pyatak
Birgit Ramsl - Arthur Lourié- Chamber & Instrumental music, Vol. 1 (2022) [Official Digital Download 24/96]

Birgit Ramsl - Arthur Lourié- Chamber & Instrumental music, Vol. 1 (2022) [Official Digital Download 24/96]
FLAC (tracks) 24-bit/96 kHz | Front Cover | Time - 01:09:57 minutes | 1.01 GB
Classical | Studio Master, Official Digital Download

The turbulent life of Arthur Lourié (1891–1966) – student of Glazunov, friend of Blok, lover of Akhmatova, commissar of the Soviet regime, exile in Germany, France and the USA, ghost-writer for Koussevitzky – is reflected in the wide range of references in his music, from echoes of the ceremonies of ancient Greece to Neo-Baroque and Neo-Classical procedures perhaps inspired by his collaboration with Stravinsky in Paris. Some of the works in this first of two albums surveying his chamber and instrumental music have an almost ritual formality; in others a mischievous grin is not far from the surface.

TRACKLIST

1. Birgit Ramsl - Sunrise
2. Hansjürgen Wäldele - I. —
3. Hansjürgen Wäldele - II. —
4. Candy Grace Ho - Regina Coeli
5. Birgit Ramsl - II. Allegretto
6. Birgit Ramsl - II. Adagio
7. Birgit Ramsl - III. Presto
8. Birgit Ramsl - I. Le sacrifice du miel
9. Birgit Ramsl - II. Plainte d'ariane
10. Birgit Ramsl - III. Labyrinthe
11. Birgit Ramsl - No. 1, Phrases
12. Paolo Beltramini - The Mime
13. Birgit Ramsl - The Flute of Pan
14. Birgit Ramsl - Funeral Games in Honor of Chronos

foobar2000 1.6.2 / Dynamic Range Meter 1.1.1
log date: 2022-12-02 21:24:20

––––––––––––––––––––––––––––––––––––––––
Analyzed: Birgit Ramsl / Arthur Lourié: Chamber & Instrumental music, Vol. 1 (1-10)
Candy Grace Ho / Arthur Lourié: Chamber & Instrumental music, Vol. 1 (11)
Hansjürgen Wäldele / Arthur Lourié: Chamber & Instrumental music, Vol. 1 (12-13)
Paolo Beltramini / Arthur Lourié: Chamber & Instrumental music, Vol. 1 (14)
––––––––––––––––––––––––––––––––––––––––

DR Peak RMS Duration Track
––––––––––––––––––––––––––––––––––––––––
DR15 -4.10 dB -24.15 dB 3:23 01-Sunrise
DR13 -3.24 dB -22.15 dB 4:16 05-II. Allegretto
DR11 -9.18 dB -26.62 dB 3:14 06-II. Adagio
DR14 -5.59 dB -23.14 dB 3:57 07-III. Presto
DR12 -5.91 dB -25.98 dB 2:31 08-I. Le sacrifice du miel
DR11 -10.53 dB -26.00 dB 2:30 09-II. Plainte d'ariane
DR12 -8.23 dB -25.48 dB 5:07 10-III. Labyrinthe
DR14 -0.71 dB -19.79 dB 6:24 11-No. 1, Phrases
DR12 -0.71 dB -21.42 dB 5:07 13-The Flute of Pan
DR17 -0.71 dB -22.34 dB 10:07 14-Funeral Games in Honor of Chronos
DR13 -0.71 dB -16.91 dB 3:02 04-Regina Coeli
DR14 -0.71 dB -18.22 dB 6:43 02-I. —
DR15 -1.50 dB -22.93 dB 6:20 03-II. —
DR16 -9.29 dB -33.42 dB 7:23 12-The Mime
––––––––––––––––––––––––––––––––––––––––

Number of tracks: 14
Official DR value: DR13

Samplerate: 96000 Hz
Channels: 2
Bits per sample: 24
Bitrate: 1628 kbps
Codec: FLAC
================================================================================



Thanks to the Original customer.