Tags
Language
Tags
December 2022
Su Mo Tu We Th Fr Sa
27 28 29 30 1 2 3
4 5 6 7 8 9 10
11 12 13 14 15 16 17
18 19 20 21 22 23 24
25 26 27 28 29 30 31

Anna Pasetti - Christmas Harp Music (2022) [Official Digital Download]

Posted By: pyatak
Anna Pasetti - Christmas Harp Music (2022) [Official Digital Download]

Anna Pasetti - Christmas Harp Music (2022) [Official Digital Download]
FLAC (tracks) 24-bit/88.2 kHz | Front Cover | Time -01:11:20 minutes | 397 MB
Classical | Studio Master, Official Digital Download

Christmas has always been a source of inspiration for musicians, and this harp album contains many Christmas pieces and famous melodies.

Charles Bochsa (1789–1856) wrote much harp music, including his Fantasy on "Adeste fideles (dedicated to Clementi). Joseph Mazzinghi’s (1765–1844) Andante from Sonata, Op. 30 No. 3 consists of a series of variations on the, likely pre-existing, melody that almost a century later would become the famous song Deck the Halls. Charles Oberthür (1845–1924) was the first harp professor of the Royal Academy of Music in London. His piece Virgo Maria is based on the ancient Marian hymn O Sanctissima. Unlike other tracks, Edmund Schüecker's (1860–1911) Weihnachtslied is not inspired by any traditional Christmas melody. His other didactic compositions are well known and still used in conservatories, unlike his concert pieces.

The same can be said of his pupil, Dutch composer Johannes Snoer (1868–1936). His Phantasia combines the two themes of the Christmas carols Stille Nacht and Es ist ein' Ros' entsprungen. In France, Alphonse Hasselmans (1845–1912) was the most important harp tutor at the Paris Conservatory, teaching Tournier, Renié, Grandjany and Salzedo. Rather than depicting a light-hearted holiday scene, Hasslemans’ Conte de Noël evokes Christmas ghost tales. In 1912, Marcel Tournier (1879–1951) succeeded Hasselmans at the Paris Conservatory. Tournier composed in an impressionistic style, and his two pieces here are from his four volumes of Images (inspired by Debussy). Les enfants expresses children’s joy watching the nativity scene, and Cloches evokes the sound of bells under the snow. Hasselmans’ first choice for his replacement was, however, not Tournier, but Henriette Renié (1875–1956), perhaps the most important female harp music composer. However, the Minister of Education refused Hasselmans, as there were no women teaching principal courses at the time, and because she was a Christian when the French government was advocating secularism. The melancholic Conte de Noël opens her collection of Six Pièces brèves.

Marcel Grandjany (1891–1975), a pupil of Renié, composed many pieces that remain part of study and concert programs for the harp, and his version of Stille Nacht here contrasts with Snoer’s version. Marcel Samuel-Rousseau’s (1882-1955) Variations pastorales are inspired by an old French popular carol. Carlos Salzedo’s (1885-1961) compositions for harp were very innovative: he invented and described several of the effects that are still used in contemporary harp music. His Concert Variations are based on the song O Tannenbaum, created from a late medieval or Renaissance melody.

Jingle Bells needs no introduction. Composed by James Pierpont (1822-1893) in 1850 (originally for Thanksgiving), it has become a distinctive Christmas song, arranged here by harpist Masumi Nagasawa.

TRACKLIST

1. Anna Pasetti - Fantasia on adeste Fideles
2. Anna Pasetti - Andante from Sonata, Op. 30 No. 3
3. Anna Pasetti - Virgo Maria, Op. 106 No. 3
4. Anna Pasetti - Weihnachtslied, Op. 21 No. 2
5. Anna Pasetti - Phantasia über Zwei Weihnachtslieder, Op. 59
6. Anna Pasetti - Conte de Noël in E-Flat Minor, Op. 33
7. Anna Pasetti - Les enfants à la crèche de Noël, Op. 31 No. 6
8. Anna Pasetti - Cloches sous la neige, Op. 39 No. 11
9. Anna Pasetti - Conte de Noël
10. Anna Pasetti - Noël provençal, Op. 24
11. Anna Pasetti - Silent Night, Holy Night
12. Anna Pasetti - Variations pastorales sur un vieux Noël in G Minor
13. Anna Pasetti - Concert Variations on o Tannenbaum
14. Anna Pasetti - Jingle Swingle Bells

foobar2000 1.6.2 / Dynamic Range Meter 1.1.1
log date: 2022-11-24 17:06:25

––––––––––––––––––––––––––––––––––––––––
Analyzed: Anna Pasetti / Christmas Harp Music
––––––––––––––––––––––––––––––––––––––––

DR Peak RMS Duration Track
––––––––––––––––––––––––––––––––––––––––
DR13 -1.74 dB -19.11 dB 11:44 01-Fantasia on adeste Fideles
DR12 -3.60 dB -18.34 dB 3:39 02-Andante from Sonata, Op. 30 No. 3
DR13 -0.42 dB -16.15 dB 5:59 03-Virgo Maria, Op. 106 No. 3
DR13 -2.83 dB -20.57 dB 5:17 04-Weihnachtslied, Op. 21 No. 2
DR13 -2.42 dB -19.16 dB 7:47 05-Phantasia über Zwei Weihnachtslieder, Op. 59
DR13 -0.77 dB -18.28 dB 6:43 06-Conte de Noël in E-Flat Minor, Op. 33
DR13 -1.61 dB -19.38 dB 2:49 07-Les enfants à la crèche de Noël, Op. 31 No. 6
DR11 -3.53 dB -23.25 dB 1:56 08-Cloches sous la neige, Op. 39 No. 11
DR14 -1.75 dB -21.53 dB 2:01 09-Conte de Noël
DR11 -2.43 dB -17.95 dB 1:57 10-Noël provençal, Op. 24
DR14 -3.66 dB -21.86 dB 3:40 11-Silent Night, Holy Night
DR13 -0.55 dB -18.33 dB 11:09 12-Variations pastorales sur un vieux Noël in G Minor
DR12 -1.41 dB -17.11 dB 4:48 13-Concert Variations on o Tannenbaum
DR12 -2.04 dB -17.17 dB 1:59 14-Jingle Swingle Bells
––––––––––––––––––––––––––––––––––––––––

Number of tracks: 14
Official DR value: DR13

Samplerate: 88200 Hz
Channels: 2
Bits per sample: 24
Bitrate: 825 kbps
Codec: FLAC
================================================================================



Thanks to the Original customer.