Index
# A B C D E F G H I J K L M N O P Q R S T U V W Y Z
Tags
Language
Tags
December 2022
Su Mo Tu We Th Fr Sa
27 28 29 30 1 2 3
4 5 6 7 8 9 10
11 12 13 14 15 16 17
18 19 20 21 22 23 24
25 26 27 28 29 30 31

Featured TV Shows


Bad Sisters S01E08

Posted By: Tavaz
720p (HD) / WEBRip IMDb
Bad Sisters S01E08

Bad Sisters S01E08
WEBRip | MKV | 1356x678 | English | H264 @ 2829 kbps | E-AC-3 @ 768 kbps | 55 min 7 s | 1.39 GiB
Subtitles: ภาษาไทย, Français, tiếng Việt, Español, Eesti keel, Slovenčina, 日本語, עברית, 한국어, Русский, Ελληνικά, Nederlands, Dansk, Bahasa Indonesia, Български, Українська, 中文, Suomi, Polski, Magyar, Türkçe, English, हिन्दी, العربية, Slovenščina, Deutsch, Svenska, Italiano, Português, Čeština
Genre: Drama, Comedy


The tight-knit Garvey sisters have always looked out for each other. When their brother-in-law winds up dead, his life insurers launch an investigation to prove malicious intent—and set their sights on the sisters, all of whom had ample reason to kill him.

94d53b0be62f4885b7dc551ee6787ea2.mkv (1.4 GB)



General
Unique ID : 328788252893481872138036994298952551937 (0xF75A506CDB7E1BDC33A66DC4C5B00E01)
Complete name : ./94d53b0be62f4885b7dc551ee6787ea2.mkv
Format : Matroska
Format version : Version 4 / Version 2
File size : 1.39 GiB
Duration : 55 min 7 s
Overall bit rate : 3 605 kb/s
Writing application : mkvmerge v67.0.0 ('Under Stars') 64-bit
Writing library : libebml v1.4.2 + libmatroska v1.6.4

Video
ID : 1
Format : AVC
Format/Info : Advanced Video Codec
Format profile : High@L3.2
Format settings : CABAC / 5 Ref Frames
Format settings, CABAC : Yes
Format settings, RefFrames : 5 frames
Codec ID : V_MPEG4/ISO/AVC
Duration : 55 min 7 s
Bit rate : 2 829 kb/s
Width : 1 356 pixels
Height : 678 pixels
Display aspect ratio : 2.000
Frame rate mode : Constant
Frame rate : 23.976 (24000/1001) FPS
Color space : YUV
Chroma subsampling : 4:2:0
Bit depth : 8 bits
Scan type : Progressive
Bits/(Pixel*Frame) : 0.128
Stream size : 1.09 GiB (78%)
Language : English
Default : Yes
Forced : No
Color range : Limited
Color primaries : BT.709
Transfer characteristics : BT.709
Matrix coefficients : BT.709

Audio
ID : 2
Format : E-AC-3
Format/Info : Enhanced Audio Coding 3
Format profile : E-AC-3+Atmos / E-AC-3
Format settings, Endianness : Big
Codec ID : A_EAC3
Duration : 55 min 7 s
Bit rate mode : Constant
Bit rate : 768 kb/s
Channel(s) : 15 objects / 6 channels
Channel positions : 15 objects / Front: L C R, Side: L R, LFE
Sampling rate : 48.0 kHz
Frame rate : 187.500 FPS (256 SPF)
Compression mode : Lossy
Stream size : 303 MiB (21%)
Language : English
Service kind : Complete Main
Default : Yes
Forced : No

Text #1
ID : 3
Format : UTF-8
Codec ID : S_TEXT/UTF8
Codec ID/Info : UTF-8 Plain Text
Duration : 53 min 33 s
Bit rate : 65 b/s
Count of elements : 753
Stream size : 25.7 KiB (0%)
Title : English
Language : English
Default : No
Forced : No

Text #2
ID : 4
Format : UTF-8
Codec ID : S_TEXT/UTF8
Codec ID/Info : UTF-8 Plain Text
Duration : 53 min 50 s
Bit rate : 77 b/s
Count of elements : 874
Stream size : 30.7 KiB (0%)
Title : English (SDH)
Language : English
Default : No
Forced : No

Text #3
ID : 5
Format : UTF-8
Codec ID : S_TEXT/UTF8
Codec ID/Info : UTF-8 Plain Text
Duration : 54 min 42 s
Bit rate : 89 b/s
Count of elements : 733
Stream size : 35.7 KiB (0%)
Title : العربية
Language : Arabic
Default : No
Forced : No

Text #4
ID : 6
Format : UTF-8
Codec ID : S_TEXT/UTF8
Codec ID/Info : UTF-8 Plain Text
Duration : 54 min 42 s
Bit rate : 92 b/s
Count of elements : 648
Stream size : 36.9 KiB (0%)
Title : български
Language : Bulgarian
Default : No
Forced : No

Text #5
ID : 7
Format : UTF-8
Codec ID : S_TEXT/UTF8
Codec ID/Info : UTF-8 Plain Text
Duration : 54 min 42 s
Bit rate : 54 b/s
Count of elements : 710
Stream size : 21.8 KiB (0%)
Title : Čeština
Language : Czech
Default : No
Forced : No

Text #6
ID : 8
Format : UTF-8
Codec ID : S_TEXT/UTF8
Codec ID/Info : UTF-8 Plain Text
Duration : 54 min 42 s
Bit rate : 60 b/s
Count of elements : 657
Stream size : 24.0 KiB (0%)
Title : dansk
Language : Danish
Default : No
Forced : No

Text #7
ID : 9
Format : UTF-8
Codec ID : S_TEXT/UTF8
Codec ID/Info : UTF-8 Plain Text
Duration : 54 min 53 s
Bit rate : 67 b/s
Count of elements : 738
Stream size : 27.1 KiB (0%)
Title : Deutsch
Language : German
Default : No
Forced : No

Text #8
ID : 10
Format : UTF-8
Codec ID : S_TEXT/UTF8
Codec ID/Info : UTF-8 Plain Text
Duration : 54 min 42 s
Bit rate : 98 b/s
Count of elements : 717
Stream size : 39.3 KiB (0%)
Title : Ελληνικά
Language : Greek
Default : No
Forced : No

Text #9
ID : 11
Format : UTF-8
Codec ID : S_TEXT/UTF8
Codec ID/Info : UTF-8 Plain Text
Duration : 53 min 50 s
Bit rate : 95 b/s
Count of elements : 874
Stream size : 37.8 KiB (0%)
Title : English (CC)
Language : English
Default : No
Forced : No

Text #10
ID : 12
Format : UTF-8
Codec ID : S_TEXT/UTF8
Codec ID/Info : UTF-8 Plain Text
Duration : 54 min 42 s
Bit rate : 60 b/s
Count of elements : 760
Stream size : 24.2 KiB (0%)
Title : Español (España)
Language : Spanish
Default : No
Forced : No

Text #11
ID : 13
Format : UTF-8
Codec ID : S_TEXT/UTF8
Codec ID/Info : UTF-8 Plain Text
Duration : 54 min 42 s
Bit rate : 59 b/s
Count of elements : 763
Stream size : 23.7 KiB (0%)
Title : Español (Latinoamérica)
Language : Spanish
Default : No
Forced : No

Text #12
ID : 14
Format : UTF-8
Codec ID : S_TEXT/UTF8
Codec ID/Info : UTF-8 Plain Text
Duration : 54 min 42 s
Bit rate : 57 b/s
Count of elements : 741
Stream size : 23.0 KiB (0%)
Title : eesti
Language : Estonian
Default : No
Forced : No

Text #13
ID : 15
Format : UTF-8
Codec ID : S_TEXT/UTF8
Codec ID/Info : UTF-8 Plain Text
Duration : 54 min 42 s
Bit rate : 55 b/s
Count of elements : 750
Stream size : 22.3 KiB (0%)
Title : Suomi
Language : Finnish
Default : No
Forced : No

Text #14
ID : 16
Format : UTF-8
Codec ID : S_TEXT/UTF8
Codec ID/Info : UTF-8 Plain Text
Duration : 54 min 46 s
Bit rate : 54 b/s
Count of elements : 740
Stream size : 21.7 KiB (0%)
Title : Français (France)
Language : French
Default : No
Forced : No

Text #15
ID : 17
Format : UTF-8
Codec ID : S_TEXT/UTF8
Codec ID/Info : UTF-8 Plain Text
Duration : 54 min 46 s
Bit rate : 54 b/s
Count of elements : 741
Stream size : 21.7 KiB (0%)
Title : Français (Canada)
Language : French
Default : No
Forced : No

Text #16
ID : 18
Format : UTF-8
Codec ID : S_TEXT/UTF8
Codec ID/Info : UTF-8 Plain Text
Duration : 54 min 42 s
Bit rate : 84 b/s
Count of elements : 761
Stream size : 33.9 KiB (0%)
Title : עברית
Language : Hebrew
Default : No
Forced : No

Text #17
ID : 19
Format : UTF-8
Codec ID : S_TEXT/UTF8
Codec ID/Info : UTF-8 Plain Text
Duration : 54 min 42 s
Bit rate : 161 b/s
Count of elements : 762
Stream size : 64.6 KiB (0%)
Title : हिन्दी
Language : Hindi
Default : No
Forced : No

Text #18
ID : 20
Format : UTF-8
Codec ID : S_TEXT/UTF8
Codec ID/Info : UTF-8 Plain Text
Duration : 54 min 42 s
Bit rate : 56 b/s
Count of elements : 746
Stream size : 22.6 KiB (0%)
Title : magyar
Language : Hungarian
Default : No
Forced : No

Text #19
ID : 21
Format : UTF-8
Codec ID : S_TEXT/UTF8
Codec ID/Info : UTF-8 Plain Text
Duration : 54 min 42 s
Bit rate : 61 b/s
Count of elements : 760
Stream size : 24.5 KiB (0%)
Title : Bahasa Indonesia
Language : Indonesian
Default : No
Forced : No

Text #20
ID : 22
Format : UTF-8
Codec ID : S_TEXT/UTF8
Codec ID/Info : UTF-8 Plain Text
Duration : 54 min 42 s
Bit rate : 63 b/s
Count of elements : 753
Stream size : 25.5 KiB (0%)
Title : Italiano
Language : Italian
Default : No
Forced : No

Text #21
ID : 23
Format : UTF-8
Codec ID : S_TEXT/UTF8
Codec ID/Info : UTF-8 Plain Text
Duration : 54 min 51 s
Bit rate : 49 b/s
Count of elements : 814
Stream size : 19.8 KiB (0%)
Title : 日本語
Language : Japanese
Default : No
Forced : No

Text #22
ID : 24
Format : UTF-8
Codec ID : S_TEXT/UTF8
Codec ID/Info : UTF-8 Plain Text
Duration : 54 min 42 s
Bit rate : 67 b/s
Count of elements : 762
Stream size : 26.9 KiB (0%)
Title : 한국어
Language : Korean
Default : No
Forced : No

Text #23
ID : 25
Format : UTF-8
Codec ID : S_TEXT/UTF8
Codec ID/Info : UTF-8 Plain Text
Duration : 54 min 42 s
Bit rate : 63 b/s
Count of elements : 761
Stream size : 25.4 KiB (0%)
Title : lietuvių
Language : Lithuanian
Default : No
Forced : No

Text #24
ID : 26
Format : UTF-8
Codec ID : S_TEXT/UTF8
Codec ID/Info : UTF-8 Plain Text
Duration : 54 min 42 s
Bit rate : 61 b/s
Count of elements : 751
Stream size : 24.6 KiB (0%)
Title : latviešu
Language : Latvian
Default : No
Forced : No

Text #25
ID : 27
Format : UTF-8
Codec ID : S_TEXT/UTF8
Codec ID/Info : UTF-8 Plain Text
Duration : 54 min 42 s
Bit rate : 62 b/s
Count of elements : 760
Stream size : 25.0 KiB (0%)
Title : Bahasa Melayu
Language : Malay
Default : No
Forced : No

Text #26
ID : 28
Format : UTF-8
Codec ID : S_TEXT/UTF8
Codec ID/Info : UTF-8 Plain Text
Duration : 54 min 42 s
Bit rate : 55 b/s
Count of elements : 603
Stream size : 22.1 KiB (0%)
Title : Nederlands
Language : Dutch
Default : No
Forced : No

Text #27
ID : 29
Format : UTF-8
Codec ID : S_TEXT/UTF8
Codec ID/Info : UTF-8 Plain Text
Duration : 54 min 42 s
Bit rate : 55 b/s
Count of elements : 651
Stream size : 22.1 KiB (0%)
Title : norsk
Language : Norwegian
Default : No
Forced : No

Text #28
ID : 30
Format : UTF-8
Codec ID : S_TEXT/UTF8
Codec ID/Info : UTF-8 Plain Text
Duration : 54 min 42 s
Bit rate : 58 b/s
Count of elements : 752
Stream size : 23.6 KiB (0%)
Title : polski
Language : Polish
Default : No
Forced : No

Text #29
ID : 31
Format : UTF-8
Codec ID : S_TEXT/UTF8
Codec ID/Info : UTF-8 Plain Text
Duration : 54 min 42 s
Bit rate : 66 b/s
Count of elements : 757
Stream size : 26.5 KiB (0%)
Title : Português
Language : Portuguese
Default : No
Forced : No

Text #30
ID : 32
Format : UTF-8
Codec ID : S_TEXT/UTF8
Codec ID/Info : UTF-8 Plain Text
Duration : 54 min 42 s
Bit rate : 58 b/s
Count of elements : 741
Stream size : 23.3 KiB (0%)
Title : Português (Brasil)
Language : Portuguese
Default : No
Forced : No

Text #31
ID : 33
Format : UTF-8
Codec ID : S_TEXT/UTF8
Codec ID/Info : UTF-8 Plain Text
Duration : 54 min 42 s
Bit rate : 106 b/s
Count of elements : 765
Stream size : 42.6 KiB (0%)
Title : Русский
Language : Russian
Default : No
Forced : No

Text #32
ID : 34
Format : UTF-8
Codec ID : S_TEXT/UTF8
Codec ID/Info : UTF-8 Plain Text
Duration : 54 min 42 s
Bit rate : 56 b/s
Count of elements : 741
Stream size : 22.7 KiB (0%)
Title : Slovenčina
Language : Slovak
Default : No
Forced : No

Text #33
ID : 35
Format : UTF-8
Codec ID : S_TEXT/UTF8
Codec ID/Info : UTF-8 Plain Text
Duration : 54 min 42 s
Bit rate : 49 b/s
Count of elements : 606
Stream size : 19.7 KiB (0%)
Title : slovenščina
Language : Slovenian
Default : No
Forced : No

Text #34
ID : 36
Format : UTF-8
Codec ID : S_TEXT/UTF8
Codec ID/Info : UTF-8 Plain Text
Duration : 54 min 42 s
Bit rate : 63 b/s
Count of elements : 680
Stream size : 25.5 KiB (0%)
Title : Svenska
Language : Swedish
Default : No
Forced : No

Text #35
ID : 37
Format : UTF-8
Codec ID : S_TEXT/UTF8
Codec ID/Info : UTF-8 Plain Text
Duration : 54 min 42 s
Bit rate : 209 b/s
Count of elements : 761
Stream size : 84.1 KiB (0%)
Title : தமிழ்
Language : Tamil
Default : No
Forced : No

Text #36
ID : 38
Format : UTF-8
Codec ID : S_TEXT/UTF8
Codec ID/Info : UTF-8 Plain Text
Duration : 54 min 42 s
Bit rate : 185 b/s
Count of elements : 761
Stream size : 74.5 KiB (0%)
Title : తెలుగు
Language : Telugu
Default : No
Forced : No

Text #37
ID : 39
Format : UTF-8
Codec ID : S_TEXT/UTF8
Codec ID/Info : UTF-8 Plain Text
Duration : 54 min 42 s
Bit rate : 129 b/s
Count of elements : 761
Stream size : 52.0 KiB (0%)
Title : ไทย
Language : Thai
Default : No
Forced : No

Text #38
ID : 40
Format : UTF-8
Codec ID : S_TEXT/UTF8
Codec ID/Info : UTF-8 Plain Text
Duration : 54 min 42 s
Bit rate : 61 b/s
Count of elements : 723
Stream size : 24.8 KiB (0%)
Title : Türkçe
Language : Turkish
Default : No
Forced : No

Text #39
ID : 41
Format : UTF-8
Codec ID : S_TEXT/UTF8
Codec ID/Info : UTF-8 Plain Text
Duration : 54 min 42 s
Bit rate : 91 b/s
Count of elements : 762
Stream size : 36.6 KiB (0%)
Title : українська
Language : Ukrainian
Default : No
Forced : No

Text #40
ID : 42
Format : UTF-8
Codec ID : S_TEXT/UTF8
Codec ID/Info : UTF-8 Plain Text
Duration : 54 min 42 s
Bit rate : 80 b/s
Count of elements : 761
Stream size : 32.1 KiB (0%)
Title : Tiếng Việt
Language : Vietnamese
Default : No
Forced : No

Text #41
ID : 43
Format : UTF-8
Codec ID : S_TEXT/UTF8
Codec ID/Info : UTF-8 Plain Text
Duration : 54 min 42 s
Bit rate : 56 b/s
Count of elements : 761
Stream size : 22.8 KiB (0%)
Title : 中文(简体)
Language : Chinese
Default : No
Forced : No

Text #42
ID : 44
Format : UTF-8
Codec ID : S_TEXT/UTF8
Codec ID/Info : UTF-8 Plain Text
Duration : 54 min 42 s
Bit rate : 59 b/s
Count of elements : 762
Stream size : 23.7 KiB (0%)
Title : 廣東話
Language : Chinese
Default : No
Forced : No

Text #43
ID : 45
Format : UTF-8
Codec ID : S_TEXT/UTF8
Codec ID/Info : UTF-8 Plain Text
Duration : 54 min 42 s
Bit rate : 59 b/s
Count of elements : 762
Stream size : 23.7 KiB (0%)
Title : 中文(繁體)
Language : Chinese
Default : No
Forced : No





Bad Sisters S01E08


Bad Sisters S01E08


Bad Sisters S01E08


Bad Sisters S01E08


Bad Sisters S01E08

All episodes