Index
# A B C D E F G H I J K L M N O P Q R S T U V W Y Z
Tags
Language
Tags
December 2022
Su Mo Tu We Th Fr Sa
27 28 29 30 1 2 3
4 5 6 7 8 9 10
11 12 13 14 15 16 17
18 19 20 21 22 23 24
25 26 27 28 29 30 31

Featured TV Shows


Bad Sisters S01E07

Posted By: Tavaz
720p (HD) / WEBRip IMDb
Bad Sisters S01E07

Bad Sisters S01E07
WEBRip | MKV | 1356x678 | English | H264 @ 2811 kbps | E-AC-3 @ 768 kbps | 49 min 44 s | 1.25 GiB
Subtitles: ภาษาไทย, Français, tiếng Việt, Español, Eesti keel, Slovenčina, 日本語, עברית, 한국어, Български, Ελληνικά, Nederlands, Dansk, Bahasa Indonesia, Русский, Українська, 中文, Suomi, Polski, Magyar, Türkçe, English, हिन्दी, العربية, Slovenščina, Deutsch, Svenska, Italiano, Português, Čeština
Genre: Drama, Comedy


The tight-knit Garvey sisters have always looked out for each other. When their brother-in-law winds up dead, his life insurers launch an investigation to prove malicious intent—and set their sights on the sisters, all of whom had ample reason to kill him.

96b17911a7934e75aa8bc98da44cc218.mkv (1.2 GB)



General
Unique ID : 74172883756703987544185008459443266223 (0x37CD2D839216EBC42C5BB898B7EEE2AF)
Complete name : ./96b17911a7934e75aa8bc98da44cc218.mkv
Format : Matroska
Format version : Version 4 / Version 2
File size : 1.25 GiB
Duration : 49 min 44 s
Overall bit rate : 3 587 kb/s
Writing application : mkvmerge v70.0.0 ('Caught A Lite Sneeze') 64-bit
Writing library : libebml v1.4.2 + libmatroska v1.6.4

Video
ID : 1
Format : AVC
Format/Info : Advanced Video Codec
Format profile : High@L3.2
Format settings : CABAC / 5 Ref Frames
Format settings, CABAC : Yes
Format settings, RefFrames : 5 frames
Codec ID : V_MPEG4/ISO/AVC
Duration : 49 min 44 s
Bit rate : 2 811 kb/s
Width : 1 356 pixels
Height : 678 pixels
Display aspect ratio : 2.000
Frame rate mode : Constant
Frame rate : 23.976 (24000/1001) FPS
Color space : YUV
Chroma subsampling : 4:2:0
Bit depth : 8 bits
Scan type : Progressive
Bits/(Pixel*Frame) : 0.128
Stream size : 1 000 MiB (78%)
Default : Yes
Forced : No
Color range : Limited
Color primaries : BT.709
Transfer characteristics : BT.709
Matrix coefficients : BT.709

Audio
ID : 2
Format : E-AC-3
Format/Info : Enhanced Audio Coding 3
Format profile : E-AC-3+Atmos / E-AC-3
Format settings, Endianness : Big
Codec ID : A_EAC3
Duration : 49 min 44 s
Bit rate mode : Constant
Bit rate : 768 kb/s
Channel(s) : 15 objects / 6 channels
Channel positions : 15 objects / Front: L C R, Side: L R, LFE
Sampling rate : 48.0 kHz
Frame rate : 187.500 FPS (256 SPF)
Compression mode : Lossy
Stream size : 273 MiB (21%)
Language : English
Service kind : Complete Main
Default : Yes
Forced : No

Text #1
ID : 3
Format : UTF-8
Codec ID : S_TEXT/UTF8
Codec ID/Info : UTF-8 Plain Text
Duration : 48 min 14 s
Bit rate : 60 b/s
Count of elements : 643
Stream size : 21.3 KiB (0%)
Language : English
Default : No
Forced : No

Text #2
ID : 4
Format : UTF-8
Codec ID : S_TEXT/UTF8
Codec ID/Info : UTF-8 Plain Text
Duration : 48 min 19 s
Bit rate : 68 b/s
Count of elements : 722
Stream size : 24.2 KiB (0%)
Title : SDH
Language : English
Default : No
Forced : No

Text #3
ID : 5
Format : UTF-8
Codec ID : S_TEXT/UTF8
Codec ID/Info : UTF-8 Plain Text
Duration : 49 min 4 s
Bit rate : 83 b/s
Count of elements : 661
Stream size : 29.9 KiB (0%)
Language : Arabic
Default : No
Forced : No

Text #4
ID : 6
Format : UTF-8
Codec ID : S_TEXT/UTF8
Codec ID/Info : UTF-8 Plain Text
Duration : 49 min 4 s
Bit rate : 86 b/s
Count of elements : 562
Stream size : 31.1 KiB (0%)
Language : Bulgarian
Default : No
Forced : No

Text #5
ID : 7
Format : UTF-8
Codec ID : S_TEXT/UTF8
Codec ID/Info : UTF-8 Plain Text
Duration : 49 min 4 s
Bit rate : 54 b/s
Count of elements : 662
Stream size : 19.5 KiB (0%)
Title : Chinese (Simplified)
Language : Chinese
Default : No
Forced : No

Text #6
ID : 8
Format : UTF-8
Codec ID : S_TEXT/UTF8
Codec ID/Info : UTF-8 Plain Text
Duration : 49 min 4 s
Bit rate : 54 b/s
Count of elements : 663
Stream size : 19.6 KiB (0%)
Title : Chinese (Traditional)
Language : Chinese
Default : No
Forced : No

Text #7
ID : 9
Format : UTF-8
Codec ID : S_TEXT/UTF8
Codec ID/Info : UTF-8 Plain Text
Duration : 49 min 4 s
Bit rate : 51 b/s
Count of elements : 626
Stream size : 18.5 KiB (0%)
Language : Czech
Default : No
Forced : No

Text #8
ID : 10
Format : UTF-8
Codec ID : S_TEXT/UTF8
Codec ID/Info : UTF-8 Plain Text
Duration : 49 min 4 s
Bit rate : 57 b/s
Count of elements : 509
Stream size : 20.5 KiB (0%)
Language : Danish
Default : No
Forced : No

Text #9
ID : 11
Format : UTF-8
Codec ID : S_TEXT/UTF8
Codec ID/Info : UTF-8 Plain Text
Duration : 49 min 14 s
Bit rate : 64 b/s
Count of elements : 652
Stream size : 23.2 KiB (0%)
Language : German
Default : No
Forced : No

Text #10
ID : 12
Format : UTF-8
Codec ID : S_TEXT/UTF8
Codec ID/Info : UTF-8 Plain Text
Duration : 49 min 4 s
Bit rate : 96 b/s
Count of elements : 651
Stream size : 34.6 KiB (0%)
Language : Greek
Default : No
Forced : No

Text #11
ID : 13
Format : UTF-8
Codec ID : S_TEXT/UTF8
Codec ID/Info : UTF-8 Plain Text
Duration : 49 min 4 s
Bit rate : 59 b/s
Count of elements : 665
Stream size : 21.3 KiB (0%)
Title : Spanish (Latin America)
Language : Spanish
Default : No
Forced : No

Text #12
ID : 14
Format : UTF-8
Codec ID : S_TEXT/UTF8
Codec ID/Info : UTF-8 Plain Text
Duration : 49 min 14 s
Bit rate : 53 b/s
Count of elements : 653
Stream size : 19.4 KiB (0%)
Title : Spanish (Spain)
Language : Spanish
Default : No
Forced : No

Text #13
ID : 15
Format : UTF-8
Codec ID : S_TEXT/UTF8
Codec ID/Info : UTF-8 Plain Text
Duration : 49 min 4 s
Bit rate : 54 b/s
Count of elements : 649
Stream size : 19.6 KiB (0%)
Language : Estonian
Default : No
Forced : No

Text #14
ID : 16
Format : UTF-8
Codec ID : S_TEXT/UTF8
Codec ID/Info : UTF-8 Plain Text
Duration : 49 min 4 s
Bit rate : 53 b/s
Count of elements : 651
Stream size : 19.2 KiB (0%)
Language : Finnish
Default : No
Forced : No

Text #15
ID : 17
Format : UTF-8
Codec ID : S_TEXT/UTF8
Codec ID/Info : UTF-8 Plain Text
Duration : 49 min 7 s
Bit rate : 52 b/s
Count of elements : 654
Stream size : 18.9 KiB (0%)
Title : French (Canada)
Language : French
Default : No
Forced : No

Text #16
ID : 18
Format : UTF-8
Codec ID : S_TEXT/UTF8
Codec ID/Info : UTF-8 Plain Text
Duration : 49 min 7 s
Bit rate : 52 b/s
Count of elements : 653
Stream size : 18.9 KiB (0%)
Title : French (France)
Language : French
Default : No
Forced : No

Text #17
ID : 19
Format : UTF-8
Codec ID : S_TEXT/UTF8
Codec ID/Info : UTF-8 Plain Text
Duration : 49 min 4 s
Bit rate : 81 b/s
Count of elements : 662
Stream size : 29.2 KiB (0%)
Language : Hebrew
Default : No
Forced : No

Text #18
ID : 20
Format : UTF-8
Codec ID : S_TEXT/UTF8
Codec ID/Info : UTF-8 Plain Text
Duration : 49 min 4 s
Bit rate : 151 b/s
Count of elements : 663
Stream size : 54.3 KiB (0%)
Language : Hindi
Default : No
Forced : No

Text #19
ID : 21
Format : UTF-8
Codec ID : S_TEXT/UTF8
Codec ID/Info : UTF-8 Plain Text
Duration : 49 min 4 s
Bit rate : 55 b/s
Count of elements : 650
Stream size : 20.1 KiB (0%)
Language : Hungarian
Default : No
Forced : No

Text #20
ID : 22
Format : UTF-8
Codec ID : S_TEXT/UTF8
Codec ID/Info : UTF-8 Plain Text
Duration : 49 min 4 s
Bit rate : 59 b/s
Count of elements : 658
Stream size : 21.3 KiB (0%)
Language : Indonesian
Default : No
Forced : No

Text #21
ID : 23
Format : UTF-8
Codec ID : S_TEXT/UTF8
Codec ID/Info : UTF-8 Plain Text
Duration : 49 min 14 s
Bit rate : 55 b/s
Count of elements : 652
Stream size : 20.1 KiB (0%)
Language : Italian
Default : No
Forced : No

Text #22
ID : 24
Format : UTF-8
Codec ID : S_TEXT/UTF8
Codec ID/Info : UTF-8 Plain Text
Duration : 49 min 12 s
Bit rate : 46 b/s
Count of elements : 687
Stream size : 16.8 KiB (0%)
Language : Japanese
Default : No
Forced : No

Text #23
ID : 25
Format : UTF-8
Codec ID : S_TEXT/UTF8
Codec ID/Info : UTF-8 Plain Text
Duration : 49 min 4 s
Bit rate : 64 b/s
Count of elements : 663
Stream size : 23.1 KiB (0%)
Language : Korean
Default : No
Forced : No

Text #24
ID : 26
Format : UTF-8
Codec ID : S_TEXT/UTF8
Codec ID/Info : UTF-8 Plain Text
Duration : 49 min 4 s
Bit rate : 59 b/s
Count of elements : 659
Stream size : 21.4 KiB (0%)
Language : Lithuanian
Default : No
Forced : No

Text #25
ID : 27
Format : UTF-8
Codec ID : S_TEXT/UTF8
Codec ID/Info : UTF-8 Plain Text
Duration : 49 min 4 s
Bit rate : 58 b/s
Count of elements : 658
Stream size : 20.9 KiB (0%)
Language : Latvian
Default : No
Forced : No

Text #26
ID : 28
Format : UTF-8
Codec ID : S_TEXT/UTF8
Codec ID/Info : UTF-8 Plain Text
Duration : 49 min 4 s
Bit rate : 60 b/s
Count of elements : 657
Stream size : 21.6 KiB (0%)
Language : Malay
Default : No
Forced : No

Text #27
ID : 29
Format : UTF-8
Codec ID : S_TEXT/UTF8
Codec ID/Info : UTF-8 Plain Text
Duration : 49 min 4 s
Bit rate : 51 b/s
Count of elements : 520
Stream size : 18.6 KiB (0%)
Language : Dutch
Default : No
Forced : No

Text #28
ID : 30
Format : UTF-8
Codec ID : S_TEXT/UTF8
Codec ID/Info : UTF-8 Plain Text
Duration : 49 min 4 s
Bit rate : 52 b/s
Count of elements : 560
Stream size : 19.0 KiB (0%)
Language : Norwegian
Default : No
Forced : No

Text #29
ID : 31
Format : UTF-8
Codec ID : S_TEXT/UTF8
Codec ID/Info : UTF-8 Plain Text
Duration : 49 min 4 s
Bit rate : 56 b/s
Count of elements : 651
Stream size : 20.3 KiB (0%)
Language : Polish
Default : No
Forced : No

Text #30
ID : 32
Format : UTF-8
Codec ID : S_TEXT/UTF8
Codec ID/Info : UTF-8 Plain Text
Duration : 49 min 4 s
Bit rate : 62 b/s
Count of elements : 656
Stream size : 22.4 KiB (0%)
Title : Portuguese
Language : Portuguese
Default : No
Forced : No

Text #31
ID : 33
Format : UTF-8
Codec ID : S_TEXT/UTF8
Codec ID/Info : UTF-8 Plain Text
Duration : 49 min 4 s
Bit rate : 55 b/s
Count of elements : 653
Stream size : 19.8 KiB (0%)
Title : Portuguese (Brazil)
Language : Portuguese
Default : No
Forced : No

Text #32
ID : 34
Format : UTF-8
Codec ID : S_TEXT/UTF8
Codec ID/Info : UTF-8 Plain Text
Duration : 49 min 14 s
Bit rate : 101 b/s
Count of elements : 657
Stream size : 36.7 KiB (0%)
Language : Russian
Default : No
Forced : No

Text #33
ID : 35
Format : UTF-8
Codec ID : S_TEXT/UTF8
Codec ID/Info : UTF-8 Plain Text
Duration : 49 min 4 s
Bit rate : 53 b/s
Count of elements : 654
Stream size : 19.3 KiB (0%)
Language : Slovak
Default : No
Forced : No

Text #34
ID : 36
Format : UTF-8
Codec ID : S_TEXT/UTF8
Codec ID/Info : UTF-8 Plain Text
Duration : 49 min 4 s
Bit rate : 47 b/s
Count of elements : 544
Stream size : 17.2 KiB (0%)
Language : Slovenian
Default : No
Forced : No

Text #35
ID : 37
Format : UTF-8
Codec ID : S_TEXT/UTF8
Codec ID/Info : UTF-8 Plain Text
Duration : 49 min 4 s
Bit rate : 59 b/s
Count of elements : 609
Stream size : 21.3 KiB (0%)
Language : Swedish
Default : No
Forced : No

Text #36
ID : 38
Format : UTF-8
Codec ID : S_TEXT/UTF8
Codec ID/Info : UTF-8 Plain Text
Duration : 49 min 4 s
Bit rate : 201 b/s
Count of elements : 662
Stream size : 72.6 KiB (0%)
Language : Tamil
Default : No
Forced : No

Text #37
ID : 39
Format : UTF-8
Codec ID : S_TEXT/UTF8
Codec ID/Info : UTF-8 Plain Text
Duration : 49 min 4 s
Bit rate : 179 b/s
Count of elements : 662
Stream size : 64.6 KiB (0%)
Language : Telugu
Default : No
Forced : No

Text #38
ID : 40
Format : UTF-8
Codec ID : S_TEXT/UTF8
Codec ID/Info : UTF-8 Plain Text
Duration : 49 min 4 s
Bit rate : 127 b/s
Count of elements : 662
Stream size : 45.9 KiB (0%)
Language : Thai
Default : No
Forced : No

Text #39
ID : 41
Format : UTF-8
Codec ID : S_TEXT/UTF8
Codec ID/Info : UTF-8 Plain Text
Duration : 49 min 4 s
Bit rate : 59 b/s
Count of elements : 637
Stream size : 21.3 KiB (0%)
Language : Turkish
Default : No
Forced : No

Text #40
ID : 42
Format : UTF-8
Codec ID : S_TEXT/UTF8
Codec ID/Info : UTF-8 Plain Text
Duration : 49 min 4 s
Bit rate : 87 b/s
Count of elements : 658
Stream size : 31.5 KiB (0%)
Language : Ukrainian
Default : No
Forced : No

Text #41
ID : 43
Format : UTF-8
Codec ID : S_TEXT/UTF8
Codec ID/Info : UTF-8 Plain Text
Duration : 49 min 4 s
Bit rate : 77 b/s
Count of elements : 660
Stream size : 27.9 KiB (0%)
Language : Vietnamese
Default : No
Forced : No

Text #42
ID : 44
Format : UTF-8
Codec ID : S_TEXT/UTF8
Codec ID/Info : UTF-8 Plain Text
Duration : 49 min 4 s
Bit rate : 54 b/s
Count of elements : 663
Stream size : 19.7 KiB (0%)
Title : Cantonese (Traditional)
Language : Chinese
Default : No
Forced : No





Bad Sisters S01E07


Bad Sisters S01E07


Bad Sisters S01E07


Bad Sisters S01E07


Bad Sisters S01E07

All episodes