Index
# A B C D E F G H I J K L M N O P Q R S T U V W X Y Z
Tags
Language
Tags
December 2023
Su Mo Tu We Th Fr Sa
26 27 28 29 30 1 2
3 4 5 6 7 8 9
10 11 12 13 14 15 16
17 18 19 20 21 22 23
24 25 26 27 28 29 30
31 1 2 3 4 5 6
Attention❗ To save your time, in order to download anything on this site, you must be registered 👉 HERE. If you do not have a registration yet, it is better to do it right away. ✌

( • )( • ) ( ͡⚆ ͜ʖ ͡⚆ ) (‿ˠ‿)
SpicyMags.xyz

Featured TV Shows


Alaska Daily S01E05

Posted By: Tavaz
720p (HD) / WEBRip IMDb
Alaska Daily S01E05

Alaska Daily S01E05
WEBRip | MKV | 1280x720 | English | H264 @ 3022 kbps | E-AC-3 @ 640 kbps | 42 min 51 s | 1.10 GiB
Subtitles: English
Genre: Drama


A star journalist moves to Alaska for a fresh start after a career-killing misstep, and finds redemption personally and professionally joining a daily metro newspaper in Anchorage.

6c22e8b95040428fa0527852d5d8385b.mkv (1.1 GB)



General
Unique ID : 156974455151240084035073492315263864217 (0x76182E2C984C8B104E57043388320D99)
Complete name : ./6c22e8b95040428fa0527852d5d8385b.mkv
Format : Matroska
Format version : Version 4 / Version 2
File size : 1.10 GiB
Duration : 42 min 51 s
Overall bit rate : 3 665 kb/s
Writing application : mkvmerge v68.0.0 ('The Curtain') 64-bit
Writing library : libebml v1.4.2 + libmatroska v1.6.4

Video
ID : 1
Format : AVC
Format/Info : Advanced Video Codec
Format profile : High@L3.1
Format settings : CABAC / 4 Ref Frames
Format settings, CABAC : Yes
Format settings, RefFrames : 4 frames
Codec ID : V_MPEG4/ISO/AVC
Duration : 42 min 51 s
Bit rate mode : Constant
Bit rate : 3 023 kb/s
Nominal bit rate : 6 000 kb/s
Width : 1 280 pixels
Height : 720 pixels
Display aspect ratio : 16:9
Frame rate mode : Constant
Frame rate : 23.976 (24000/1001) FPS
Color space : YUV
Chroma subsampling : 4:2:0
Bit depth : 8 bits
Scan type : Progressive
Bits/(Pixel*Frame) : 0.137
Stream size : 927 MiB (82%)
Default : Yes
Forced : No
Color range : Limited
Color primaries : BT.709
Transfer characteristics : BT.709
Matrix coefficients : BT.709

Audio
ID : 2
Format : E-AC-3
Format/Info : Enhanced Audio Coding 3
Format settings, Endianness : Big
Codec ID : A_EAC3
Duration : 42 min 51 s
Bit rate mode : Constant
Bit rate : 640 kb/s
Channel(s) : 6 channels
Channel positions : Front: L C R, Side: L R, LFE
Sampling rate : 48.0 kHz
Frame rate : 187.500 FPS (256 SPF)
Compression mode : Lossy
Stream size : 196 MiB (17%)
Language : English
Service kind : Complete Main
Default : Yes
Forced : No

Text #1
ID : 3
Format : UTF-8
Codec ID : S_TEXT/UTF8
Codec ID/Info : UTF-8 Plain Text
Duration : 42 min 44 s
Bit rate : 86 b/s
Count of elements : 840
Stream size : 27.1 KiB (0%)
Language : English
Default : No
Forced : No

Text #2
ID : 4
Format : UTF-8
Codec ID : S_TEXT/UTF8
Codec ID/Info : UTF-8 Plain Text
Duration : 42 min 44 s
Bit rate : 89 b/s
Count of elements : 879
Stream size : 28.1 KiB (0%)
Title : SDH
Language : English
Default : No
Forced : No





Alaska Daily S01E05


Alaska Daily S01E05


Alaska Daily S01E05


Alaska Daily S01E05


Alaska Daily S01E05

All episodes