Index
# A B C D E F G H I J K L M N O P Q R S T U V W X Y Z
Tags
Language
Tags
February 2024
Su Mo Tu We Th Fr Sa
28 29 30 31 1 2 3
4 5 6 7 8 9 10
11 12 13 14 15 16 17
18 19 20 21 22 23 24
25 26 27 28 29 1 2
Attention❗ To save your time, in order to download anything on this site, you must be registered 👉 HERE. If you do not have a registration yet, it is better to do it right away. ✌

( • )( • ) ( ͡⚆ ͜ʖ ͡⚆ ) (‿ˠ‿)
SpicyMags.xyz

Featured TV Shows


Alaska Daily S01E10

Posted By: Tavaz
1080p (FullHD) / WEBRip IMDb
Alaska Daily S01E10

Alaska Daily S01E10
WEBRip | MKV | 1920x1080 | English / Français | H264 @ 4972 kbps | E-AC-3 @ 256.0 kbps | 42 min 54 s | 1.64 GiB
Subtitles: Français
Genre: Drama, Crime


A star journalist moves to Alaska for a fresh start after a career-killing misstep, and finds redemption personally and professionally joining a daily metro newspaper in Anchorage.

58591c967e504201bdeeb5843b8c6f1c.mkv (1.6 GB)



General
Unique ID : 225138606744827462366816973816388497326 (0xA9601E51DEE9969F36150EED7559AFAE)
Complete name : ./58591c967e504201bdeeb5843b8c6f1c.mkv
Format : Matroska
Format version : Version 4
File size : 1.64 GiB
Duration : 42 min 54 s
Overall bit rate mode : Variable
Overall bit rate : 5 487 kb/s
Writing application : mkvmerge v72.0.0 ('Minuano (Six-eight)') 64-bit
Writing library : libebml v1.4.4 + libmatroska v1.7.1

Video
ID : 1
Format : AVC
Format/Info : Advanced Video Codec
Format profile : High@L4
Format settings : CABAC / 4 Ref Frames
Format settings, CABAC : Yes
Format settings, Reference frames : 4 frames
Codec ID : V_MPEG4/ISO/AVC
Duration : 42 min 54 s
Bit rate mode : Variable
Bit rate : 4 973 kb/s
Maximum bit rate : 12.7 Mb/s
Width : 1 920 pixels
Height : 1 080 pixels
Display aspect ratio : 16:9
Frame rate mode : Constant
Frame rate : 23.976 (24000/1001) FPS
Color space : YUV
Chroma subsampling : 4:2:0
Bit depth : 8 bits
Scan type : Progressive
Bits/(Pixel*Frame) : 0.100
Stream size : 1.49 GiB (91%)
Default : Yes
Forced : No
Color range : Limited
Color primaries : BT.709
Transfer characteristics : BT.709
Matrix coefficients : BT.709

Audio #1
ID : 2
Format : E-AC-3
Format/Info : Enhanced AC-3
Commercial name : Dolby Digital Plus
Codec ID : A_EAC3
Duration : 42 min 54 s
Bit rate mode : Constant
Bit rate : 256 kb/s
Channel(s) : 6 channels
Channel layout : L R C LFE Ls Rs
Sampling rate : 48.0 kHz
Frame rate : 31.250 FPS (1536 SPF)
Compression mode : Lossy
Stream size : 78.6 MiB (5%)
Title : French
Language : French
Service kind : Complete Main
Default : Yes
Forced : No

Audio #2
ID : 3
Format : E-AC-3
Format/Info : Enhanced AC-3
Commercial name : Dolby Digital Plus
Codec ID : A_EAC3
Duration : 42 min 54 s
Bit rate mode : Constant
Bit rate : 256 kb/s
Channel(s) : 6 channels
Channel layout : L R C LFE Ls Rs
Sampling rate : 48.0 kHz
Frame rate : 31.250 FPS (1536 SPF)
Compression mode : Lossy
Stream size : 78.6 MiB (5%)
Title : English
Language : English
Service kind : Complete Main
Default : No
Forced : No

Text #1
ID : 4
Format : UTF-8
Codec ID : S_TEXT/UTF8
Codec ID/Info : UTF-8 Plain Text
Duration : 3 s 212 ms
Bit rate : 169 b/s
Frame rate : 0.311 FPS
Count of elements : 1
Stream size : 68.0 Bytes (0%)
Title : French (Forced)
Language : French
Default : Yes
Forced : Yes

Text #2
ID : 5
Format : UTF-8
Codec ID : S_TEXT/UTF8
Codec ID/Info : UTF-8 Plain Text
Duration : 42 min 46 s
Bit rate : 90 b/s
Frame rate : 0.324 FPS
Count of elements : 831
Stream size : 28.4 KiB (0%)
Title : French
Language : French
Default : No
Forced : No

Menu
00:00:01.043 : en:Recap
00:01:00.394 : en:Scene 1
00:02:57.761 : en:Intro
00:42:17.704 : en:Credits





Alaska Daily S01E10


Alaska Daily S01E10


Alaska Daily S01E10


Alaska Daily S01E10


Alaska Daily S01E10

All episodes