Tags
Language
Tags

Feel... Christy Chung (2001) **[RE-UP]**

Posted By: TestTickles
SD / DVDRip IMDb
Feel... Christy Chung (2001) **[RE-UP]**

Feel… Christy Chung (2001)
DVD rip | AVI: Simple@L1 (720 x 480, 2490 kbps) | Audio: MP3 (320 Kbps) | 38 min | English | 755 mb
Genre: documentary, photo session

Feel… Christy Chung is a photographic video portfolio presentation of Chinese/Vietnamese/Canadian actress Christy Chung. She appeared in films with Jet Li and Jackie Chan but hoped to do more mature roles so she began to do sexier photos to let directors know her capabilities. This is basically a video of a few photo shoots, allowing viewers to see her movement and her pores.

Feel... Christy Chung (2001) **[RE-UP]**


General
Complete name : F:\FLAC\AAA 2017\Vids\Christy Chung - Feel (2001)\Christy Chung - Feel.avi
Format : AVI
Format/Info : Audio Video Interleave
File size : 762 MiB
Duration : 37mn 44s
Overall bit rate : 2 824 Kbps
Writing application : Lavf51.12.1

Video
ID : 0
Format : MPEG-4 Visual
Format profile : Simple@L1
Format settings, BVOP : No
Format settings, QPel : No
Format settings, GMC : No warppoints
Format settings, Matrix : Default (H.263)
Codec ID : DX50
Codec ID/Hint : DivX 5
Duration : 37mn 44s
Bit rate : 2 490 Kbps
Width : 720 pixels
Height : 480 pixels
Display aspect ratio : 3:2
Frame rate : 29.970 fps
Standard : NTSC
Color space : YUV
Chroma subsampling : 4:2:0
Bit depth : 8 bits
Scan type : Progressive
Compression mode : Lossy
Bits/(Pixel*Frame) : 0.240
Stream size : 672 MiB (88%)
Writing library : Lavc51.40.4

Audio
ID : 1
Format : MPEG Audio
Format version : Version 1
Format profile : Layer 3
Mode : Joint stereo
Codec ID : 55
Codec ID/Hint : MP3
Duration : 37mn 44s
Bit rate mode : Constant
Bit rate : 320 Kbps
Channel(s) : 2 channels
Sampling rate : 48.0 KHz
Compression mode : Lossy
Stream size : 86.4 MiB (11%)
Alignment : Aligned on interleaves
Interleave, duration : 24 ms (0.72 video frame)