Tags
Language
Tags
July 2024
Su Mo Tu We Th Fr Sa
30 1 2 3 4 5 6
7 8 9 10 11 12 13
14 15 16 17 18 19 20
21 22 23 24 25 26 27
28 29 30 31 1 2 3

Isekai Shikkaku - 01 mkv

Posted By: Otaku
Isekai Shikkaku - 01 mkv

Isekai Shikkaku - 01 mkv
MKV | 1920x1080 | 日本語 | V_AV1 @ 1145 kbps | AAC @ 127.999 kbps | 23 min 40 s | 228 MiB
Subtitles: Italiano, العربية, Deutsch, Español, Русский, Français, English, Português



[Ironclad] Isekai Shikkaku - 01 [1080p.AV1].mkv (228.2 MB)



General
Unique ID : 243830708340518015583362287251883451260 (0xB7701614D5BC53835B04783D3146637C)
Complete name : ./[Ironclad] Isekai Shikkaku - 01 [1080p.AV1].mkv
Format : Matroska
Format version : Version 4
File size : 228 MiB
Duration : 23 min 40 s
Overall bit rate : 1 348 kb/s
Encoded date : UTC 2024-07-09 17:06:54
Writing application : mkvmerge v85.0 ('Shame For You') 64-bit
Writing library : libebml v1.4.5 + libmatroska v1.7.1
Attachments : AdLibBT.ttf / AdLibRg.ttf / arialbd_1.ttf / arialbi_1.ttf / ariali_1.ttf / ARIALNB.TTF / arial_1.ttf / ariblk_1.ttf / balonxb.ttf / BelweBdBTBold.ttf / BRITANIC.TTF / CHILLER.TTF / comicbd_0.ttf / comici_0.ttf / comicz_0.ttf / comic_0.ttf / consolab_0.ttf / COOPBL.ttf / courbd_1.ttf / cour_1.ttf / DejaVuSans-Bold.ttf / DejaVuSansCondensed-Bold.ttf / domcasn.ttf / ebrimabd_0.ttf / Eraser.ttf / FirstGrader.ttf / Freeh471.ttf / FRHND471.TTF / Garamond Bold font.ttf / georgiab_0.ttf / georgiai_0.ttf / georgiaz_0.ttf / georgia_0.ttf / impact_0.ttf / Impress.ttf / JAPAB_.TTF / Rubik-Bold.ttf / Rubik-Light.ttf / Rubik-Regular.ttf / segoeprb_0.ttf / SQR721KN.TTF / SqueakyChalkSound.ttf / STAC222N.TTF / Stacc222.ttf / staccato 555 bt.ttf / Swis721_BT_Bold.ttf / tahomabd_0.ttf / tahoma_1.ttf / timesbd_1.ttf / timesbi_1.ttf / timesi_1.ttf / times_3.ttf / Tonic Regular.ttf / trebucbd_0.ttf / trebucbi_0.ttf / trebucit_0.ttf / trebuc_0.ttf / VAGRoundedBT.ttf / verdanab_0.ttf / verdanaz_0.ttf / verdana_0.ttf / AdobeArabic-Bold.otf / AdobeArabic-BoldItalic.otf / AdobeArabic-Italic.otf / AdobeArabic-Regular.otf
Encoder settings : svt-av1-psy v2.1.0-A: "–crf 25.0-55.0 –preset 4 –tune 3 –sharpness 2 –variance-boost-strength 4 –variance-octile 4 –frame-luma-bias 100 –keyint 0 –enable-dlf 2 –enable-cdef 0 –enable-restoration 0 –enable-tf 0"
Film grain synthesis settings : grav1synth: "diff"
Target SSIMULACRA 2 : Mean: 80
Vapoursynth filters : Denoise with vs-nlm-cuda: "d=2, a=[3,2,2], h=0.6, channels=YUV", dering with vs-dehalo: "planes=[0,1,2]", deband with soifunc, dither with vs-tools

Video
ID : 1
Format : AV1
Format/Info : AOMedia Video 1
Format profile : Main@L4.0
Codec ID : V_AV1
Duration : 23 min 40 s
Bit rate : 1 146 kb/s
Width : 1 920 pixels
Height : 1 080 pixels
Display aspect ratio : 16:9
Frame rate mode : Constant
Frame rate : 23.976 (24000/1001) FPS
Color space : YUV
Chroma subsampling : 4:2:0
Bit depth : 10 bits
Bits/(Pixel*Frame) : 0.023
Stream size : 194 MiB (85%)
Title : Erai-raws
Default : Yes
Forced : No
Color range : Limited
Color primaries : BT.709
Transfer characteristics : BT.709
Matrix coefficients : BT.709

Audio
ID : 2
Format : AAC LC
Format/Info : Advanced Audio Codec Low Complexity
Codec ID : A_AAC-2
Duration : 23 min 40 s
Bit rate : 128 kb/s
Channel(s) : 2 channels
Channel layout : L R
Sampling rate : 44.1 kHz
Frame rate : 43.066 FPS (1024 SPF)
Compression mode : Lossy
Stream size : 21.7 MiB (9%)
Language : Japanese
Default : Yes
Forced : No

Text #1
ID : 3
Format : ASS
Muxing mode : zlib
Codec ID : S_TEXT/ASS
Codec ID/Info : Advanced Sub Station Alpha
Duration : 22 min 44 s
Bit rate : 127 b/s
Frame rate : 0.215 FPS
Count of elements : 293
Compression mode : Lossless
Stream size : 21.2 KiB (0%)
Title : English
Language : English
Default : Yes
Forced : No

Text #2
ID : 4
Format : ASS
Muxing mode : zlib
Codec ID : S_TEXT/ASS
Codec ID/Info : Advanced Sub Station Alpha
Duration : 23 min 15 s
Bit rate : 137 b/s
Frame rate : 0.214 FPS
Count of elements : 299
Compression mode : Lossless
Stream size : 23.4 KiB (0%)
Title : Spanish(Latin_America)
Language : Spanish
Default : No
Forced : No

Text #3
ID : 5
Format : ASS
Muxing mode : zlib
Codec ID : S_TEXT/ASS
Codec ID/Info : Advanced Sub Station Alpha
Duration : 23 min 15 s
Bit rate : 137 b/s
Frame rate : 0.214 FPS
Count of elements : 299
Compression mode : Lossless
Stream size : 23.5 KiB (0%)
Title : Spanish
Language : Spanish
Default : No
Forced : No

Text #4
ID : 6
Format : ASS
Muxing mode : zlib
Codec ID : S_TEXT/ASS
Codec ID/Info : Advanced Sub Station Alpha
Duration : 22 min 44 s
Bit rate : 145 b/s
Frame rate : 0.215 FPS
Count of elements : 293
Compression mode : Lossless
Stream size : 24.2 KiB (0%)
Title : Arabic
Language : Arabic
Default : No
Forced : No

Text #5
ID : 7
Format : ASS
Muxing mode : zlib
Codec ID : S_TEXT/ASS
Codec ID/Info : Advanced Sub Station Alpha
Duration : 23 min 9 s
Bit rate : 146 b/s
Frame rate : 0.225 FPS
Count of elements : 312
Compression mode : Lossless
Stream size : 24.8 KiB (0%)
Title : French
Language : French
Default : No
Forced : No

Text #6
ID : 8
Format : ASS
Muxing mode : zlib
Codec ID : S_TEXT/ASS
Codec ID/Info : Advanced Sub Station Alpha
Duration : 22 min 44 s
Bit rate : 152 b/s
Frame rate : 0.237 FPS
Count of elements : 324
Compression mode : Lossless
Stream size : 25.5 KiB (0%)
Title : German
Language : German
Default : No
Forced : No

Text #7
ID : 9
Format : ASS
Muxing mode : zlib
Codec ID : S_TEXT/ASS
Codec ID/Info : Advanced Sub Station Alpha
Duration : 22 min 44 s
Bit rate : 188 b/s
Frame rate : 0.246 FPS
Count of elements : 336
Compression mode : Lossless
Stream size : 31.5 KiB (0%)
Title : Italian
Language : Italian
Default : No
Forced : No

Text #8
ID : 10
Format : ASS
Muxing mode : zlib
Codec ID : S_TEXT/ASS
Codec ID/Info : Advanced Sub Station Alpha
Duration : 22 min 44 s
Bit rate : 138 b/s
Frame rate : 0.216 FPS
Count of elements : 295
Compression mode : Lossless
Stream size : 23.1 KiB (0%)
Title : Portuguese(Brazil)
Language : Portuguese
Default : No
Forced : No

Text #9
ID : 11
Format : ASS
Muxing mode : zlib
Codec ID : S_TEXT/ASS
Codec ID/Info : Advanced Sub Station Alpha
Duration : 22 min 44 s
Bit rate : 241 b/s
Frame rate : 0.245 FPS
Count of elements : 334
Compression mode : Lossless
Stream size : 40.3 KiB (0%)
Title : Russian
Language : Russian
Default : No
Forced : No





Isekai Shikkaku - 01 mkv


Isekai Shikkaku - 01 mkv


Isekai Shikkaku - 01 mkv


Isekai Shikkaku - 01 mkv