Index
# A B C D E F G H I J K L M N O P Q R S T U V W Y Z
Tags
Language
Tags
November 2022
Su Mo Tu We Th Fr Sa
30 31 1 2 3 4 5
6 7 8 9 10 11 12
13 14 15 16 17 18 19
20 21 22 23 24 25 26
27 28 29 30 1 2 3

Featured TV Shows


See - Reich der Blinden S01E02

Posted By: Tavaz
1080p (FullHD) / WEBRip IMDb
See - Reich der Blinden S01E02

See - Reich der Blinden S01E02
WEB-DL | MKV | 1920x1080 | English / Deutsch | H264 @ 6866 kbps | AAC @ 125 kbps | 56 min 47 s | 2.86 GiB
Subtitles: English, Deutsch
Genre: Drama


Weit in einer dystopischen Zukunft hat die Menschheit ihr Augenlicht verloren - und muss als Gesellschaft neue Wege finden, um zu interagieren, zu bauen, zu jagen und zu überleben. All das wird herausgefordert, als eine Gruppe von Zwillingen mit Sehkraft geboren wird.

Vigil.Tod.auf.hoher.See.S01E02.German.AAC.Dubbed.DL.1080p.WEB.h264-NoSpaceLeft.mkv (2.9 GB)



General
Unique ID : 323464172470165818187557740983676681183 (0xF358EEFE6C0DF3D2CBD447A28F05BBDF)
Complete name : ./Vigil.Tod.auf.hoher.See.S01E02.German.AAC.Dubbed.DL.1080p.WEB.h264-NoSpaceLeft.mkv
Format : Matroska
Format version : Version 4 / Version 2
File size : 2.86 GiB
Duration : 56 min 47 s
Overall bit rate : 7 219 kb/s
Encoded date : UTC 2022-01-11 22:10:42
Writing application : mkvmerge v64.0.0 ('Willows') 64-bit
Writing library : libebml v1.4.2 + libmatroska v1.6.4

Video
ID : 1
Format : AVC
Format/Info : Advanced Video Codec
Format profile : High@L4
Format settings : CABAC / 4 Ref Frames
Format settings, CABAC : Yes
Format settings, RefFrames : 4 frames
Codec ID : V_MPEG4/ISO/AVC
Duration : 56 min 47 s
Bit rate mode : Constant
Bit rate : 6 866 kb/s
Nominal bit rate : 10 000 kb/s
Width : 1 920 pixels
Height : 1 080 pixels
Display aspect ratio : 16:9
Frame rate mode : Constant
Frame rate : 25.000 FPS
Color space : YUV
Chroma subsampling : 4:2:0
Bit depth : 8 bits
Scan type : Progressive
Bits/(Pixel*Frame) : 0.132
Stream size : 2.72 GiB (95%)
Default : Yes
Forced : No
Color range : Limited
Color primaries : BT.709
Transfer characteristics : BT.709
Matrix coefficients : BT.709

Audio #1
ID : 2
Format : AAC
Format/Info : Advanced Audio Codec
Format profile : LC
Codec ID : A_AAC-2
Duration : 56 min 40 s
Bit rate : 125 kb/s
Channel(s) : 2 channels
Channel positions : Front: L R
Sampling rate : 48.0 kHz
Frame rate : 46.875 FPS (1024 SPF)
Compression mode : Lossy
Delay relative to video : 18 ms
Stream size : 50.8 MiB (2%)
Title : Deutsch AAC 2.0
Language : German
Default : Yes
Forced : No

Audio #2
ID : 3
Format : E-AC-3
Format/Info : Enhanced Audio Coding 3
Format settings, Endianness : Big
Codec ID : A_EAC3
Duration : 56 min 47 s
Bit rate mode : Constant
Bit rate : 224 kb/s
Channel(s) : 2 channels
Channel positions : Front: L R
Sampling rate : 48.0 kHz
Frame rate : 187.500 FPS (256 SPF)
Compression mode : Lossy
Stream size : 91.0 MiB (3%)
Title : Englisch EAC3 2.0
Language : English
Service kind : Complete Main
Default : No
Forced : No

Text #1
ID : 4
Format : UTF-8
Codec ID : S_TEXT/UTF8
Codec ID/Info : UTF-8 Plain Text
Duration : 33 min 16 s
Bit rate : 0 b/s
Count of elements : 2
Stream size : 41.0 Bytes (0%)
Title : GER Forced
Language : German
Default : Yes
Forced : Yes

Text #2
ID : 5
Format : UTF-8
Codec ID : S_TEXT/UTF8
Codec ID/Info : UTF-8 Plain Text
Duration : 55 min 50 s
Bit rate : 186 b/s
Count of elements : 879
Stream size : 76.4 KiB (0%)
Title : ENG Full
Language : English
Default : No
Forced : No





See - Reich der Blinden S01E02


See - Reich der Blinden S01E02


See - Reich der Blinden S01E02


See - Reich der Blinden S01E02


See - Reich der Blinden S01E02

All episodes