Index
# A B C D E F G H I J K L M N O P Q R S T U V W Y Z
Tags
Language
Tags
February 2023
Su Mo Tu We Th Fr Sa
29 30 31 1 2 3 4
5 6 7 8 9 10 11
12 13 14 15 16 17 18
19 20 21 22 23 24 25
26 27 28 1 2 3 4

Featured TV Shows


The Handmaid's Tale S05E07

Posted By: Tavaz
1080p (FullHD) / WEBRip IMDb
The Handmaid's Tale S05E07

The Handmaid's Tale S05E07
WEBRip | MKV | 1920x960 | English | H264 @ 8418 kbps | E-AC-3 @ 640 kbps | 45 min 23 s | 2.87 GiB
Subtitles: Nederlands, Français, English
Genre: Drama


Set in a dystopian future, a woman is forced to live as a concubine under a fundamentalist theocratic dictatorship. A TV adaptation of Margaret Atwood's novel.

f2f0226838034af2beb789b4d10bf7ef.mkv (2.9 GB)



General
Unique ID : 117131881161010030332862357008206203037 (0x581EC79CD8BCB8256623B678E623089D)
Complete name : ./f2f0226838034af2beb789b4d10bf7ef.mkv
Format : Matroska
Format version : Version 4 / Version 2
File size : 2.87 GiB
Duration : 45 min 23 s
Overall bit rate : 9 061 kb/s
Writing application : mkvmerge v68.0.0 ('The Curtain') 64-bit
Writing library : libebml v1.4.2 + libmatroska v1.6.4

Video
ID : 1
Format : AVC
Format/Info : Advanced Video Codec
Format profile : High@L4
Format settings : CABAC / 4 Ref Frames
Format settings, CABAC : Yes
Format settings, RefFrames : 4 frames
Codec ID : V_MPEG4/ISO/AVC
Duration : 45 min 23 s
Bit rate mode : Constant
Bit rate : 8 418 kb/s
Nominal bit rate : 10 000 kb/s
Width : 1 920 pixels
Height : 960 pixels
Display aspect ratio : 2.000
Frame rate mode : Constant
Frame rate : 23.976 (24000/1001) FPS
Color space : YUV
Chroma subsampling : 4:2:0
Bit depth : 8 bits
Scan type : Progressive
Bits/(Pixel*Frame) : 0.190
Stream size : 2.67 GiB (93%)
Default : Yes
Forced : No
Color range : Limited
Color primaries : BT.709
Transfer characteristics : BT.709
Matrix coefficients : BT.709

Audio
ID : 2
Format : E-AC-3
Format/Info : Enhanced Audio Coding 3
Format settings, Endianness : Big
Codec ID : A_EAC3
Duration : 45 min 23 s
Bit rate mode : Constant
Bit rate : 640 kb/s
Channel(s) : 6 channels
Channel positions : Front: L C R, Side: L R, LFE
Sampling rate : 48.0 kHz
Frame rate : 187.500 FPS (256 SPF)
Compression mode : Lossy
Stream size : 208 MiB (7%)
Language : English
Service kind : Complete Main
Default : Yes
Forced : No

Text #1
ID : 3
Format : UTF-8
Codec ID : S_TEXT/UTF8
Codec ID/Info : UTF-8 Plain Text
Duration : 43 min 45 s
Bit rate : 44 b/s
Count of elements : 522
Stream size : 14.4 KiB (0%)
Language : English
Default : No
Forced : No

Text #2
ID : 4
Format : UTF-8
Codec ID : S_TEXT/UTF8
Codec ID/Info : UTF-8 Plain Text
Duration : 43 min 45 s
Bit rate : 50 b/s
Count of elements : 577
Stream size : 16.3 KiB (0%)
Title : SDH
Language : English
Default : No
Forced : No

Text #3
ID : 5
Format : UTF-8
Codec ID : S_TEXT/UTF8
Codec ID/Info : UTF-8 Plain Text
Duration : 44 min 58 s
Bit rate : 40 b/s
Count of elements : 530
Stream size : 13.4 KiB (0%)
Language : French
Default : No
Forced : No

Text #4
ID : 6
Format : UTF-8
Codec ID : S_TEXT/UTF8
Codec ID/Info : UTF-8 Plain Text
Duration : 44 min 56 s
Bit rate : 39 b/s
Count of elements : 491
Stream size : 13.1 KiB (0%)
Language : Dutch
Default : No
Forced : No





The Handmaid's Tale S05E07


The Handmaid's Tale S05E07


The Handmaid's Tale S05E07


The Handmaid's Tale S05E07


The Handmaid's Tale S05E07

All episodes