Index
# A B C D E F G H I J K L M N O P Q R S T U V W X Y Z
Tags
Language
Tags
February 2024
Su Mo Tu We Th Fr Sa
28 29 30 31 1 2 3
4 5 6 7 8 9 10
11 12 13 14 15 16 17
18 19 20 21 22 23 24
25 26 27 28 29 1 2
Attention❗ To save your time, in order to download anything on this site, you must be registered 👉 HERE. If you do not have a registration yet, it is better to do it right away. ✌

( • )( • ) ( ͡⚆ ͜ʖ ͡⚆ ) (‿ˠ‿)
SpicyMags.xyz

Featured TV Shows


Rotten S01E03

Posted By: Tavaz
720p (HD) / WEBRip IMDb
Rotten S01E03

Rotten S01E03
WEBRip | MKV | 1280x720 | 日本語 | H264 @ 4000 kbps | AAC @ 128.001 kbps | 23 min 40 s | 699 MiB
Subtitles: Español, Français, Português, Русский, Deutsch, English, Italiano, العربية
Genre: Documentary


This docuseries travels deep into the heart of the food supply chain to reveal unsavory truths and expose hidden forces that shape what we eat.

be0e661e50f04156be6fdc4afb8dc14b.mkv (699.1 MB)



General
Unique ID : 40930869040130733890088064075934845218 (0x1ECAFFA6708F18AAB7ABE5211F59C922)
Complete name : ./be0e661e50f04156be6fdc4afb8dc14b.mkv
Format : Matroska
Format version : Version 4
File size : 699 MiB
Duration : 23 min 40 s
Overall bit rate : 4 129 kb/s
Encoded date : UTC 2023-11-18 13:45:57
Writing application : mkvmerge v80.0 ('Roundabout') 64-bit
Writing library : libebml v1.4.4 + libmatroska v1.7.1

Video
ID : 1
Format : AVC
Format/Info : Advanced Video Codec
Format profile : High@L4
Format settings : CABAC / 6 Ref Frames
Format settings, CABAC : Yes
Format settings, Reference frames : 6 frames
Codec ID : V_MPEG4/ISO/AVC
Duration : 23 min 37 s
Bit rate : 4 000 kb/s
Width : 1 280 pixels
Height : 720 pixels
Display aspect ratio : 16:9
Frame rate mode : Constant
Frame rate : 23.976 (24000/1001) FPS
Color space : YUV
Chroma subsampling : 4:2:0
Bit depth : 8 bits
Scan type : Progressive
Bits/(Pixel*Frame) : 0.181
Stream size : 677 MiB (97%)
Writing library : x264 core 142
Encoding settings : cabac=1 / ref=6 / deblock=1:1:1 / analyse=0x3:0x113 / me=umh / subme=8 / psy=1 / psy_rd=0.40:0.00 / mixed_ref=1 / me_range=16 / chroma_me=1 / trellis=1 / 8x8dct=1 / cqm=0 / deadzone=21,11 / fast_pskip=1 / chroma_qp_offset=-2 / threads=10 / lookahead_threads=1 / sliced_threads=0 / nr=0 / decimate=1 / interlaced=0 / bluray_compat=0 / constrained_intra=0 / bframes=0 / weightp=2 / keyint=96 / keyint_min=48 / scenecut=40 / intra_refresh=0 / rc_lookahead=48 / rc=2pass / mbtree=1 / bitrate=4000 / ratetol=1.0 / qcomp=0.60 / qpmin=0 / qpmax=69 / qpstep=4 / cplxblur=20.0 / qblur=0.5 / vbv_maxrate=6000 / vbv_bufsize=9000 / nal_hrd=none / filler=0 / ip_ratio=1.40 / aq=1:0.60
Default : Yes
Forced : No

Audio
ID : 2
Format : AAC LC
Format/Info : Advanced Audio Codec Low Complexity
Codec ID : A_AAC-2
Duration : 23 min 37 s
Bit rate : 128 kb/s
Channel(s) : 2 channels
Channel layout : L R
Sampling rate : 44.1 kHz
Frame rate : 43.066 FPS (1024 SPF)
Compression mode : Lossy
Stream size : 21.6 MiB (3%)
Language : Japanese
Default : Yes
Forced : No

Text #1
ID : 3
Format : ASS
Codec ID : S_TEXT/ASS
Codec ID/Info : Advanced Sub Station Alpha
Duration : 22 min 17 s
Bit rate : 216 b/s
Frame rate : 0.304 FPS
Count of elements : 407
Compression mode : Lossless
Stream size : 35.3 KiB (0%)
Title : Arabic (Saudi Arabia)
Language : Arabic
Default : No
Forced : No

Text #2
ID : 4
Format : ASS
Codec ID : S_TEXT/ASS
Codec ID/Info : Advanced Sub Station Alpha
Duration : 23 min 39 s
Bit rate : 187 b/s
Frame rate : 0.304 FPS
Count of elements : 431
Compression mode : Lossless
Stream size : 32.4 KiB (0%)
Title : German (Germany)
Language : German
Default : No
Forced : No

Text #3
ID : 5
Format : ASS
Codec ID : S_TEXT/ASS
Codec ID/Info : Advanced Sub Station Alpha
Duration : 23 min 39 s
Bit rate : 193 b/s
Frame rate : 0.337 FPS
Count of elements : 478
Compression mode : Lossless
Stream size : 33.5 KiB (0%)
Title : English[Forced]
Language : English
Default : Yes
Forced : Yes

Text #4
ID : 6
Format : ASS
Codec ID : S_TEXT/ASS
Codec ID/Info : Advanced Sub Station Alpha
Duration : 22 min 17 s
Bit rate : 158 b/s
Frame rate : 0.268 FPS
Count of elements : 358
Compression mode : Lossless
Stream size : 25.9 KiB (0%)
Title : Spanish (Latin America)
Language : Spanish
Default : No
Forced : No

Text #5
ID : 7
Format : ASS
Codec ID : S_TEXT/ASS
Codec ID/Info : Advanced Sub Station Alpha
Duration : 22 min 17 s
Bit rate : 159 b/s
Frame rate : 0.268 FPS
Count of elements : 358
Compression mode : Lossless
Stream size : 26.0 KiB (0%)
Title : Spanish (Spain)
Language : Spanish
Default : No
Forced : No

Text #6
ID : 8
Format : ASS
Codec ID : S_TEXT/ASS
Codec ID/Info : Advanced Sub Station Alpha
Duration : 22 min 17 s
Bit rate : 147 b/s
Frame rate : 0.261 FPS
Count of elements : 349
Compression mode : Lossless
Stream size : 24.1 KiB (0%)
Title : French (France)
Language : French
Default : No
Forced : No

Text #7
ID : 9
Format : ASS
Codec ID : S_TEXT/ASS
Codec ID/Info : Advanced Sub Station Alpha
Duration : 22 min 17 s
Bit rate : 195 b/s
Frame rate : 0.303 FPS
Count of elements : 405
Compression mode : Lossless
Stream size : 31.9 KiB (0%)
Title : Italian (Italy)
Language : Italian
Default : No
Forced : No

Text #8
ID : 10
Format : ASS
Codec ID : S_TEXT/ASS
Codec ID/Info : Advanced Sub Station Alpha
Duration : 22 min 17 s
Bit rate : 179 b/s
Frame rate : 0.302 FPS
Count of elements : 404
Compression mode : Lossless
Stream size : 29.3 KiB (0%)
Title : Portuguese (Brazil)
Language : Portuguese
Default : No
Forced : No

Text #9
ID : 11
Format : ASS
Codec ID : S_TEXT/ASS
Codec ID/Info : Advanced Sub Station Alpha
Duration : 23 min 39 s
Bit rate : 185 b/s
Frame rate : 0.296 FPS
Count of elements : 420
Compression mode : Lossless
Stream size : 32.1 KiB (0%)
Title : Russian (Russia)
Language : Russian
Default : No
Forced : No





Rotten S01E03


Rotten S01E03


Rotten S01E03


Rotten S01E03


Rotten S01E03

All episodes