Index
# A B C D E F G H I J K L M N O P Q R S T U V W Y Z
Tags
Language
Tags
November 2022
Su Mo Tu We Th Fr Sa
30 31 1 2 3 4 5
6 7 8 9 10 11 12
13 14 15 16 17 18 19
20 21 22 23 24 25 26
27 28 29 30 1 2 3

Featured TV Shows


See S03E05

Posted By: Tavaz
1080p (FullHD) / WEBRip IMDb
See S03E05

See S03E05
WEBRip | MKV | 1920x910 | Français / English | H264 @ 9919 kbps | E-AC-3 @ 768 kbps | 42 min 48 s | 3.43 GiB
Subtitles: Français, English
Genre: Drama


A virus has decimated humankind. Those who survived emerged blind. Centuries later when twins are born with the mythic ability to see, their father must protect his tribe against a threatened queen.

9da48404dc894d918e34c35929939a06.mkv (3.4 GB)



General
Unique ID : 164518281067655846461959064242858570058 (0x7BC511820E12BD2ACF2DB3CF0331314A)
Complete name : ./9da48404dc894d918e34c35929939a06.mkv
Format : Matroska
Format version : Version 4 / Version 2
File size : 3.43 GiB
Duration : 42 min 48 s
Overall bit rate : 11.5 Mb/s
Encoded date : UTC 2022-09-23 01:10:44
Writing application : mkvmerge v70.0.0 ('Caught A Lite Sneeze') 64-bit
Writing library : libebml v1.4.2 + libmatroska v1.6.4

Video
ID : 1
Format : AVC
Format/Info : Advanced Video Codec
Format profile : High@L4
Format settings : CABAC / 4 Ref Frames
Format settings, CABAC : Yes
Format settings, RefFrames : 4 frames
Codec ID : V_MPEG4/ISO/AVC
Duration : 42 min 48 s
Bit rate : 9 919 kb/s
Width : 1 920 pixels
Height : 910 pixels
Display aspect ratio : 2.110
Frame rate mode : Constant
Frame rate : 23.976 (24000/1001) FPS
Color space : YUV
Chroma subsampling : 4:2:0
Bit depth : 8 bits
Scan type : Progressive
Bits/(Pixel*Frame) : 0.237
Stream size : 2.97 GiB (87%)
Default : Yes
Forced : No
Color range : Limited
Color primaries : BT.709
Transfer characteristics : BT.709
Matrix coefficients : BT.709

Audio #1
ID : 2
Format : E-AC-3
Format/Info : Enhanced Audio Coding 3
Format profile : E-AC-3+Atmos / E-AC-3
Format settings, Endianness : Big
Codec ID : A_EAC3
Duration : 42 min 48 s
Bit rate mode : Constant
Bit rate : 768 kb/s
Channel(s) : 15 objects / 6 channels
Channel positions : 15 objects / Front: L C R, Side: L R, LFE
Sampling rate : 48.0 kHz
Frame rate : 187.500 FPS (256 SPF)
Compression mode : Lossy
Stream size : 235 MiB (7%)
Title : French
Language : French
Service kind : Complete Main
Default : Yes
Forced : No

Audio #2
ID : 3
Format : E-AC-3
Format/Info : Enhanced Audio Coding 3
Format profile : E-AC-3+Atmos / E-AC-3
Format settings, Endianness : Big
Codec ID : A_EAC3
Duration : 42 min 48 s
Bit rate mode : Constant
Bit rate : 768 kb/s
Channel(s) : 15 objects / 6 channels
Channel positions : 15 objects / Front: L C R, Side: L R, LFE
Sampling rate : 48.0 kHz
Frame rate : 187.500 FPS (256 SPF)
Compression mode : Lossy
Stream size : 235 MiB (7%)
Title : English
Language : English
Service kind : Complete Main
Default : No
Forced : No

Text #1
ID : 4
Format : UTF-8
Codec ID : S_TEXT/UTF8
Codec ID/Info : UTF-8 Plain Text
Duration : 333 ms
Bit rate : 72 b/s
Count of elements : 1
Stream size : 3.00 Bytes (0%)
Title : French (Forced)
Language : French
Default : Yes
Forced : Yes

Text #2
ID : 5
Format : UTF-8
Codec ID : S_TEXT/UTF8
Codec ID/Info : UTF-8 Plain Text
Duration : 41 min 53 s
Bit rate : 41 b/s
Count of elements : 445
Stream size : 12.6 KiB (0%)
Title : French
Language : French
Default : No
Forced : No

Text #3
ID : 6
Format : UTF-8
Codec ID : S_TEXT/UTF8
Codec ID/Info : UTF-8 Plain Text
Duration : 41 min 53 s
Bit rate : 47 b/s
Count of elements : 519
Stream size : 14.5 KiB (0%)
Title : French (SDH)
Language : French
Default : No
Forced : No

Text #4
ID : 7
Format : UTF-8
Codec ID : S_TEXT/UTF8
Codec ID/Info : UTF-8 Plain Text
Duration : 41 min 26 s
Bit rate : 41 b/s
Count of elements : 407
Stream size : 12.5 KiB (0%)
Title : English
Language : English
Default : No
Forced : No

Text #5
ID : 8
Format : UTF-8
Codec ID : S_TEXT/UTF8
Codec ID/Info : UTF-8 Plain Text
Duration : 41 min 26 s
Bit rate : 51 b/s
Count of elements : 537
Stream size : 15.5 KiB (0%)
Title : English (SDH)
Language : English
Default : No
Forced : No





See S03E05


See S03E05


See S03E05


See S03E05


See S03E05

All episodes