Index
# A B C D E F G H I J K L M N O P Q R S T U V W Y Z
Tags
Language
Tags
November 2022
Su Mo Tu We Th Fr Sa
30 31 1 2 3 4 5
6 7 8 9 10 11 12
13 14 15 16 17 18 19
20 21 22 23 24 25 26
27 28 29 30 1 2 3

Featured TV Shows


See S03E01

Posted By: Tavaz
1080p (FullHD) / WEBRip IMDb
See S03E01

See S03E01
WEBRip | MKV | 1920x910 | English | H264 @ 9915 kbps | E-AC-3 @ 768 kbps | 58 min 1 s | 4.33 GiB
Subtitles: ภาษาไทย, Français, tiếng Việt, Español, Eesti keel, Slovenčina, 日本語, עברית, 한국어, Русский, Ελληνικά, Nederlands, Dansk, Bahasa Indonesia, Български, Українська, 中文, Suomi, Polski, Magyar, Türkçe, English, हिन्दी, العربية, Slovenščina, Deutsch, Svenska, Italiano, Português, Čeština
Genre: Drama


A virus has decimated humankind. Those who survived emerged blind. Centuries later when twins are born with the mythic ability to see, their father must protect his tribe against a threatened queen.

fc69052c3ce341dc88002aa0dc72cc35.mkv (4.3 GB)



General
Unique ID : 8924727058445870714449131475260285793 (0x6B6D7044241D60E9C663DE715FE2361)
Complete name : ./fc69052c3ce341dc88002aa0dc72cc35.mkv
Format : Matroska
Format version : Version 4 / Version 2
File size : 4.33 GiB
Duration : 58 min 1 s
Overall bit rate : 10.7 Mb/s
Writing application : mkvmerge v67.0.0 ('Under Stars') 64-bit
Writing library : libebml v1.4.2 + libmatroska v1.6.4

Video
ID : 1
Format : AVC
Format/Info : Advanced Video Codec
Format profile : High@L4
Format settings : CABAC / 4 Ref Frames
Format settings, CABAC : Yes
Format settings, RefFrames : 4 frames
Codec ID : V_MPEG4/ISO/AVC
Duration : 58 min 1 s
Bit rate : 9 915 kb/s
Width : 1 920 pixels
Height : 910 pixels
Display aspect ratio : 2.110
Frame rate mode : Constant
Frame rate : 23.976 (24000/1001) FPS
Color space : YUV
Chroma subsampling : 4:2:0
Bit depth : 8 bits
Scan type : Progressive
Bits/(Pixel*Frame) : 0.237
Stream size : 4.02 GiB (93%)
Language : English
Default : Yes
Forced : No
Color range : Limited
Color primaries : BT.709
Transfer characteristics : BT.709
Matrix coefficients : BT.709

Audio
ID : 2
Format : E-AC-3
Format/Info : Enhanced Audio Coding 3
Format profile : E-AC-3+Atmos / E-AC-3
Format settings, Endianness : Big
Codec ID : A_EAC3
Duration : 58 min 1 s
Bit rate mode : Constant
Bit rate : 768 kb/s
Channel(s) : 15 objects / 6 channels
Channel positions : 15 objects / Front: L C R, Side: L R, LFE
Sampling rate : 48.0 kHz
Frame rate : 187.500 FPS (256 SPF)
Compression mode : Lossy
Stream size : 319 MiB (7%)
Language : English
Service kind : Complete Main
Default : Yes
Forced : No

Text #1
ID : 3
Format : UTF-8
Codec ID : S_TEXT/UTF8
Codec ID/Info : UTF-8 Plain Text
Duration : 56 min 7 s
Bit rate : 52 b/s
Count of elements : 657
Stream size : 21.7 KiB (0%)
Title : English
Language : English
Default : No
Forced : No

Text #2
ID : 4
Format : UTF-8
Codec ID : S_TEXT/UTF8
Codec ID/Info : UTF-8 Plain Text
Duration : 56 min 20 s
Bit rate : 61 b/s
Count of elements : 791
Stream size : 25.4 KiB (0%)
Title : English (SDH)
Language : English
Default : No
Forced : No

Text #3
ID : 5
Format : UTF-8
Codec ID : S_TEXT/UTF8
Codec ID/Info : UTF-8 Plain Text
Duration : 56 min 20 s
Bit rate : 76 b/s
Count of elements : 789
Stream size : 31.7 KiB (0%)
Title : English (CC)
Language : English
Default : No
Forced : No

Text #4
ID : 6
Format : UTF-8
Codec ID : S_TEXT/UTF8
Codec ID/Info : UTF-8 Plain Text
Duration : 57 min 45 s
Bit rate : 69 b/s
Count of elements : 659
Stream size : 29.3 KiB (0%)
Title : العربية
Language : Arabic
Default : No
Forced : No

Text #5
ID : 7
Format : UTF-8
Codec ID : S_TEXT/UTF8
Codec ID/Info : UTF-8 Plain Text
Duration : 57 min 45 s
Bit rate : 76 b/s
Count of elements : 630
Stream size : 32.5 KiB (0%)
Title : български
Language : Bulgarian
Default : No
Forced : No

Text #6
ID : 8
Format : UTF-8
Codec ID : S_TEXT/UTF8
Codec ID/Info : UTF-8 Plain Text
Duration : 57 min 45 s
Bit rate : 49 b/s
Count of elements : 611
Stream size : 20.8 KiB (0%)
Title : Čeština
Language : Czech
Default : No
Forced : No

Text #7
ID : 9
Format : UTF-8
Codec ID : S_TEXT/UTF8
Codec ID/Info : UTF-8 Plain Text
Duration : 57 min 45 s
Bit rate : 51 b/s
Count of elements : 611
Stream size : 21.9 KiB (0%)
Title : dansk
Language : Danish
Default : No
Forced : No

Text #8
ID : 10
Format : UTF-8
Codec ID : S_TEXT/UTF8
Codec ID/Info : UTF-8 Plain Text
Duration : 57 min 41 s
Bit rate : 54 b/s
Count of elements : 638
Stream size : 23.0 KiB (0%)
Title : Deutsch
Language : German
Default : No
Forced : No

Text #9
ID : 11
Format : UTF-8
Codec ID : S_TEXT/UTF8
Codec ID/Info : UTF-8 Plain Text
Duration : 57 min 45 s
Bit rate : 91 b/s
Count of elements : 631
Stream size : 38.5 KiB (0%)
Title : Ελληνικά
Language : Greek
Default : No
Forced : No

Text #10
ID : 12
Format : UTF-8
Codec ID : S_TEXT/UTF8
Codec ID/Info : UTF-8 Plain Text
Duration : 57 min 45 s
Bit rate : 49 b/s
Count of elements : 660
Stream size : 21.1 KiB (0%)
Title : Español (España)
Language : Spanish
Default : No
Forced : No

Text #11
ID : 13
Format : UTF-8
Codec ID : S_TEXT/UTF8
Codec ID/Info : UTF-8 Plain Text
Duration : 57 min 45 s
Bit rate : 53 b/s
Count of elements : 670
Stream size : 22.6 KiB (0%)
Title : Español (Latinoamérica)
Language : Spanish
Default : No
Forced : No

Text #12
ID : 14
Format : UTF-8
Codec ID : S_TEXT/UTF8
Codec ID/Info : UTF-8 Plain Text
Duration : 57 min 45 s
Bit rate : 47 b/s
Count of elements : 612
Stream size : 20.1 KiB (0%)
Title : eesti
Language : Estonian
Default : No
Forced : No

Text #13
ID : 15
Format : UTF-8
Codec ID : S_TEXT/UTF8
Codec ID/Info : UTF-8 Plain Text
Duration : 57 min 45 s
Bit rate : 50 b/s
Count of elements : 630
Stream size : 21.3 KiB (0%)
Title : Suomi
Language : Finnish
Default : No
Forced : No

Text #14
ID : 16
Format : UTF-8
Codec ID : S_TEXT/UTF8
Codec ID/Info : UTF-8 Plain Text
Duration : 56 min 56 s
Bit rate : 52 b/s
Count of elements : 693
Stream size : 21.8 KiB (0%)
Title : Français (France)
Language : French
Default : No
Forced : No

Text #15
ID : 17
Format : UTF-8
Codec ID : S_TEXT/UTF8
Codec ID/Info : UTF-8 Plain Text
Duration : 56 min 56 s
Bit rate : 52 b/s
Count of elements : 694
Stream size : 21.8 KiB (0%)
Title : Français (Canada)
Language : French
Default : No
Forced : No

Text #16
ID : 18
Format : UTF-8
Codec ID : S_TEXT/UTF8
Codec ID/Info : UTF-8 Plain Text
Duration : 57 min 45 s
Bit rate : 68 b/s
Count of elements : 660
Stream size : 29.2 KiB (0%)
Title : עברית
Language : Hebrew
Default : No
Forced : No

Text #17
ID : 19
Format : UTF-8
Codec ID : S_TEXT/UTF8
Codec ID/Info : UTF-8 Plain Text
Duration : 57 min 45 s
Bit rate : 141 b/s
Count of elements : 661
Stream size : 59.8 KiB (0%)
Title : हिन्दी
Language : Hindi
Default : No
Forced : No

Text #18
ID : 20
Format : UTF-8
Codec ID : S_TEXT/UTF8
Codec ID/Info : UTF-8 Plain Text
Duration : 57 min 45 s
Bit rate : 50 b/s
Count of elements : 653
Stream size : 21.5 KiB (0%)
Title : magyar
Language : Hungarian
Default : No
Forced : No

Text #19
ID : 21
Format : UTF-8
Codec ID : S_TEXT/UTF8
Codec ID/Info : UTF-8 Plain Text
Duration : 57 min 45 s
Bit rate : 54 b/s
Count of elements : 660
Stream size : 22.9 KiB (0%)
Title : Bahasa Indonesia
Language : Indonesian
Default : No
Forced : No

Text #20
ID : 22
Format : UTF-8
Codec ID : S_TEXT/UTF8
Codec ID/Info : UTF-8 Plain Text
Duration : 57 min 47 s
Bit rate : 52 b/s
Count of elements : 677
Stream size : 22.4 KiB (0%)
Title : Italiano
Language : Italian
Default : No
Forced : No

Text #21
ID : 23
Format : UTF-8
Codec ID : S_TEXT/UTF8
Codec ID/Info : UTF-8 Plain Text
Duration : 57 min 50 s
Bit rate : 44 b/s
Count of elements : 668
Stream size : 19.0 KiB (0%)
Title : 日本語
Language : Japanese
Default : No
Forced : No

Text #22
ID : 24
Format : UTF-8
Codec ID : S_TEXT/UTF8
Codec ID/Info : UTF-8 Plain Text
Duration : 57 min 45 s
Bit rate : 58 b/s
Count of elements : 661
Stream size : 24.6 KiB (0%)
Title : 한국어
Language : Korean
Default : No
Forced : No

Text #23
ID : 25
Format : UTF-8
Codec ID : S_TEXT/UTF8
Codec ID/Info : UTF-8 Plain Text
Duration : 57 min 45 s
Bit rate : 48 b/s
Count of elements : 660
Stream size : 20.4 KiB (0%)
Title : lietuvių
Language : Lithuanian
Default : No
Forced : No

Text #24
ID : 26
Format : UTF-8
Codec ID : S_TEXT/UTF8
Codec ID/Info : UTF-8 Plain Text
Duration : 57 min 45 s
Bit rate : 52 b/s
Count of elements : 655
Stream size : 22.2 KiB (0%)
Title : latviešu
Language : Latvian
Default : No
Forced : No

Text #25
ID : 27
Format : UTF-8
Codec ID : S_TEXT/UTF8
Codec ID/Info : UTF-8 Plain Text
Duration : 57 min 45 s
Bit rate : 53 b/s
Count of elements : 660
Stream size : 22.8 KiB (0%)
Title : Bahasa Melayu
Language : Malay
Default : No
Forced : No

Text #26
ID : 28
Format : UTF-8
Codec ID : S_TEXT/UTF8
Codec ID/Info : UTF-8 Plain Text
Duration : 57 min 45 s
Bit rate : 48 b/s
Count of elements : 556
Stream size : 20.6 KiB (0%)
Title : Nederlands
Language : Dutch
Default : No
Forced : No

Text #27
ID : 29
Format : UTF-8
Codec ID : S_TEXT/UTF8
Codec ID/Info : UTF-8 Plain Text
Duration : 57 min 45 s
Bit rate : 48 b/s
Count of elements : 586
Stream size : 20.4 KiB (0%)
Title : norsk
Language : Norwegian
Default : No
Forced : No

Text #28
ID : 30
Format : UTF-8
Codec ID : S_TEXT/UTF8
Codec ID/Info : UTF-8 Plain Text
Duration : 57 min 45 s
Bit rate : 47 b/s
Count of elements : 653
Stream size : 20.2 KiB (0%)
Title : polski
Language : Polish
Default : No
Forced : No

Text #29
ID : 31
Format : UTF-8
Codec ID : S_TEXT/UTF8
Codec ID/Info : UTF-8 Plain Text
Duration : 57 min 45 s
Bit rate : 50 b/s
Count of elements : 650
Stream size : 21.2 KiB (0%)
Title : Português (Brasil)
Language : Portuguese
Default : No
Forced : No

Text #30
ID : 32
Format : UTF-8
Codec ID : S_TEXT/UTF8
Codec ID/Info : UTF-8 Plain Text
Duration : 57 min 45 s
Bit rate : 51 b/s
Count of elements : 652
Stream size : 21.7 KiB (0%)
Title : Português
Language : Portuguese
Default : No
Forced : No

Text #31
ID : 33
Format : UTF-8
Codec ID : S_TEXT/UTF8
Codec ID/Info : UTF-8 Plain Text
Duration : 57 min 45 s
Bit rate : 75 b/s
Count of elements : 661
Stream size : 32.1 KiB (0%)
Title : Русский
Language : Russian
Default : No
Forced : No

Text #32
ID : 34
Format : UTF-8
Codec ID : S_TEXT/UTF8
Codec ID/Info : UTF-8 Plain Text
Duration : 57 min 45 s
Bit rate : 46 b/s
Count of elements : 655
Stream size : 19.6 KiB (0%)
Title : Slovenčina
Language : Slovak
Default : No
Forced : No

Text #33
ID : 35
Format : UTF-8
Codec ID : S_TEXT/UTF8
Codec ID/Info : UTF-8 Plain Text
Duration : 57 min 45 s
Bit rate : 41 b/s
Count of elements : 641
Stream size : 17.8 KiB (0%)
Title : slovenščina
Language : Slovenian
Default : No
Forced : No

Text #34
ID : 36
Format : UTF-8
Codec ID : S_TEXT/UTF8
Codec ID/Info : UTF-8 Plain Text
Duration : 57 min 45 s
Bit rate : 49 b/s
Count of elements : 652
Stream size : 20.9 KiB (0%)
Title : Svenska
Language : Swedish
Default : No
Forced : No

Text #35
ID : 37
Format : UTF-8
Codec ID : S_TEXT/UTF8
Codec ID/Info : UTF-8 Plain Text
Duration : 57 min 45 s
Bit rate : 165 b/s
Count of elements : 660
Stream size : 70.2 KiB (0%)
Title : தமிழ்
Language : Tamil
Default : No
Forced : No

Text #36
ID : 38
Format : UTF-8
Codec ID : S_TEXT/UTF8
Codec ID/Info : UTF-8 Plain Text
Duration : 57 min 45 s
Bit rate : 152 b/s
Count of elements : 660
Stream size : 64.3 KiB (0%)
Title : తెలుగు
Language : Telugu
Default : No
Forced : No

Text #37
ID : 39
Format : UTF-8
Codec ID : S_TEXT/UTF8
Codec ID/Info : UTF-8 Plain Text
Duration : 57 min 45 s
Bit rate : 134 b/s
Count of elements : 660
Stream size : 57.1 KiB (0%)
Title : ไทย
Language : Thai
Default : No
Forced : No

Text #38
ID : 40
Format : UTF-8
Codec ID : S_TEXT/UTF8
Codec ID/Info : UTF-8 Plain Text
Duration : 57 min 45 s
Bit rate : 51 b/s
Count of elements : 660
Stream size : 22.0 KiB (0%)
Title : Türkçe
Language : Turkish
Default : No
Forced : No

Text #39
ID : 41
Format : UTF-8
Codec ID : S_TEXT/UTF8
Codec ID/Info : UTF-8 Plain Text
Duration : 57 min 45 s
Bit rate : 76 b/s
Count of elements : 661
Stream size : 32.4 KiB (0%)
Title : українська
Language : Ukrainian
Default : No
Forced : No

Text #40
ID : 42
Format : UTF-8
Codec ID : S_TEXT/UTF8
Codec ID/Info : UTF-8 Plain Text
Duration : 57 min 45 s
Bit rate : 65 b/s
Count of elements : 661
Stream size : 27.5 KiB (0%)
Title : Tiếng Việt
Language : Vietnamese
Default : No
Forced : No

Text #41
ID : 43
Format : UTF-8
Codec ID : S_TEXT/UTF8
Codec ID/Info : UTF-8 Plain Text
Duration : 57 min 45 s
Bit rate : 48 b/s
Count of elements : 661
Stream size : 20.3 KiB (0%)
Title : 廣東話
Language : Chinese
Default : No
Forced : No

Text #42
ID : 44
Format : UTF-8
Codec ID : S_TEXT/UTF8
Codec ID/Info : UTF-8 Plain Text
Duration : 57 min 45 s
Bit rate : 46 b/s
Count of elements : 660
Stream size : 19.8 KiB (0%)
Title : 中文(简体)
Language : Chinese
Default : No
Forced : No

Text #43
ID : 45
Format : UTF-8
Codec ID : S_TEXT/UTF8
Codec ID/Info : UTF-8 Plain Text
Duration : 57 min 45 s
Bit rate : 47 b/s
Count of elements : 661
Stream size : 20.0 KiB (0%)
Title : 中文(繁體)
Language : Chinese
Default : No
Forced : No





See S03E01


See S03E01


See S03E01


See S03E01


See S03E01

All episodes