Index
# A B C D E F G H I J K L M N O P Q R S T U V W Y Z
Tags
Language
Tags
November 2022
Su Mo Tu We Th Fr Sa
30 31 1 2 3 4 5
6 7 8 9 10 11 12
13 14 15 16 17 18 19
20 21 22 23 24 25 26
27 28 29 30 1 2 3

Featured TV Shows


See S02E03

Posted By: Tavaz
720p (HD) / WEBRip IMDb
See S02E03

See S02E03
WEBRip | MKV | 1392x660 | English | H264 @ 2826 kbps | E-AC-3 @ 768 kbps | 55 min 58 s | 1.41 GiB
Subtitles: ภาษาไทย, Français, tiếng Việt, Español, Eesti keel, Slovenčina, 日本語, עברית, 한국어, Русский, Ελληνικά, Bahasa Indonesia, Dansk, Nederlands, Български, Українська, 中文, Suomi, Polski, Magyar, Türkçe, English, हिन्दी, العربية, Slovenščina, Deutsch, Svenska, Italiano, Português, Čeština
Genre: Drama


A virus has decimated humankind. Those who survived emerged blind. Centuries later when twins are born with the mythic ability to see, their father must protect his tribe against a threatened queen.

ab2752e358314abaaf8d12102b9c12ba.mkv (1.4 GB)



General
Unique ID : 106742627887788519256603810854571409467 (0x504DE1E0FACCCD4F9712B965D0A1003B)
Complete name : ./ab2752e358314abaaf8d12102b9c12ba.mkv
Format : Matroska
Format version : Version 4 / Version 2
File size : 1.41 GiB
Duration : 55 min 58 s
Overall bit rate : 3 602 kb/s
Writing application : mkvmerge v61.0.0 ('So') 64-bit
Writing library : libebml v1.4.2 + libmatroska v1.6.4

Video
ID : 1
Format : AVC
Format/Info : Advanced Video Codec
Format profile : High@L3.2
Format settings : CABAC / 5 Ref Frames
Format settings, CABAC : Yes
Format settings, RefFrames : 5 frames
Codec ID : V_MPEG4/ISO/AVC
Duration : 55 min 58 s
Bit rate : 2 827 kb/s
Width : 1 392 pixels
Height : 660 pixels
Display aspect ratio : 2.109
Frame rate mode : Constant
Frame rate : 23.976 (24000/1001) FPS
Color space : YUV
Chroma subsampling : 4:2:0
Bit depth : 8 bits
Scan type : Progressive
Bits/(Pixel*Frame) : 0.128
Stream size : 1.11 GiB (78%)
Language : English
Default : Yes
Forced : No
Color range : Limited
Color primaries : BT.709
Transfer characteristics : BT.709
Matrix coefficients : BT.709

Audio
ID : 2
Format : E-AC-3
Format/Info : Enhanced Audio Coding 3
Format profile : E-AC-3+Atmos / E-AC-3
Format settings, Endianness : Big
Codec ID : A_EAC3
Duration : 55 min 58 s
Bit rate mode : Constant
Bit rate : 768 kb/s
Channel(s) : 15 objects / 6 channels
Channel positions : 15 objects / Front: L C R, Side: L R, LFE
Sampling rate : 48.0 kHz
Frame rate : 187.500 FPS (256 SPF)
Compression mode : Lossy
Stream size : 307 MiB (21%)
Language : English
Service kind : Complete Main
Default : Yes
Forced : No

Text #1
ID : 3
Format : UTF-8
Codec ID : S_TEXT/UTF8
Codec ID/Info : UTF-8 Plain Text
Duration : 54 min 25 s
Bit rate : 55 b/s
Count of elements : 645
Stream size : 22.0 KiB (0%)
Language : English
Default : No
Forced : No

Text #2
ID : 4
Format : UTF-8
Codec ID : S_TEXT/UTF8
Codec ID/Info : UTF-8 Plain Text
Duration : 54 min 28 s
Bit rate : 61 b/s
Count of elements : 755
Stream size : 24.5 KiB (0%)
Title : English (SDH)
Language : English
Default : No
Forced : No

Text #3
ID : 5
Format : UTF-8
Codec ID : S_TEXT/UTF8
Codec ID/Info : UTF-8 Plain Text
Duration : 55 min 50 s
Bit rate : 71 b/s
Count of elements : 647
Stream size : 29.2 KiB (0%)
Language : Arabic
Default : No
Forced : No

Text #4
ID : 6
Format : UTF-8
Codec ID : S_TEXT/UTF8
Codec ID/Info : UTF-8 Plain Text
Duration : 55 min 50 s
Bit rate : 80 b/s
Count of elements : 638
Stream size : 33.1 KiB (0%)
Language : Bulgarian
Default : No
Forced : No

Text #5
ID : 7
Format : UTF-8
Codec ID : S_TEXT/UTF8
Codec ID/Info : UTF-8 Plain Text
Duration : 55 min 50 s
Bit rate : 49 b/s
Count of elements : 648
Stream size : 20.1 KiB (0%)
Language : Chinese
Default : No
Forced : No

Text #6
ID : 8
Format : UTF-8
Codec ID : S_TEXT/UTF8
Codec ID/Info : UTF-8 Plain Text
Duration : 55 min 50 s
Bit rate : 48 b/s
Count of elements : 647
Stream size : 20.0 KiB (0%)
Language : Chinese
Default : No
Forced : No

Text #7
ID : 9
Format : UTF-8
Codec ID : S_TEXT/UTF8
Codec ID/Info : UTF-8 Plain Text
Duration : 55 min 50 s
Bit rate : 48 b/s
Count of elements : 648
Stream size : 19.7 KiB (0%)
Language : Chinese
Default : No
Forced : No

Text #8
ID : 10
Format : UTF-8
Codec ID : S_TEXT/UTF8
Codec ID/Info : UTF-8 Plain Text
Duration : 55 min 50 s
Bit rate : 52 b/s
Count of elements : 635
Stream size : 21.6 KiB (0%)
Language : Czech
Default : No
Forced : No

Text #9
ID : 11
Format : UTF-8
Codec ID : S_TEXT/UTF8
Codec ID/Info : UTF-8 Plain Text
Duration : 55 min 50 s
Bit rate : 54 b/s
Count of elements : 612
Stream size : 22.4 KiB (0%)
Language : Danish
Default : No
Forced : No

Text #10
ID : 12
Format : UTF-8
Codec ID : S_TEXT/UTF8
Codec ID/Info : UTF-8 Plain Text
Duration : 55 min 50 s
Bit rate : 49 b/s
Count of elements : 609
Stream size : 20.4 KiB (0%)
Language : Dutch
Default : No
Forced : No

Text #11
ID : 13
Format : UTF-8
Codec ID : S_TEXT/UTF8
Codec ID/Info : UTF-8 Plain Text
Duration : 55 min 50 s
Bit rate : 50 b/s
Count of elements : 591
Stream size : 20.6 KiB (0%)
Language : Estonian
Default : No
Forced : No

Text #12
ID : 14
Format : UTF-8
Codec ID : S_TEXT/UTF8
Codec ID/Info : UTF-8 Plain Text
Duration : 55 min 50 s
Bit rate : 52 b/s
Count of elements : 638
Stream size : 21.5 KiB (0%)
Language : Finnish
Default : No
Forced : No

Text #13
ID : 15
Format : UTF-8
Codec ID : S_TEXT/UTF8
Codec ID/Info : UTF-8 Plain Text
Duration : 54 min 54 s
Bit rate : 52 b/s
Count of elements : 702
Stream size : 21.1 KiB (0%)
Title : French (Canada)
Language : French
Default : No
Forced : No

Text #14
ID : 16
Format : UTF-8
Codec ID : S_TEXT/UTF8
Codec ID/Info : UTF-8 Plain Text
Duration : 54 min 54 s
Bit rate : 52 b/s
Count of elements : 701
Stream size : 21.1 KiB (0%)
Title : French (France)
Language : French
Default : No
Forced : No

Text #15
ID : 17
Format : UTF-8
Codec ID : S_TEXT/UTF8
Codec ID/Info : UTF-8 Plain Text
Duration : 55 min 45 s
Bit rate : 58 b/s
Count of elements : 646
Stream size : 23.9 KiB (0%)
Language : German
Default : No
Forced : No

Text #16
ID : 18
Format : UTF-8
Codec ID : S_TEXT/UTF8
Codec ID/Info : UTF-8 Plain Text
Duration : 55 min 50 s
Bit rate : 96 b/s
Count of elements : 627
Stream size : 39.6 KiB (0%)
Language : Greek
Default : No
Forced : No

Text #17
ID : 19
Format : UTF-8
Codec ID : S_TEXT/UTF8
Codec ID/Info : UTF-8 Plain Text
Duration : 55 min 50 s
Bit rate : 71 b/s
Count of elements : 647
Stream size : 29.4 KiB (0%)
Language : Hebrew
Default : No
Forced : No

Text #18
ID : 20
Format : UTF-8
Codec ID : S_TEXT/UTF8
Codec ID/Info : UTF-8 Plain Text
Duration : 55 min 50 s
Bit rate : 139 b/s
Count of elements : 648
Stream size : 57.2 KiB (0%)
Language : Hindi
Default : No
Forced : No

Text #19
ID : 21
Format : UTF-8
Codec ID : S_TEXT/UTF8
Codec ID/Info : UTF-8 Plain Text
Duration : 55 min 50 s
Bit rate : 53 b/s
Count of elements : 646
Stream size : 21.8 KiB (0%)
Language : Hungarian
Default : No
Forced : No

Text #20
ID : 22
Format : UTF-8
Codec ID : S_TEXT/UTF8
Codec ID/Info : UTF-8 Plain Text
Duration : 55 min 50 s
Bit rate : 58 b/s
Count of elements : 646
Stream size : 23.7 KiB (0%)
Language : Indonesian
Default : No
Forced : No

Text #21
ID : 23
Format : UTF-8
Codec ID : S_TEXT/UTF8
Codec ID/Info : UTF-8 Plain Text
Duration : 55 min 52 s
Bit rate : 57 b/s
Count of elements : 647
Stream size : 23.5 KiB (0%)
Language : Italian
Default : No
Forced : No

Text #22
ID : 24
Format : UTF-8
Codec ID : S_TEXT/UTF8
Codec ID/Info : UTF-8 Plain Text
Duration : 55 min 52 s
Bit rate : 45 b/s
Count of elements : 659
Stream size : 18.7 KiB (0%)
Language : Japanese
Default : No
Forced : No

Text #23
ID : 25
Format : UTF-8
Codec ID : S_TEXT/UTF8
Codec ID/Info : UTF-8 Plain Text
Duration : 55 min 50 s
Bit rate : 61 b/s
Count of elements : 648
Stream size : 25.1 KiB (0%)
Language : Korean
Default : No
Forced : No

Text #24
ID : 26
Format : UTF-8
Codec ID : S_TEXT/UTF8
Codec ID/Info : UTF-8 Plain Text
Duration : 55 min 50 s
Bit rate : 55 b/s
Count of elements : 646
Stream size : 22.7 KiB (0%)
Language : Latvian
Default : No
Forced : No

Text #25
ID : 27
Format : UTF-8
Codec ID : S_TEXT/UTF8
Codec ID/Info : UTF-8 Plain Text
Duration : 55 min 50 s
Bit rate : 50 b/s
Count of elements : 647
Stream size : 20.7 KiB (0%)
Language : Lithuanian
Default : No
Forced : No

Text #26
ID : 28
Format : UTF-8
Codec ID : S_TEXT/UTF8
Codec ID/Info : UTF-8 Plain Text
Duration : 55 min 50 s
Bit rate : 56 b/s
Count of elements : 646
Stream size : 23.1 KiB (0%)
Language : Malay
Default : No
Forced : No

Text #27
ID : 29
Format : UTF-8
Codec ID : S_TEXT/UTF8
Codec ID/Info : UTF-8 Plain Text
Duration : 55 min 50 s
Bit rate : 51 b/s
Count of elements : 613
Stream size : 21.2 KiB (0%)
Language : Norwegian
Default : No
Forced : No

Text #28
ID : 30
Format : UTF-8
Codec ID : S_TEXT/UTF8
Codec ID/Info : UTF-8 Plain Text
Duration : 55 min 50 s
Bit rate : 49 b/s
Count of elements : 643
Stream size : 20.4 KiB (0%)
Language : Polish
Default : No
Forced : No

Text #29
ID : 31
Format : UTF-8
Codec ID : S_TEXT/UTF8
Codec ID/Info : UTF-8 Plain Text
Duration : 55 min 50 s
Bit rate : 54 b/s
Count of elements : 641
Stream size : 22.2 KiB (0%)
Language : Portuguese
Default : No
Forced : No

Text #30
ID : 32
Format : UTF-8
Codec ID : S_TEXT/UTF8
Codec ID/Info : UTF-8 Plain Text
Duration : 55 min 50 s
Bit rate : 52 b/s
Count of elements : 643
Stream size : 21.6 KiB (0%)
Title : Portuguese (Brazil)
Language : Portuguese
Default : No
Forced : No

Text #31
ID : 33
Format : UTF-8
Codec ID : S_TEXT/UTF8
Codec ID/Info : UTF-8 Plain Text
Duration : 55 min 50 s
Bit rate : 81 b/s
Count of elements : 648
Stream size : 33.2 KiB (0%)
Language : Russian
Default : No
Forced : No

Text #32
ID : 34
Format : UTF-8
Codec ID : S_TEXT/UTF8
Codec ID/Info : UTF-8 Plain Text
Duration : 55 min 50 s
Bit rate : 48 b/s
Count of elements : 644
Stream size : 19.9 KiB (0%)
Language : Slovak
Default : No
Forced : No

Text #33
ID : 35
Format : UTF-8
Codec ID : S_TEXT/UTF8
Codec ID/Info : UTF-8 Plain Text
Duration : 55 min 50 s
Bit rate : 44 b/s
Count of elements : 641
Stream size : 18.2 KiB (0%)
Language : Slovenian
Default : No
Forced : No

Text #34
ID : 36
Format : UTF-8
Codec ID : S_TEXT/UTF8
Codec ID/Info : UTF-8 Plain Text
Duration : 55 min 50 s
Bit rate : 53 b/s
Count of elements : 647
Stream size : 22.0 KiB (0%)
Title : Spanish (Latin America)
Language : Spanish
Default : No
Forced : No

Text #35
ID : 37
Format : UTF-8
Codec ID : S_TEXT/UTF8
Codec ID/Info : UTF-8 Plain Text
Duration : 55 min 51 s
Bit rate : 51 b/s
Count of elements : 645
Stream size : 20.9 KiB (0%)
Title : Spanish (Spain)
Language : Spanish
Default : No
Forced : No

Text #36
ID : 38
Format : UTF-8
Codec ID : S_TEXT/UTF8
Codec ID/Info : UTF-8 Plain Text
Duration : 55 min 50 s
Bit rate : 53 b/s
Count of elements : 644
Stream size : 21.9 KiB (0%)
Language : Swedish
Default : No
Forced : No

Text #37
ID : 39
Format : UTF-8
Codec ID : S_TEXT/UTF8
Codec ID/Info : UTF-8 Plain Text
Duration : 55 min 50 s
Bit rate : 171 b/s
Count of elements : 647
Stream size : 70.0 KiB (0%)
Language : Tamil
Default : No
Forced : No

Text #38
ID : 40
Format : UTF-8
Codec ID : S_TEXT/UTF8
Codec ID/Info : UTF-8 Plain Text
Duration : 55 min 50 s
Bit rate : 159 b/s
Count of elements : 647
Stream size : 65.3 KiB (0%)
Language : Telugu
Default : No
Forced : No

Text #39
ID : 41
Format : UTF-8
Codec ID : S_TEXT/UTF8
Codec ID/Info : UTF-8 Plain Text
Duration : 55 min 50 s
Bit rate : 146 b/s
Count of elements : 647
Stream size : 59.8 KiB (0%)
Language : Thai
Default : No
Forced : No

Text #40
ID : 42
Format : UTF-8
Codec ID : S_TEXT/UTF8
Codec ID/Info : UTF-8 Plain Text
Duration : 55 min 50 s
Bit rate : 53 b/s
Count of elements : 646
Stream size : 22.0 KiB (0%)
Language : Turkish
Default : No
Forced : No

Text #41
ID : 43
Format : UTF-8
Codec ID : S_TEXT/UTF8
Codec ID/Info : UTF-8 Plain Text
Duration : 55 min 50 s
Bit rate : 81 b/s
Count of elements : 648
Stream size : 33.4 KiB (0%)
Language : Ukrainian
Default : No
Forced : No

Text #42
ID : 44
Format : UTF-8
Codec ID : S_TEXT/UTF8
Codec ID/Info : UTF-8 Plain Text
Duration : 55 min 50 s
Bit rate : 67 b/s
Count of elements : 647
Stream size : 27.4 KiB (0%)
Language : Vietnamese
Default : No
Forced : No

Menu
00:00:00.000 : :Chapter 01
00:01:06.734 : :Chapter 02





See S02E03


See S02E03


See S02E03


See S02E03


See S02E03

All episodes