Index
# A B C D E F G H I J K L M N O P Q R S T U V W Y Z
Tags
Language
Tags
November 2022
Su Mo Tu We Th Fr Sa
30 31 1 2 3 4 5
6 7 8 9 10 11 12
13 14 15 16 17 18 19
20 21 22 23 24 25 26
27 28 29 30 1 2 3

Featured TV Shows


See S01E07

Posted By: Tavaz
See S01E07

See S01E07
MKV | 1920x910 | English | H265 @ 1426 kbps | E-AC-3 @ 768 kbps | 49 min 2 s | 786 MiB
Subtitles: English
Genre: Drama


A virus has decimated humankind. Those who survived emerged blind. Centuries later when twins are born with the mythic ability to see, their father must protect his tribe against a threatened queen.

07568a08acc64e4f9ae8ad26ea38f246.mkv (785.5 MB)



General
Unique ID : 26260025885633333717307565764309841732 (0x13C17F3CA9088B46D39954C6A8F67744)
Complete name : ./07568a08acc64e4f9ae8ad26ea38f246.mkv
Format : Matroska
Format version : Version 4 / Version 2
File size : 786 MiB
Duration : 49 min 2 s
Overall bit rate : 2 239 kb/s
Writing application : Lavf58.30.100
Writing library : Lavf58.30.100
ErrorDetectionType : Per level 1

Video
ID : 1
Format : HEVC
Format/Info : High Efficiency Video Coding
Format profile : Main 10@L4@Main
Codec ID : V_MPEGH/ISO/HEVC
Duration : 49 min 2 s
Bit rate : 1 427 kb/s
Width : 1 920 pixels
Height : 910 pixels
Display aspect ratio : 2.110
Frame rate mode : Constant
Frame rate : 23.976 (24000/1001) FPS
Color space : YUV
Chroma subsampling : 4:2:0
Bit depth : 10 bits
Bits/(Pixel*Frame) : 0.034
Stream size : 500 MiB (64%)
Writing library : x265 3.1+7-147fb92c5ed5:[Windows][GCC 9.1.1][64 bit] 10bit
Encoding settings : cpuid=1111039 / frame-threads=4 / numa-pools=16 / wpp / no-pmode / no-pme / no-psnr / no-ssim / log-level=2 / input-csp=1 / input-res=1920x910 / interlace=0 / total-frames=0 / level-idc=0 / high-tier=1 / uhd-bd=0 / ref=1 / no-allow-non-conformance / no-repeat-headers / annexb / no-aud / no-hrd / info / hash=0 / no-temporal-layers / open-gop / min-keyint=23 / keyint=250 / gop-lookahead=0 / bframes=3 / b-adapt=0 / b-pyramid / bframe-bias=0 / rc-lookahead=5 / lookahead-slices=5 / scenecut=0 / radl=0 / no-splice / no-intra-refresh / ctu=32 / min-cu-size=16 / no-rect / no-amp / max-tu-size=32 / tu-inter-depth=1 / tu-intra-depth=1 / limit-tu=0 / rdoq-level=0 / dynamic-rd=0.00 / no-ssim-rd / no-signhide / no-tskip / nr-intra=0 / nr-inter=0 / no-constrained-intra / strong-intra-smoothing / max-merge=2 / limit-refs=0 / no-limit-modes / me=0 / subme=0 / merange=57 / temporal-mvp / no-hme / no-weightp / no-weightb / no-analyze-src-pics / deblock=0:0 / no-sao / no-sao-non-deblock / rd=2 / early-skip / rskip / fast-intra / no-tskip-fast / no-cu-lossless / no-b-intra / no-splitrd-skip / rdpenalty=0 / psy-rd=2.00 / psy-rdoq=0.00 / no-rd-refine / no-lossless / cbqpoffs=0 / crqpoffs=0 / rc=crf / crf=23.0 / qcomp=0.60 / qpstep=4 / stats-write=0 / stats-read=0 / ipratio=1.40 / pbratio=1.30 / aq-mode=1 / aq-strength=0.00 / cutree / zone-count=0 / no-strict-cbr / qg-size=32 / no-rc-grain / qpmax=69 / qpmin=0 / no-const-vbv / sar=1 / overscan=0 / videoformat=5 / range=0 / colorprim=2 / transfer=2 / colormatrix=2 / chromaloc=0 / display-window=0cll=0,0 / min-luma=0 / max-luma=1023 / log2-max-poc-lsb=8 / vui-timing-info / vui-hrd-info / slices=1 / no-opt-qp-pps / no-opt-ref-list-length-pps / no-multi-pass-opt-rps / scenecut-bias=0.05 / no-opt-cu-delta-qp / no-aq-motion / no-hdr / no-hdr-opt / no-dhdr10-opt / no-idr-recovery-sei / analysis-reuse-level=5 / scale-factor=0 / refine-intra=0 / refine-inter=0 / refine-mv=0 / refine-ctu-distortion=0 / no-limit-sao / ctu-info=0 / no-lowpass-dct / refine-analysis-type=0 / copy-pic=1 / max-ausize-factor=1.0 / no-dynamic-refine / no-single-sei / no-hevc-aq / no-svt / no-field / qp-adaptation-range=1.00
Language : English
Default : Yes
Forced : No
Color range : Limited
Statistics Tags Issue : mkvmerge v28.2.0 ('The Awakening') 64-bit 2019-11-28 17:34:51 / Lavf58.30.100
FromStats_BitRate : 9827981
FromStats_Duration : 00:49:02.315000000
FromStats_FrameCount : 70545
FromStats_StreamSize : 3614627336

Audio
ID : 2
Format : E-AC-3
Format/Info : Enhanced Audio Coding 3
Format profile : E-AC-3+Atmos / E-AC-3
Format settings, Endianness : Big
Codec ID : A_EAC3
Duration : 49 min 2 s
Bit rate mode : Constant
Bit rate : 768 kb/s
Channel(s) : 15 objects / 6 channels
Channel positions : 15 objects / Front: L C R, Side: L R, LFE
Sampling rate : 48.0 kHz
Frame rate : 187.500 FPS (256 SPF)
Bit depth : 32 bits
Compression mode : Lossy
Stream size : 269 MiB (34%)
Language : English
Service kind : Complete Main
Default : Yes
Forced : No
Statistics Tags Issue : mkvmerge v28.2.0 ('The Awakening') 64-bit 2019-11-28 17:34:51 / Lavf58.30.100
FromStats_BitRate : 768000
FromStats_Duration : 00:49:02.336000000
FromStats_FrameCount : 91948
FromStats_StreamSize : 282464256

Text
ID : 3
Format : ASS
Codec ID : S_TEXT/ASS
Codec ID/Info : Advanced Sub Station Alpha
Compression mode : Lossless
Title : English Forced
Writing library : Lavc58.55.100 ssa
Language : English
Default : Yes
Forced : Yes
Statistics Tags Issue : mkvmerge v28.2.0 ('The Awakening') 64-bit 2019-11-28 17:34:51 / Lavf58.30.100
FromStats_BitRate : 37
FromStats_Duration : 00:37:51.104000000
FromStats_FrameCount : 4
FromStats_StreamSize : 99





See S01E07


See S01E07


See S01E07


See S01E07


See S01E07

All episodes