Index
# A B C D E F G H I J K L M N O P Q R S T U V W Y Z
Tags
Language
Tags
February 2023
Su Mo Tu We Th Fr Sa
29 30 31 1 2 3 4
5 6 7 8 9 10 11
12 13 14 15 16 17 18
19 20 21 22 23 24 25
26 27 28 1 2 3 4

Featured TV Shows


Inside No. 9 S04E00

Posted By: Tavaz
1080p (FullHD) / WEBRip IMDb
Inside No. 9 S04E00

Inside No. 9 S04E00
WEBRip | MKV | 1920x1080 | English | H264 @ 8311 kbps | E-AC-3 @ 224 kbps | 32 min 3 s | 1.95 GiB
Subtitles: English
Genre: Comedy, Mystery


An anthology of darkly comic twisted tales, each one taking place behind a door marked 'number 9'.

23ac7aef3dd2436087711010fb6b65be.mkv (1.9 GB)



General
Unique ID : 238259920315506010298224064005132348647 (0xB33F3106B007D30E31045657C7856CE7)
Complete name : ./23ac7aef3dd2436087711010fb6b65be.mkv
Format : Matroska
Format version : Version 4 / Version 2
File size : 1.95 GiB
Duration : 32 min 3 s
Overall bit rate : 8 708 kb/s
Writing application : mkvmerge v66.0.0 ('Josie') 64-bit
Writing library : libebml v1.4.2 + libmatroska v1.6.4

Video
ID : 1
Format : AVC
Format/Info : Advanced Video Codec
Format profile : High@L4
Format settings : CABAC / 4 Ref Frames
Format settings, CABAC : Yes
Format settings, RefFrames : 4 frames
Format settings, GOP : M=4, N=50
Codec ID : V_MPEG4/ISO/AVC
Duration : 32 min 3 s
Bit rate mode : Constant
Bit rate : 8 311 kb/s
Nominal bit rate : 10 000 kb/s
Width : 1 920 pixels
Height : 1 080 pixels
Display aspect ratio : 16:9
Frame rate mode : Constant
Frame rate : 25.000 FPS
Color space : YUV
Chroma subsampling : 4:2:0
Bit depth : 8 bits
Scan type : Progressive
Bits/(Pixel*Frame) : 0.160
Stream size : 1.86 GiB (95%)
Language : English
Default : Yes
Forced : No
Color range : Limited
Color primaries : BT.709
Transfer characteristics : BT.709
Matrix coefficients : BT.709
Statistics Tags Issue : mkvmerge v66.0.0 ('Josie') 64-bit 2022-10-24 14:25:50 / mkvmerge v66.0.0 ('Josie') 64-bit
FromStats_BitRate : 8482213
FromStats_Duration : 00:32:03.000000000
FromStats_FrameCount : 48075
FromStats_StreamSize : 2038912089

Audio
ID : 2
Format : E-AC-3
Format/Info : Enhanced Audio Coding 3
Format settings, Endianness : Big
Codec ID : A_EAC3
Duration : 32 min 3 s
Bit rate mode : Constant
Bit rate : 224 kb/s
Channel(s) : 2 channels
Channel positions : Front: L R
Sampling rate : 48.0 kHz
Frame rate : 187.500 FPS (256 SPF)
Compression mode : Lossy
Stream size : 51.4 MiB (3%)
Title : English
Language : English
Service kind : Complete Main
Default : Yes
Forced : No
Statistics Tags Issue : mkvmerge v66.0.0 ('Josie') 64-bit 2022-10-24 14:25:50 / mkvmerge v66.0.0 ('Josie') 64-bit
FromStats_BitRate : 224000
FromStats_Duration : 00:32:03.040000000
FromStats_FrameCount : 60095
FromStats_StreamSize : 53845120

Text #1
ID : 3
Format : UTF-8
Codec ID : S_TEXT/UTF8
Codec ID/Info : UTF-8 Plain Text
Title : English
Language : English
Default : No
Forced : No
Statistics Tags Issue : mkvmerge v66.0.0 ('Josie') 64-bit 2022-10-24 14:25:50 / mkvmerge v66.0.0 ('Josie') 64-bit
FromStats_BitRate : 70
FromStats_Duration : 00:30:51.028000000
FromStats_FrameCount : 512
FromStats_StreamSize : 16388

Text #2
ID : 4
Format : UTF-8
Codec ID : S_TEXT/UTF8
Codec ID/Info : UTF-8 Plain Text
Title : English
Language : English
Default : No
Forced : No
Statistics Tags Issue : mkvmerge v66.0.0 ('Josie') 64-bit 2022-10-24 14:25:50 / mkvmerge v66.0.0 ('Josie') 64-bit
FromStats_BitRate : 68
FromStats_Duration : 00:31:16.118000000
FromStats_FrameCount : 471
FromStats_StreamSize : 16022





Inside No. 9 S04E00


Inside No. 9 S04E00


Inside No. 9 S04E00


Inside No. 9 S04E00


Inside No. 9 S04E00

All episodes