Index
# A B C D E F G H I J K L M N O P Q R S T U V W Y Z
Tags
Language
Tags
February 2023
Su Mo Tu We Th Fr Sa
29 30 31 1 2 3 4
5 6 7 8 9 10 11
12 13 14 15 16 17 18
19 20 21 22 23 24 25
26 27 28 1 2 3 4

Featured TV Shows


Avenue 5 S02E01

Posted By: Tavaz
720p (HD) / WEB-DL IMDb
Avenue 5 S02E01

Avenue 5 S02E01
WEB-DL | MKV | 1280x720 | English | H264 @ 3400 kbps | AC-3 @ 384 kbps | 28 min 34 s | 773 MiB
Subtitles: Română, Hrvatski, Svenska, Slovenščina, Makedonski jazik, Suomi, Español, Magyar, Polski, Nederlands, Srpski, Dansk, English, Čeština, Português, Български
Genre: Comedy


40 years in the future, space captain Ryan Clark and the crew of the luxury space cruise ship Avenue 5 navigate disgruntled passengers and unexpected events after experiencing technical difficulties onboard.

7bb65af8572f4e8fbd6f848a427b3f7f.mkv (773.0 MB)



General
Unique ID : 137366317302311867488622268607150775057 (0x6757CA569FA7E5064DEBA90DE9995B11)
Complete name : ./7bb65af8572f4e8fbd6f848a427b3f7f.mkv
Format : Matroska
Format version : Version 4 / Version 2
File size : 773 MiB
Duration : 28 min 34 s
Overall bit rate mode : Variable
Overall bit rate : 3 783 kb/s
Writing application : mkvmerge v68.0.0 ('The Curtain') 64-bit
Writing library : libebml v1.4.2 + libmatroska v1.6.4

Video
ID : 1
Format : AVC
Format/Info : Advanced Video Codec
Format profile : Main@L3.1
Format settings : CABAC / 4 Ref Frames
Format settings, CABAC : Yes
Format settings, RefFrames : 4 frames
Codec ID : V_MPEG4/ISO/AVC
Duration : 28 min 34 s
Bit rate mode : Variable
Bit rate : 3 400 kb/s
Maximum bit rate : 5 100 kb/s
Width : 1 280 pixels
Height : 720 pixels
Display aspect ratio : 16:9
Frame rate mode : Constant
Frame rate : 23.976 (24000/1001) FPS
Color space : YUV
Chroma subsampling : 4:2:0
Bit depth : 8 bits
Scan type : Progressive
Bits/(Pixel*Frame) : 0.154
Stream size : 693 MiB (90%)
Writing library : x264 core 157 r2965 861cec4
Encoding settings : cabac=1 / ref=4 / deblock=1:0:0 / analyse=0x1:0x111 / me=hex / subme=7 / psy=1 / psy_rd=1.00:0.00 / mixed_ref=1 / me_range=16 / chroma_me=1 / trellis=1 / 8x8dct=0 / cqm=0 / deadzone=21,11 / fast_pskip=1 / chroma_qp_offset=-2 / threads=22 / lookahead_threads=3 / sliced_threads=0 / nr=0 / decimate=1 / interlaced=0 / bluray_compat=0 / constrained_intra=0 / bframes=3 / b_pyramid=2 / b_adapt=1 / b_bias=0 / direct=1 / weightb=1 / open_gop=0 / weightp=2 / keyint=96 / keyint_min=96 / scenecut=40 / intra_refresh=0 / rc_lookahead=40 / rc=2pass / mbtree=1 / bitrate=3400 / ratetol=1.0 / qcomp=0.60 / qpmin=0 / qpmax=69 / qpstep=4 / cplxblur=20.0 / qblur=0.5 / vbv_maxrate=5100 / vbv_bufsize=2550 / nal_hrd=vbr / filler=0 / ip_ratio=1.40 / aq=1:1.00
Default : Yes
Forced : No
Color range : Limited
Color primaries : BT.709
Transfer characteristics : BT.709
Matrix coefficients : BT.709

Audio
ID : 2
Format : AC-3
Format/Info : Audio Coding 3
Format settings, Endianness : Big
Codec ID : A_AC3
Duration : 28 min 34 s
Bit rate mode : Constant
Bit rate : 384 kb/s
Channel(s) : 6 channels
Channel positions : Front: L C R, Side: L R, LFE
Sampling rate : 48.0 kHz
Frame rate : 31.250 FPS (1536 SPF)
Bit depth : 16 bits
Compression mode : Lossy
Stream size : 78.5 MiB (10%)
Language : English
Service kind : Complete Main
Default : Yes
Forced : No

Text #1
ID : 3
Format : UTF-8
Codec ID : S_TEXT/UTF8
Codec ID/Info : UTF-8 Plain Text
Duration : 28 min 22 s
Bit rate : 126 b/s
Count of elements : 720
Stream size : 26.3 KiB (0%)
Language : English
Default : No
Forced : No

Text #2
ID : 4
Format : UTF-8
Codec ID : S_TEXT/UTF8
Codec ID/Info : UTF-8 Plain Text
Duration : 28 min 22 s
Bit rate : 137 b/s
Count of elements : 737
Stream size : 28.5 KiB (0%)
Title : SDH
Language : English
Default : No
Forced : No

Text #3
ID : 5
Format : UTF-8
Codec ID : S_TEXT/UTF8
Codec ID/Info : UTF-8 Plain Text
Duration : 27 min 32 s
Bit rate : 155 b/s
Count of elements : 428
Stream size : 31.5 KiB (0%)
Language : Bulgarian
Default : No
Forced : No

Text #4
ID : 6
Format : UTF-8
Codec ID : S_TEXT/UTF8
Codec ID/Info : UTF-8 Plain Text
Duration : 27 min 33 s
Bit rate : 116 b/s
Count of elements : 559
Stream size : 23.6 KiB (0%)
Language : Czech
Default : No
Forced : No

Text #5
ID : 7
Format : UTF-8
Codec ID : S_TEXT/UTF8
Codec ID/Info : UTF-8 Plain Text
Duration : 27 min 32 s
Bit rate : 93 b/s
Count of elements : 437
Stream size : 18.8 KiB (0%)
Language : Danish
Default : No
Forced : No

Text #6
ID : 8
Format : UTF-8
Codec ID : S_TEXT/UTF8
Codec ID/Info : UTF-8 Plain Text
Duration : 27 min 24 s
Bit rate : 111 b/s
Count of elements : 636
Stream size : 22.4 KiB (0%)
Title : Spanish (Latin America)
Language : Spanish
Default : No
Forced : No

Text #7
ID : 9
Format : UTF-8
Codec ID : S_TEXT/UTF8
Codec ID/Info : UTF-8 Plain Text
Duration : 27 min 29 s
Bit rate : 98 b/s
Count of elements : 481
Stream size : 19.9 KiB (0%)
Title : Spanish (Spain)
Language : Spanish
Default : No
Forced : No

Text #8
ID : 10
Format : UTF-8
Codec ID : S_TEXT/UTF8
Codec ID/Info : UTF-8 Plain Text
Duration : 27 min 30 s
Bit rate : 97 b/s
Count of elements : 445
Stream size : 19.6 KiB (0%)
Language : Finnish
Default : No
Forced : No

Text #9
ID : 11
Format : UTF-8
Codec ID : S_TEXT/UTF8
Codec ID/Info : UTF-8 Plain Text
Duration : 27 min 38 s
Bit rate : 81 b/s
Count of elements : 364
Stream size : 16.5 KiB (0%)
Language : Croatian
Default : No
Forced : No

Text #10
ID : 12
Format : UTF-8
Codec ID : S_TEXT/UTF8
Codec ID/Info : UTF-8 Plain Text
Duration : 27 min 30 s
Bit rate : 107 b/s
Count of elements : 495
Stream size : 21.7 KiB (0%)
Language : Hungarian
Default : No
Forced : No

Text #11
ID : 13
Format : UTF-8
Codec ID : S_TEXT/UTF8
Codec ID/Info : UTF-8 Plain Text
Duration : 27 min 38 s
Bit rate : 134 b/s
Count of elements : 364
Stream size : 27.3 KiB (0%)
Language : Macedonian
Default : No
Forced : No

Text #12
ID : 14
Format : UTF-8
Codec ID : S_TEXT/UTF8
Codec ID/Info : UTF-8 Plain Text
Duration : 27 min 29 s
Bit rate : 91 b/s
Count of elements : 461
Stream size : 18.3 KiB (0%)
Language : Dutch
Default : No
Forced : No

Text #13
ID : 15
Format : UTF-8
Codec ID : S_TEXT/UTF8
Codec ID/Info : UTF-8 Plain Text
Duration : 28 min 26 s
Bit rate : 77 b/s
Count of elements : 384
Stream size : 16.1 KiB (0%)
Language : Norwegian
Default : No
Forced : No

Text #14
ID : 16
Format : UTF-8
Codec ID : S_TEXT/UTF8
Codec ID/Info : UTF-8 Plain Text
Duration : 27 min 53 s
Bit rate : 78 b/s
Count of elements : 426
Stream size : 16.1 KiB (0%)
Language : Polish
Default : No
Forced : No

Text #15
ID : 17
Format : UTF-8
Codec ID : S_TEXT/UTF8
Codec ID/Info : UTF-8 Plain Text
Duration : 27 min 24 s
Bit rate : 107 b/s
Count of elements : 636
Stream size : 21.7 KiB (0%)
Title : Portuguese (Brazil)
Language : Portuguese
Default : No
Forced : No

Text #16
ID : 18
Format : UTF-8
Codec ID : S_TEXT/UTF8
Codec ID/Info : UTF-8 Plain Text
Duration : 27 min 28 s
Bit rate : 101 b/s
Count of elements : 471
Stream size : 20.4 KiB (0%)
Title : Portuguese (Portugal)
Language : Portuguese
Default : No
Forced : No

Text #17
ID : 19
Format : UTF-8
Codec ID : S_TEXT/UTF8
Codec ID/Info : UTF-8 Plain Text
Duration : 27 min 28 s
Bit rate : 113 b/s
Count of elements : 542
Stream size : 22.8 KiB (0%)
Language : Romanian
Default : No
Forced : No

Text #18
ID : 20
Format : UTF-8
Codec ID : S_TEXT/UTF8
Codec ID/Info : UTF-8 Plain Text
Duration : 27 min 38 s
Bit rate : 78 b/s
Count of elements : 364
Stream size : 15.9 KiB (0%)
Language : Slovenian
Default : No
Forced : No

Text #19
ID : 21
Format : UTF-8
Codec ID : S_TEXT/UTF8
Codec ID/Info : UTF-8 Plain Text
Duration : 27 min 38 s
Bit rate : 83 b/s
Count of elements : 364
Stream size : 16.8 KiB (0%)
Language : Serbian
Default : No
Forced : No

Text #20
ID : 22
Format : UTF-8
Codec ID : S_TEXT/UTF8
Codec ID/Info : UTF-8 Plain Text
Duration : 27 min 29 s
Bit rate : 104 b/s
Count of elements : 449
Stream size : 21.0 KiB (0%)
Language : Swedish
Default : No
Forced : No

Menu
00:00:00.000 : en:Chapter 1
00:27:30.000 : en:Credits





Avenue 5 S02E01


Avenue 5 S02E01


Avenue 5 S02E01


Avenue 5 S02E01


Avenue 5 S02E01

All episodes