Tags
Language
Tags
February 2024
Su Mo Tu We Th Fr Sa
28 29 30 31 1 2 3
4 5 6 7 8 9 10
11 12 13 14 15 16 17
18 19 20 21 22 23 24
25 26 27 28 29 1 2
Attention❗ To save your time, in order to download anything on this site, you must be registered 👉 HERE. If you do not have a registration yet, it is better to do it right away. ✌

( • )( • ) ( ͡⚆ ͜ʖ ͡⚆ ) (‿ˠ‿)
SpicyMags.xyz

Kanojo mo Kanojo S2 - 05

Posted By: Otaku
Kanojo mo Kanojo S2 - 05

Kanojo mo Kanojo S2 - 05
MKV | 1920x1080 | H265 @ 999 kbps | AAC @ 192.0 kbps | 24 min 27 s | 209 MiB
Subtitles: English



[New-raws] Kanojo mo Kanojo S2 - 05 [1080p] [ENG].mkv (209.4 MB)



General
Unique ID : 104843308540608102570080695335465018629 (0x4EE0163481E249CCFCE393EF0DD46505)
Complete name : ./[New-raws] Kanojo mo Kanojo S2 - 05 [1080p] [ENG].mkv
Format : Matroska
Format version : Version 4
File size : 209 MiB
Duration : 24 min 27 s
Overall bit rate : 1 197 kb/s
Encoded date : UTC 2023-11-03 17:31:03
Writing application : mkvmerge v26.0.0 ('In The Game') 64-bit
Writing library : libebml v1.3.6 + libmatroska v1.4.9

Video
ID : 1
Format : HEVC
Format/Info : High Efficiency Video Coding
Format profile : Main@L5@Main
Codec ID : V_MPEGH/ISO/HEVC
Duration : 24 min 26 s
Bit rate : 999 kb/s
Width : 1 920 pixels
Height : 1 080 pixels
Display aspect ratio : 16:9
Frame rate mode : Constant
Frame rate : 23.976 (24000/1001) FPS
Original frame rate : 23.976 (23976/1000) FPS
Color space : YUV
Chroma subsampling : 4:2:0
Bit depth : 8 bits
Bits/(Pixel*Frame) : 0.020
Stream size : 175 MiB (83%)
Default : Yes
Forced : No
Color range : Limited
Color primaries : BT.709
Transfer characteristics : BT.709
Matrix coefficients : BT.709

Audio
ID : 2
Format : AAC LC
Format/Info : Advanced Audio Codec Low Complexity
Codec ID : A_AAC-2
Duration : 24 min 27 s
Bit rate : 192 kb/s
Channel(s) : 2 channels
Channel layout : L R
Sampling rate : 48.0 kHz
Frame rate : 46.875 FPS (1024 SPF)
Compression mode : Lossy
Delay relative to video : -167 ms
Stream size : 34.2 MiB (16%)
Default : Yes
Forced : No

Text
ID : 3
Format : UTF-8
Codec ID : S_TEXT/UTF8
Codec ID/Info : UTF-8 Plain Text
Duration : 24 min 25 s
Bit rate : 52 b/s
Frame rate : 0.225 FPS
Count of elements : 330
Stream size : 9.36 KiB (0%)
Language : English
Default : Yes
Forced : No





Kanojo mo Kanojo S2 - 05


Kanojo mo Kanojo S2 - 05


Kanojo mo Kanojo S2 - 05


Kanojo mo Kanojo S2 - 05