Index
# A B C D E F G H I J K L M N O P Q R S T U V W Y Z
Tags
Language
Tags
November 2022
Su Mo Tu We Th Fr Sa
30 31 1 2 3 4 5
6 7 8 9 10 11 12
13 14 15 16 17 18 19
20 21 22 23 24 25 26
27 28 29 30 1 2 3

Featured TV Shows


Heartbreak High S01E01

Posted By: Tavaz
1080p (FullHD) / WEBRip IMDb
Heartbreak High S01E01

Heartbreak High S01E01
WEBRip | MOV | 1920x1080 | Français / English | H264 @ 8088 kbps | E-AC-3 @ 640 kbps | 52 min 6 s | 3.41 GiB
Genre: Drama


A fresh look at Hartley High over 20 years on. With her new friends - outsiders Quinni and Darren - Amerie must repair her reputation, while navigating love, sex, and heartbreak.

337b1cd5ca3947688b2e5338b272e135.mkv (3.4 GB)



General
Complete name : ./337b1cd5ca3947688b2e5338b272e135.mkv
Format : MPEG-4
Format profile : Base Media
Codec ID : isom (isom/iso2/avc1/mp41)
File size : 3.41 GiB
Duration : 52 min 6 s
Overall bit rate : 9 373 kb/s
Writing application : FlixGrab Plus
FileExtension_Invalid : mov mp4 m4v m4a m4b m4p 3ga 3gpa 3gpp 3gp 3gpp2 3g2 k3g jpm jpx mqv ismv isma ismt f4a f4b f4v

Video
ID : 1
Format : AVC
Format/Info : Advanced Video Codec
Format profile : High@L4
Format settings : CABAC / 4 Ref Frames
Format settings, CABAC : Yes
Format settings, RefFrames : 4 frames
Codec ID : avc1
Codec ID/Info : Advanced Video Coding
Duration : 52 min 6 s
Bit rate : 8 088 kb/s
Width : 1 920 pixels
Height : 1 080 pixels
Display aspect ratio : 16:9
Frame rate mode : Constant
Frame rate : 25.000 FPS
Color space : YUV
Chroma subsampling : 4:2:0
Bit depth : 8 bits
Scan type : Progressive
Bits/(Pixel*Frame) : 0.156
Stream size : 2.94 GiB (86%)

Audio #1
ID : 2
Format : E-AC-3
Format/Info : Enhanced Audio Coding 3
Format settings, Endianness : Big
Codec ID : ec-3
Duration : 52 min 6 s
Bit rate mode : Constant
Bit rate : 640 kb/s
Channel(s) : 6 channels
Channel positions : Front: L C R, Side: L R, LFE
Sampling rate : 48.0 kHz
Frame rate : 187.500 FPS (256 SPF)
Bit depth : 16 bits
Compression mode : Lossy
Stream size : 239 MiB (7%)
Language : French
Service kind : Complete Main
Default : Yes
Alternate group : 1

Audio #2
ID : 3
Format : E-AC-3
Format/Info : Enhanced Audio Coding 3
Format settings, Endianness : Big
Codec ID : ec-3
Duration : 52 min 6 s
Bit rate mode : Constant
Bit rate : 640 kb/s
Channel(s) : 6 channels
Channel positions : Front: L C R, Side: L R, LFE
Sampling rate : 48.0 kHz
Frame rate : 187.500 FPS (256 SPF)
Bit depth : 16 bits
Compression mode : Lossy
Stream size : 239 MiB (7%)
Language : English
Service kind : Complete Main
Default : No
Alternate group : 1





Heartbreak High S01E01


Heartbreak High S01E01


Heartbreak High S01E01


Heartbreak High S01E01


Heartbreak High S01E01

All episodes