Index
# A B C D E F G H I J K L M N O P Q R S T U V W Y Z
Tags
Language
Tags
December 2022
Su Mo Tu We Th Fr Sa
27 28 29 30 1 2 3
4 5 6 7 8 9 10
11 12 13 14 15 16 17
18 19 20 21 22 23 24
25 26 27 28 29 30 31

Featured TV Shows


Bad Sisters S01E07

Posted By: Tavaz
1080p (FullHD) / WEBRip IMDb
Bad Sisters S01E07

Bad Sisters S01E07
WEBRip | MKV | 1920x960 | Français / English | H264 @ 9984 kbps | E-AC-3 @ 768 kbps | 49 min 44 s | 4.00 GiB
Subtitles: Français, English
Genre: Drama, Comedy


The tight-knit Garvey sisters have always looked out for each other. When their brother-in-law winds up dead, his life insurers launch an investigation to prove malicious intent—and set their sights on the sisters, all of whom had ample reason to kill him.

012a33ff7bf94cdcb09a1301462f3c11.mkv (4.0 GB)



General
Unique ID : 337498328228312037437490211769577242179 (0xFDE7D04B77DDF14D6BC7DCC89931FE43)
Complete name : ./012a33ff7bf94cdcb09a1301462f3c11.mkv
Format : Matroska
Format version : Version 4 / Version 2
File size : 4.00 GiB
Duration : 49 min 44 s
Overall bit rate : 11.5 Mb/s
Encoded date : UTC 2022-09-23 01:18:51
Writing application : mkvmerge v70.0.0 ('Caught A Lite Sneeze') 64-bit
Writing library : libebml v1.4.2 + libmatroska v1.6.4

Video
ID : 1
Format : AVC
Format/Info : Advanced Video Codec
Format profile : High@L4
Format settings : CABAC / 4 Ref Frames
Format settings, CABAC : Yes
Format settings, RefFrames : 4 frames
Codec ID : V_MPEG4/ISO/AVC
Duration : 49 min 44 s
Bit rate : 9 985 kb/s
Width : 1 920 pixels
Height : 960 pixels
Display aspect ratio : 2.000
Frame rate mode : Constant
Frame rate : 23.976 (24000/1001) FPS
Color space : YUV
Chroma subsampling : 4:2:0
Bit depth : 8 bits
Scan type : Progressive
Bits/(Pixel*Frame) : 0.226
Stream size : 3.47 GiB (87%)
Default : Yes
Forced : No
Color range : Limited
Color primaries : BT.709
Transfer characteristics : BT.709
Matrix coefficients : BT.709

Audio #1
ID : 2
Format : E-AC-3
Format/Info : Enhanced Audio Coding 3
Format profile : E-AC-3+Atmos / E-AC-3
Format settings, Endianness : Big
Codec ID : A_EAC3
Duration : 49 min 44 s
Bit rate mode : Constant
Bit rate : 768 kb/s
Channel(s) : 15 objects / 6 channels
Channel positions : 15 objects / Front: L C R, Side: L R, LFE
Sampling rate : 48.0 kHz
Frame rate : 187.500 FPS (256 SPF)
Compression mode : Lossy
Stream size : 273 MiB (7%)
Title : French
Language : French
Service kind : Complete Main
Default : Yes
Forced : No

Audio #2
ID : 3
Format : E-AC-3
Format/Info : Enhanced Audio Coding 3
Format profile : E-AC-3+Atmos / E-AC-3
Format settings, Endianness : Big
Codec ID : A_EAC3
Duration : 49 min 44 s
Bit rate mode : Constant
Bit rate : 768 kb/s
Channel(s) : 15 objects / 6 channels
Channel positions : 15 objects / Front: L C R, Side: L R, LFE
Sampling rate : 48.0 kHz
Frame rate : 187.500 FPS (256 SPF)
Compression mode : Lossy
Stream size : 273 MiB (7%)
Title : English
Language : English
Service kind : Complete Main
Default : No
Forced : No

Text #1
ID : 4
Format : UTF-8
Codec ID : S_TEXT/UTF8
Codec ID/Info : UTF-8 Plain Text
Duration : 41 min 37 s
Bit rate : 0 b/s
Count of elements : 7
Stream size : 236 Bytes (0%)
Title : French (Forced)
Language : French
Default : Yes
Forced : Yes

Text #2
ID : 5
Format : UTF-8
Codec ID : S_TEXT/UTF8
Codec ID/Info : UTF-8 Plain Text
Duration : 49 min 7 s
Bit rate : 54 b/s
Count of elements : 680
Stream size : 19.8 KiB (0%)
Title : French
Language : French
Default : No
Forced : No

Text #3
ID : 6
Format : UTF-8
Codec ID : S_TEXT/UTF8
Codec ID/Info : UTF-8 Plain Text
Duration : 49 min 23 s
Bit rate : 67 b/s
Count of elements : 766
Stream size : 24.4 KiB (0%)
Title : French (SDH)
Language : French
Default : No
Forced : No

Text #4
ID : 7
Format : UTF-8
Codec ID : S_TEXT/UTF8
Codec ID/Info : UTF-8 Plain Text
Duration : 48 min 14 s
Bit rate : 63 b/s
Count of elements : 673
Stream size : 22.6 KiB (0%)
Title : English
Language : English
Default : No
Forced : No

Text #5
ID : 8
Format : UTF-8
Codec ID : S_TEXT/UTF8
Codec ID/Info : UTF-8 Plain Text
Duration : 48 min 19 s
Bit rate : 72 b/s
Count of elements : 752
Stream size : 25.6 KiB (0%)
Title : English (SDH)
Language : English
Default : No
Forced : No





Bad Sisters S01E07


Bad Sisters S01E07


Bad Sisters S01E07


Bad Sisters S01E07


Bad Sisters S01E07

All episodes