Tags
Language
Tags

The Beatles: Japanese Bootlegs [4Box Sets, 12CD]

Posted By: v3122
The Beatles: Japanese Bootlegs [4Box Sets, 12CD]

The Beatles: Japanese Bootlegs
EAC | Flac(Image) + Cue + Log & MP3 CBR 320Kbps
12CD | PIGEON, CTA | ~ 3787 or 1644 Mb | Artwork(jpg) -> 738 Mb
Classic Rock / Beat / Rock & Roll / Pop Rock

~ Original Best Selection (PIGEON 3PCD101-1/3), The Beatles Story (1962 - 1967) (CTA AC-6019/6021), Another The Beatles Story (1962 - 1967) (CTA AB-01/03), Super Selection 1962-1967 (Echo Industry EBC-216/217/218) ~

The Beatles: Japanese Bootlegs [4Box Sets, 12CD]


The Beatles: Japanese Bootlegs:

The Beatles: Japanese Bootlegs [4Box Sets, 12CD]

* * *

The Beatles: Japanese Bootlegs [4Box Sets, 12CD]

The Beatles - Original Best Selection
EAC | Flac(Image) + Cue + Log & MP3 CBR 320Kbps
198? | PIGEON, 3PCD101 | ~ 880 or 361 Mb | Scans(jpg) -> 121 Mb
Classic Rock / Beat

~ Rare 3CD Box Set. 60 Tracks. Japan ~

Tracklist CD1 - Love Me Do (3PCD101/1):

01. Love Me Do 2:24
02. P.S. I Love You 2:07
03. A Taste Of Honey 2:05
04. Twist And Shout 2:36
05. I Saw Her Standing There 2:56
06. Anna (Go To Him) 2:58
07. Please Please Me 2:04
08. She Loves You 2:23
09. I Want To Hold Your Hand 2:29
10. It Won't Be Long 2:13
11. All My Loving 2:10
12. Please Mr. Postman 2:37
13. Roll Over Beethoven 2:48
14. Hold Me Tight 2:33
15. Money 2:51
16. Long Tall Sally 2:05
17. A Hard Day's Night 2:31
18. If I Fell 2:21
19. And I Love Her 2:31
20. Can't Buy Me Love 2:12

Exact Audio Copy V1.1 from 23. June 2015

EAC extraction logfile from 28. April 2016, 9:17

The Beatles / Original Best Selection (Disc 1 - Love Me Do) (3PCD101-1)

Used drive : PLEXTOR DVDR PX-891SA Adapter: 1 ID: 0

Read mode : Secure
Utilize accurate stream : Yes
Defeat audio cache : Yes
Make use of C2 pointers : No

Read offset correction : 6
Overread into Lead-In and Lead-Out : No
Fill up missing offset samples with silence : Yes
Delete leading and trailing silent blocks : No
Null samples used in CRC calculations : Yes
Used interface : Native Win32 interface for Win NT & 2000

Used output format : User Defined Encoder
Selected bitrate : 128 kBit/s
Quality : High
Add ID3 tag : No
Command line compressor : C:\Program Files (x86)\Exact Audio Copy\Flac\flac.exe
Additional command line options : -V -8 -T "Genre=%genre%" -T "Artist=%artist%" -T "Title=%title%" -T "Album=%albumtitle%" -T "Date=%year%" -T "Tracknumber=%tracknr%" -T "Comment=%comment%" %source%


TOC of the extracted CD

Track | Start | Length | Start sector | End sector
––––––––––––––––––––––––––––-
1 | 0:00.00 | 2:23.60 | 0 | 10784
2 | 2:23.60 | 2:07.25 | 10785 | 20334
3 | 4:31.10 | 2:05.10 | 20335 | 29719
4 | 6:36.20 | 2:36.37 | 29720 | 41456
5 | 9:12.57 | 2:55.40 | 41457 | 54621
6 | 12:08.22 | 2:57.73 | 54622 | 67969
7 | 15:06.20 | 2:04.20 | 67970 | 77289
8 | 17:10.40 | 2:22.55 | 77290 | 87994
9 | 19:33.20 | 2:29.07 | 87995 | 99176
10 | 22:02.27 | 2:13.28 | 99177 | 109179
11 | 24:15.55 | 2:09.57 | 109180 | 118911
12 | 26:25.37 | 2:37.20 | 118912 | 130706
13 | 29:02.57 | 2:48.00 | 130707 | 143306
14 | 31:50.57 | 2:32.65 | 143307 | 154771
15 | 34:23.47 | 2:51.18 | 154772 | 167614
16 | 37:14.65 | 2:05.02 | 167615 | 176991
17 | 39:19.67 | 2:31.35 | 176992 | 188351
18 | 41:51.27 | 2:21.05 | 188352 | 198931
19 | 44:12.32 | 2:31.10 | 198932 | 210266
20 | 46:43.42 | 2:12.05 | 210267 | 220171


Range status and errors

Selected range

Filename H:\dafnaplus\Beatles - Original Best Selection\Disc 1\The Beatles - Original Best Selection (Disc 1 - Love Me Do) (3PCD101-1).wav

Peak level 100.0 %
Extraction speed 7.1 X
Range quality 99.9 %
Test CRC A7CB2376
Copy CRC A7CB2376
Copy OK

No errors occurred


AccurateRip summary

Track 1 not present in database
Track 2 not present in database
Track 3 not present in database
Track 4 not present in database
Track 5 not present in database
Track 6 not present in database
Track 7 not present in database
Track 8 not present in database
Track 9 not present in database
Track 10 not present in database
Track 11 not present in database
Track 12 not present in database
Track 13 not present in database
Track 14 not present in database
Track 15 not present in database
Track 16 not present in database
Track 17 not present in database
Track 18 not present in database
Track 19 not present in database
Track 20 not present in database

None of the tracks are present in the AccurateRip database

End of status report

–– CUETools DB Plugin V2.1.6

[CTDB TOCID: .aOpaqmR.rEjSE8Vlr1mHvbg3ZI-] found
Submit result: .aOpaqmR.rEjSE8Vlr1mHvbg3ZI- has been confirmed
Track | CTDB Status
1 | (1/1) Accurately ripped
2 | (1/1) Accurately ripped
3 | (1/1) Accurately ripped
4 | (1/1) Accurately ripped
5 | (1/1) Accurately ripped
6 | (1/1) Accurately ripped
7 | (1/1) Accurately ripped
8 | (1/1) Accurately ripped
9 | (1/1) Accurately ripped
10 | (1/1) Accurately ripped
11 | (1/1) Accurately ripped
12 | (1/1) Accurately ripped
13 | (1/1) Accurately ripped
14 | (1/1) Accurately ripped
15 | (1/1) Accurately ripped
16 | (1/1) Accurately ripped
17 | (1/1) Accurately ripped
18 | (1/1) Accurately ripped
19 | (1/1) Accurately ripped
20 | (1/1) Accurately ripped


==== Log checksum 907C22F7ABC4863ACAAA9578DA832CB8EEED25BD96131065FD2D6BED3E9E3FD9 ====

foobar2000 1.2.9 / Dynamic Range Meter 1.1.1
log date: 2016-05-14 13:09:05

––––––––––––––––––––––––––––––––––––––––
Analyzed: The Beatles / Original Best Selection (Disc 1 - Love Me Do) (3PCD101-1)
––––––––––––––––––––––––––––––––––––––––

DR Peak RMS Duration Track
––––––––––––––––––––––––––––––––––––––––
DR10 0.00 dB -11.18 dB 2:24 01-Love Me Do
DR9 -1.69 dB -12.02 dB 2:07 02-P.S. I Love You
DR9 -1.23 dB -12.42 dB 2:05 03-A Taste Of Honey
DR8 -1.39 dB -10.69 dB 2:36 04-Twist And Shout
DR9 -0.04 dB -10.52 dB 2:56 05-I Saw Her Standing There
DR10 -0.11 dB -12.42 dB 2:58 06-Anna (Go To Him)
DR9 0.00 dB -10.43 dB 2:04 07-Please Please Me
DR9 -1.63 dB -12.73 dB 2:23 08-She Loves You
DR8 -1.62 dB -12.65 dB 2:29 09-I Want To Hold Your Hand
DR10 -1.34 dB -12.18 dB 2:13 10-It Won't Be Long
DR9 -1.56 dB -12.42 dB 2:10 11-All My Loving
DR9 -1.14 dB -11.78 dB 2:37 12-Please Mr. Postman
DR10 -1.47 dB -13.13 dB 2:48 13-Roll Over Beethoven
DR10 -3.05 dB -14.53 dB 2:33 14-Hold Me Tight
DR11 -1.28 dB -13.53 dB 2:51 15-Money
DR9 0.00 dB -10.35 dB 2:05 16-Long Tall Sally
DR9 -0.62 dB -10.80 dB 2:31 17-A Hard Day's Night
DR10 -0.36 dB -11.25 dB 2:21 18-If I Fell
DR9 -0.71 dB -12.57 dB 2:31 19-And I Love Her
DR9 -0.51 dB -11.17 dB 2:12 20-Can't Buy Me Love
––––––––––––––––––––––––––––––––––––––––

Number of tracks: 20
Official DR value: DR9

Samplerate: 44100 Hz
Channels: 2
Bits per sample: 16
Bitrate: 803 kbps
Codec: FLAC

[CUETools log; Date: 14.05.2016 8:48:08; Version: 2.1.4]
[CTDB TOCID: .aOpaqmR.rEjSE8Vlr1mHvbg3ZI-] found.
Track | CTDB Status
1 | (2/2) Accurately ripped
2 | (2/2) Accurately ripped
3 | (2/2) Accurately ripped
4 | (2/2) Accurately ripped
5 | (2/2) Accurately ripped
6 | (2/2) Accurately ripped
7 | (2/2) Accurately ripped
8 | (2/2) Accurately ripped
9 | (2/2) Accurately ripped
10 | (2/2) Accurately ripped
11 | (2/2) Accurately ripped
12 | (2/2) Accurately ripped
13 | (2/2) Accurately ripped
14 | (2/2) Accurately ripped
15 | (2/2) Accurately ripped
16 | (2/2) Accurately ripped
17 | (2/2) Accurately ripped
18 | (2/2) Accurately ripped
19 | (2/2) Accurately ripped
20 | (2/2) Accurately ripped
[AccurateRip ID: 002339cf-02062c59-080b7714] disk not present in database.

Track Peak [ CRC32 ] [W/O NULL] [ LOG ]
– 100,0 [A7CB2376] [AF241844] CRC32
01 100,0 [C739F3C6] [AC231225]
02 82,3 [28FDED8C] [42EC5215]
03 86,8 [6593D6B5] [8653C211]
04 85,2 [EE9E430E] [26797F8D]
05 99,5 [64918E1D] [1524F5D2]
06 98,7 [2893424B] [3E1E9D4D]
07 100,0 [F40539E0] [A071752D]
08 82,9 [D5122EC7] [9BF8D93A]
09 83,0 [F845F409] [33849669]
10 85,7 [28502ECE] [8A00D7FC]
11 83,5 [E86CAE2E] [B0DE65DF]
12 87,6 [E63FEB02] [2B53401F]
13 84,3 [BB94D876] [9C148A58]
14 70,3 [E1B13662] [2C1263C1]
15 86,2 [116984E5] [5A436F72]
16 100,0 [E9C26DD0] [4F30AB37]
17 93,0 [663C873C] [A17F3A73]
18 95,9 [5710C301] [E6267FC7]
19 92,1 [1D6320B5] [D3EF7F69]
20 94,2 [59EB30C6] [C3B016DC]

Tracklist CD2 - I'll Be Back (3PCD101/2):

01. I'll Be Back 2:23
02. No Reply 2:17
03. Rock And Roll Music 2:33
04. Mr. Moolight 2:36
05. Eight Days A Week 2:45
06. Honey Don't 2:59
07. I Don't Want To Spoil The Party 2:36
08. Everybody's Trying To Be My Baby 2:27
09. I Feel Fine 2:21
10. Help! 2:21
11. The Night Before 2:37
12. You've Got To Hide Your Love Away 2:11
13. I Need You 2:31
14. Another Girl 2:08
15. You're Going To Lose That Girl 2:21
16. Ticket To Ride 3:11
17. It's Only Love 1:59
18. Tell Me Why 2:09
19. Yesterday 2:08
20. Dizzy Miss Lizzy 2:54

Exact Audio Copy V1.1 from 23. June 2015

EAC extraction logfile from 28. April 2016, 9:36

The Beatles / Original Best Selection (Disc 2 - I'll Be Back) (3PCD101-2)

Used drive : PLEXTOR DVDR PX-891SA Adapter: 1 ID: 0

Read mode : Secure
Utilize accurate stream : Yes
Defeat audio cache : Yes
Make use of C2 pointers : No

Read offset correction : 6
Overread into Lead-In and Lead-Out : No
Fill up missing offset samples with silence : Yes
Delete leading and trailing silent blocks : No
Null samples used in CRC calculations : Yes
Used interface : Native Win32 interface for Win NT & 2000

Used output format : User Defined Encoder
Selected bitrate : 128 kBit/s
Quality : High
Add ID3 tag : No
Command line compressor : C:\Program Files (x86)\Exact Audio Copy\Flac\flac.exe
Additional command line options : -V -8 -T "Genre=%genre%" -T "Artist=%artist%" -T "Title=%title%" -T "Album=%albumtitle%" -T "Date=%year%" -T "Tracknumber=%tracknr%" -T "Comment=%comment%" %source%


TOC of the extracted CD

Track | Start | Length | Start sector | End sector
––––––––––––––––––––––––––––-
1 | 0:00.00 | 2:23.25 | 0 | 10749
2 | 2:23.25 | 2:16.72 | 10750 | 21021
3 | 4:40.22 | 2:33.30 | 21022 | 32526
4 | 7:13.52 | 2:36.20 | 32527 | 44246
5 | 9:49.72 | 2:45.20 | 44247 | 56641
6 | 12:35.17 | 2:58.73 | 56642 | 70064
7 | 15:34.15 | 2:35.45 | 70065 | 81734
8 | 18:09.60 | 2:27.02 | 81735 | 92761
9 | 20:36.62 | 2:20.43 | 92762 | 103304
10 | 22:57.30 | 2:20.42 | 103305 | 113846
11 | 25:17.72 | 2:37.13 | 113847 | 125634
12 | 27:55.10 | 2:11.30 | 125635 | 135489
13 | 30:06.40 | 2:31.32 | 135490 | 146846
14 | 32:37.72 | 2:08.13 | 146847 | 156459
15 | 34:46.10 | 2:20.55 | 156460 | 167014
16 | 37:06.65 | 3:11.07 | 167015 | 181346
17 | 40:17.72 | 1:58.43 | 181347 | 190239
18 | 42:16.40 | 2:08.62 | 190240 | 199901
19 | 44:25.27 | 2:07.65 | 199902 | 209491
20 | 46:33.17 | 2:54.30 | 209492 | 222571


Range status and errors

Selected range

Filename H:\dafnaplus\Beatles - Original Best Selection\Disc 2\The Beatles - Original Best Selection (Disc 2 - I'll Be Back) (3PCD101-2).wav

Peak level 100.0 %
Extraction speed 7.1 X
Range quality 99.9 %
Test CRC 86678F98
Copy CRC 86678F98
Copy OK

No errors occurred


AccurateRip summary

Track 1 not present in database
Track 2 not present in database
Track 3 not present in database
Track 4 not present in database
Track 5 not present in database
Track 6 not present in database
Track 7 not present in database
Track 8 not present in database
Track 9 not present in database
Track 10 not present in database
Track 11 not present in database
Track 12 not present in database
Track 13 not present in database
Track 14 not present in database
Track 15 not present in database
Track 16 not present in database
Track 17 not present in database
Track 18 not present in database
Track 19 not present in database
Track 20 not present in database

None of the tracks are present in the AccurateRip database

End of status report

–– CUETools DB Plugin V2.1.6

[CTDB TOCID: o0LgdESs7gbQj1rK5tt2.GPpwvs-] found
Submit result: already submitted
Track | CTDB Status
1 | (2/2) Accurately ripped
2 | (2/2) Accurately ripped
3 | (2/2) Accurately ripped
4 | (2/2) Accurately ripped
5 | (2/2) Accurately ripped
6 | (2/2) Accurately ripped
7 | (2/2) Accurately ripped
8 | (2/2) Accurately ripped
9 | (2/2) Accurately ripped
10 | (2/2) Accurately ripped
11 | (2/2) Accurately ripped
12 | (2/2) Accurately ripped
13 | (2/2) Accurately ripped
14 | (2/2) Accurately ripped
15 | (2/2) Accurately ripped
16 | (2/2) Accurately ripped
17 | (2/2) Accurately ripped
18 | (2/2) Accurately ripped
19 | (2/2) Accurately ripped
20 | (2/2) Accurately ripped


==== Log checksum FFDA1709AB8D84920A47FA1E9653B1776F576436E761EAE1ABD8F9180CE68AA3 ====

foobar2000 1.2.9 / Dynamic Range Meter 1.1.1
log date: 2016-05-14 13:08:48

––––––––––––––––––––––––––––––––––––––––
Analyzed: The Beatles / Original Best Selection (Disc 2 - I'll Be Back) (3PCD101-2)
––––––––––––––––––––––––––––––––––––––––

DR Peak RMS Duration Track
––––––––––––––––––––––––––––––––––––––––
DR10 -0.25 dB -11.37 dB 2:23 01-I'll Be Back
DR10 -2.49 dB -14.47 dB 2:17 02-No Reply
DR10 -1.06 dB -12.03 dB 2:33 03-Rock And Roll Music
DR10 -1.96 dB -13.32 dB 2:36 04-Mr. Moolight
DR10 -1.18 dB -12.79 dB 2:45 05-Eight Days A Week
DR10 -1.08 dB -13.05 dB 2:59 06-Honey Don't
DR10 -0.01 dB -11.41 dB 2:36 07-I Don't Want To Spoil The Party
DR10 -0.36 dB -11.78 dB 2:27 08-Everybody's Trying To Be My Baby
DR11 0.00 dB -12.54 dB 2:21 09-I Feel Fine
DR12 -3.61 dB -16.73 dB 2:21 10-Help!
DR12 -0.61 dB -13.98 dB 2:37 11-The Night Before
DR11 -1.55 dB -15.13 dB 2:11 12-You've Got To Hide Your Love Away
DR11 -1.23 dB -14.66 dB 2:31 13-I Need You
DR11 -1.09 dB -14.11 dB 2:08 14-Another Girl
DR12 0.00 dB -13.68 dB 2:21 15-You're Going To Lose That Girl
DR12 -0.21 dB -14.27 dB 3:11 16-Ticket To Ride
DR11 -2.19 dB -15.66 dB 1:59 17-It's Only Love
DR9 -0.96 dB -11.40 dB 2:09 18-Tell Me Why
DR12 -2.04 dB -16.61 dB 2:08 19-Yesterday
DR12 0.00 dB -14.29 dB 2:54 20-Dizzy Miss Lizzy
––––––––––––––––––––––––––––––––––––––––

Number of tracks: 20
Official DR value: DR11

Samplerate: 44100 Hz
Channels: 2
Bits per sample: 16
Bitrate: 750 kbps
Codec: FLAC

[CUETools log; Date: 14.05.2016 8:50:35; Version: 2.1.4]
[CTDB TOCID: o0LgdESs7gbQj1rK5tt2.GPpwvs-] found.
Track | CTDB Status
1 | (2/2) Accurately ripped
2 | (2/2) Accurately ripped
3 | (2/2) Accurately ripped
4 | (2/2) Accurately ripped
5 | (2/2) Accurately ripped
6 | (2/2) Accurately ripped
7 | (2/2) Accurately ripped
8 | (2/2) Accurately ripped
9 | (2/2) Accurately ripped
10 | (2/2) Accurately ripped
11 | (2/2) Accurately ripped
12 | (2/2) Accurately ripped
13 | (2/2) Accurately ripped
14 | (2/2) Accurately ripped
15 | (2/2) Accurately ripped
16 | (2/2) Accurately ripped
17 | (2/2) Accurately ripped
18 | (2/2) Accurately ripped
19 | (2/2) Accurately ripped
20 | (2/2) Accurately ripped
[AccurateRip ID: 00240a2e-020f3eaf-420b9714] disk not present in database.

Track Peak [ CRC32 ] [W/O NULL] [ LOG ]
– 100,0 [86678F98] [E00426E1] CRC32
01 97,1 [F200DA16] [4451AEE9]
02 75,0 [DEF5D51E] [3AF55160]
03 88,5 [82393EC4] [B72184D4]
04 79,8 [7C9FB3D8] [23BC646D]
05 87,2 [B569CFED] [25766151]
06 88,3 [49BA381B] [799E8082]
07 99,8 [BA6A3A1E] [A1E7CBD9]
08 95,9 [391C86B4] [DF0AF36E]
09 100,0 [AB93F2A3] [F94D7FE6]
10 65,9 [FBF9E22C] [E4646A39]
11 93,2 [11956CA5] [F030EF94]
12 83,6 [52FAE819] [560493B3]
13 86,8 [38550FFB] [6E5C2C3F]
14 88,2 [144AE5E9] [B52A7498]
15 100,0 [06E4FF0C] [C9D9CC93]
16 97,6 [D68EBBEE] [FFD27699]
17 77,7 [9E41A31D] [EBBAA4D7]
18 89,5 [68C84469] [2AB456C1]
19 79,0 [3225FE92] [09100278]
20 100,0 [EBF321DC] [DA1B4E35]

Tracklist CD3 - Day Tripper (3PCD101/3):

01. Day Tripper 2:50
02. Drive My Car 2:30
03. Norwegian Wood 2:08
04. Nowhere Man 2:47
05. The Word 2:47
06. Michelle 2:44
07. What Goes On 2:50
08. Girl 2:34
09. In My Life 2:29
10. If I Needed Someone 2:23
11. Eleanor Rigby 2:08
12. I'm Only Sleeping 2:59
13. Here, There And Everywhere 2:25
14. Paperback Writer 2:20
15. Yellow Submarine 2:40
16. Good Day Sunshine 2:10
17. All You Need Is Love 3:50
18. Magical Mystery Tour 2:50
19. Penny Lane 3:04
20. Hello Goodbye 3:28

[CUETools log; Date: 14.05.2016 8:50:35; Version: 2.1.4]
[CTDB TOCID: o0LgdESs7gbQj1rK5tt2.GPpwvs-] found.
Track | CTDB Status
1 | (2/2) Accurately ripped
2 | (2/2) Accurately ripped
3 | (2/2) Accurately ripped
4 | (2/2) Accurately ripped
5 | (2/2) Accurately ripped
6 | (2/2) Accurately ripped
7 | (2/2) Accurately ripped
8 | (2/2) Accurately ripped
9 | (2/2) Accurately ripped
10 | (2/2) Accurately ripped
11 | (2/2) Accurately ripped
12 | (2/2) Accurately ripped
13 | (2/2) Accurately ripped
14 | (2/2) Accurately ripped
15 | (2/2) Accurately ripped
16 | (2/2) Accurately ripped
17 | (2/2) Accurately ripped
18 | (2/2) Accurately ripped
19 | (2/2) Accurately ripped
20 | (2/2) Accurately ripped
[AccurateRip ID: 00240a2e-020f3eaf-420b9714] disk not present in database.

Track Peak [ CRC32 ] [W/O NULL] [ LOG ]
– 100,0 [86678F98] [E00426E1] CRC32
01 97,1 [F200DA16] [4451AEE9]
02 75,0 [DEF5D51E] [3AF55160]
03 88,5 [82393EC4] [B72184D4]
04 79,8 [7C9FB3D8] [23BC646D]
05 87,2 [B569CFED] [25766151]
06 88,3 [49BA381B] [799E8082]
07 99,8 [BA6A3A1E] [A1E7CBD9]
08 95,9 [391C86B4] [DF0AF36E]
09 100,0 [AB93F2A3] [F94D7FE6]
10 65,9 [FBF9E22C] [E4646A39]
11 93,2 [11956CA5] [F030EF94]
12 83,6 [52FAE819] [560493B3]
13 86,8 [38550FFB] [6E5C2C3F]
14 88,2 [144AE5E9] [B52A7498]
15 100,0 [06E4FF0C] [C9D9CC93]
16 97,6 [D68EBBEE] [FFD27699]
17 77,7 [9E41A31D] [EBBAA4D7]
18 89,5 [68C84469] [2AB456C1]
19 79,0 [3225FE92] [09100278]
20 100,0 [EBF321DC] [DA1B4E35]

foobar2000 1.2.9 / Dynamic Range Meter 1.1.1
log date: 2016-05-14 13:08:33

––––––––––––––––––––––––––––––––––––––––
Analyzed: The Beatles / Original Best Selection (Disc 3 - Day Tripper) (3PCD101-3)
––––––––––––––––––––––––––––––––––––––––

DR Peak RMS Duration Track
––––––––––––––––––––––––––––––––––––––––
DR10 -0.61 dB -13.20 dB 2:50 01-Day Tripper
DR12 0.00 dB -13.86 dB 2:30 02-Drive My Car
DR12 -0.74 dB -15.51 dB 2:08 03-Norwegian Wood
DR12 0.00 dB -15.07 dB 2:47 04-Nowhere Man
DR12 0.00 dB -14.16 dB 2:47 05-The Word
DR11 -3.79 dB -18.14 dB 2:44 06-Michelle
DR13 -1.02 dB -15.95 dB 2:50 07-What Goes On
DR13 -1.53 dB -17.91 dB 2:34 08-Girl
DR13 -1.18 dB -16.84 dB 2:29 09-In My Life
DR13 -2.09 dB -17.13 dB 2:23 10-If I Needed Someone
DR9 -2.46 dB -14.67 dB 2:08 11-Eleanor Rigby
DR10 0.00 dB -12.17 dB 2:59 12-I'm Only Sleeping
DR9 -0.85 dB -13.74 dB 2:25 13-Here, There And Everywhere
DR9 -0.75 dB -12.45 dB 2:20 14-Paperback Writer
DR11 0.00 dB -13.44 dB 2:40 15-Yellow Submarine
DR10 0.00 dB -11.91 dB 2:10 16-Good Day Sunshine
DR11 -0.76 dB -14.73 dB 3:50 17-All You Need Is Love
DR12 -0.17 dB -15.26 dB 2:50 18-Magical Mystery Tour
DR11 -1.19 dB -13.56 dB 3:04 19-Penny Lane
DR11 0.00 dB -13.25 dB 3:28 20-Hello Goodbye
––––––––––––––––––––––––––––––––––––––––

Number of tracks: 20
Official DR value: DR11

Samplerate: 44100 Hz
Channels: 2
Bits per sample: 16
Bitrate: 797 kbps
Codec: FLAC

[CUETools log; Date: 14.05.2016 8:52:42; Version: 2.1.4]
[CTDB TOCID: 7DuLQ1GU1LiROTC2BSVIMpaCCnk-] found.
Track | CTDB Status
1 | (2/2) Accurately ripped
2 | (2/2) Accurately ripped
3 | (2/2) Accurately ripped
4 | (2/2) Accurately ripped
5 | (2/2) Accurately ripped
6 | (2/2) Accurately ripped
7 | (2/2) Accurately ripped
8 | (2/2) Accurately ripped
9 | (2/2) Accurately ripped
10 | (2/2) Accurately ripped
11 | (2/2) Accurately ripped
12 | (2/2) Accurately ripped
13 | (2/2) Accurately ripped
14 | (2/2) Accurately ripped
15 | (2/2) Accurately ripped
16 | (2/2) Accurately ripped
17 | (2/2) Accurately ripped
18 | (2/2) Accurately ripped
19 | (2/2) Accurately ripped
20 | (2/2) Accurately ripped
[AccurateRip ID: 0025acee-02297864-010ca514] disk not present in database.

Track Peak [ CRC32 ] [W/O NULL] [ LOG ]
– 100,0 [4C530CC5] [E3A0C5C8] CRC32
01 93,2 [893C790C] [CE5BD7BE]
02 100,0 [25E3F130] [2822971E]
03 91,8 [45D2C134] [DBFACC3A]
04 100,0 [E8A7B7B9] [92981E61]
05 100,0 [039FB305] [05598C52]
06 64,6 [F83AA339] [847953F7]
07 88,9 [9923584D] [18571CEB]
08 83,8 [3876AAA9] [D280E8D4]
09 87,3 [54E4E801] [24755111]
10 78,6 [CFEEC2F6] [D491EF31]
11 75,3 [1956AAED] [4040B307]
12 100,0 [2B647090] [FAA058F6]
13 90,6 [90471C33] [683F81F7]
14 91,7 [2EA3F70C] [C54EED0D]
15 100,0 [91A2DD1E] [9A6FDCF9]
16 100,0 [D8E622C6] [29E4A21F]
17 91,6 [6779CA4C] [5581BFE5]
18 98,1 [326B76B8] [83CCAFD6]
19 87,1 [BBDCC5D8] [CFAE6AC7]
20 100,0 [8A31A27E] [F7729B05]

The Beatles: Japanese Bootlegs [4Box Sets, 12CD]

* * *

The Beatles: Japanese Bootlegs [4Box Sets, 12CD]

The Beatles - The Beatles Story (1962 - 1967)
EAC | Flac(Image) + Cue + Log & MP3 CBR 320Kbps
3CD | 198? | CTA AC-6019/6021 | Japan | ~ 951 or 357 Mb | Scans(jpg) -> 261 Mb
Classic Rock / Beat / Rock & Roll

~ 3CD: Super Hits, Rock`N Rolls and Love Ballades ~

The Beatles: Japanese Bootlegs [4Box Sets, 12CD]

Tracklist CD1 - Super Hits (AC-6019):

01. Please Please Me 1:59
02. I Want To Hold Your Hand 2:24
03. She Loves You 2:19
04. From Me To You 1:56
05. Love Me Do 2:24
06. Can't Buy Me Love 2:15
07. A Hard Day's Night 2:34
08. I Feel Fine 2:19
09. Eight Days A Week 2:44
10. Ticket To Ride 3:08
11. Help! 2:20
12. Yesterday 2:07
13. We Can Work It Out 2:15
14. Paperback Writer 2:21
15. Sgt. Pepper's Lonely Hearts Club Band 2:13
16. Magical Mystery Tour 2:50
17. Penny Lane 3:03
18. Strawberry Fields Forever 4:06
19. All You Need Is Love 3:51
20. Hello Goodbye 3:29

Exact Audio Copy V1.1 from 23. June 2015

EAC extraction logfile from 28. April 2016, 11:40

The Beatles / The Beatles Story (1962 - 1967) (Disc 1 - Super Hits) (AC-6019)

Used drive : PLEXTOR DVDR PX-891SA Adapter: 1 ID: 0

Read mode : Secure
Utilize accurate stream : Yes
Defeat audio cache : Yes
Make use of C2 pointers : No

Read offset correction : 6
Overread into Lead-In and Lead-Out : No
Fill up missing offset samples with silence : Yes
Delete leading and trailing silent blocks : No
Null samples used in CRC calculations : Yes
Used interface : Native Win32 interface for Win NT & 2000

Used output format : User Defined Encoder
Selected bitrate : 128 kBit/s
Quality : High
Add ID3 tag : No
Command line compressor : C:\Program Files (x86)\Exact Audio Copy\Flac\flac.exe
Additional command line options : -V -8 -T "Genre=%genre%" -T "Artist=%artist%" -T "Title=%title%" -T "Album=%albumtitle%" -T "Date=%year%" -T "Tracknumber=%tracknr%" -T "Comment=%comment%" %source%


TOC of the extracted CD

Track | Start | Length | Start sector | End sector
––––––––––––––––––––––––––––-
1 | 0:00.00 | 1:59.07 | 0 | 8931
2 | 1:59.07 | 2:23.43 | 8932 | 19699
3 | 4:22.50 | 2:19.15 | 19700 | 30139
4 | 6:41.65 | 1:56.02 | 30140 | 38841
5 | 8:37.67 | 2:24.25 | 38842 | 49666
6 | 11:02.17 | 2:14.43 | 49667 | 59759
7 | 13:16.60 | 2:33.72 | 59760 | 71306
8 | 15:50.57 | 2:19.05 | 71307 | 81736
9 | 18:09.62 | 2:43.55 | 81737 | 94016
10 | 20:53.42 | 3:08.13 | 94017 | 108129
11 | 24:01.55 | 2:19.67 | 108130 | 118621
12 | 26:21.47 | 2:06.43 | 118622 | 128114
13 | 28:28.15 | 2:14.55 | 128115 | 138219
14 | 30:42.70 | 2:20.52 | 138220 | 148771
15 | 33:03.47 | 2:12.60 | 148772 | 158731
16 | 35:16.32 | 2:49.45 | 158732 | 171451
17 | 38:06.02 | 3:03.00 | 171452 | 185176
18 | 41:09.02 | 4:06.33 | 185177 | 203659
19 | 45:15.35 | 3:51.12 | 203660 | 220996
20 | 49:06.47 | 3:29.25 | 220997 | 236696


Range status and errors

Selected range

Filename H:\dafnaplus\Beatles Story (1962 - 1967)\Disc 1 - Super Hits\The Beatles - The Beatles Story (1962 - 1967) (Disc 1 - Super Hits) (AC-6019).wav

Peak level 100.0 %
Extraction speed 7.4 X
Range quality 99.9 %
Test CRC A095D320
Copy CRC A095D320
Copy OK

No errors occurred


AccurateRip summary

Track 1 accurately ripped (confidence 3) [E087FEE8] (AR v2)
Track 2 accurately ripped (confidence 3) [B6F47960] (AR v2)
Track 3 accurately ripped (confidence 4) [5C2A40E4] (AR v2)
Track 4 accurately ripped (confidence 4) [94DA661A] (AR v2)
Track 5 accurately ripped (confidence 3) [BAE1AF8C] (AR v2)
Track 6 accurately ripped (confidence 4) [1D40D672] (AR v2)
Track 7 accurately ripped (confidence 4) [D93D4154] (AR v2)
Track 8 accurately ripped (confidence 3) [E565B58A] (AR v2)
Track 9 accurately ripped (confidence 3) [B28EF5B3] (AR v2)
Track 10 accurately ripped (confidence 3) [0F6821F8] (AR v2)
Track 11 accurately ripped (confidence 4) [D51F6CB9] (AR v2)
Track 12 accurately ripped (confidence 3) [31FB5FD3] (AR v2)
Track 13 accurately ripped (confidence 3) [C1BCBD65] (AR v2)
Track 14 accurately ripped (confidence 3) [5D9EA01B] (AR v2)
Track 15 accurately ripped (confidence 2) [028295CC] (AR v2)
Track 16 accurately ripped (confidence 3) [E2E0BF09] (AR v2)
Track 17 accurately ripped (confidence 3) [A81DADB2] (AR v2)
Track 18 accurately ripped (confidence 3) [B2076B67] (AR v2)
Track 19 accurately ripped (confidence 3) [DE240308] (AR v2)
Track 20 accurately ripped (confidence 3) [E312B961] (AR v2)

All tracks accurately ripped

End of status report

–– CUETools DB Plugin V2.1.6

[CTDB TOCID: 9e_gvFI7zaYiJkmbOaL3D3899WQ-] found
Submit result: already submitted
Track | CTDB Status
1 | (3/3) Accurately ripped
2 | (2/3) Accurately ripped, or (1/3) differs in 4 samples @00:53:04
3 | (3/3) Accurately ripped
4 | (3/3) Accurately ripped
5 | (3/3) Accurately ripped
6 | (3/3) Accurately ripped
7 | (3/3) Accurately ripped
8 | (3/3) Accurately ripped
9 | (3/3) Accurately ripped
10 | (3/3) Accurately ripped
11 | (3/3) Accurately ripped
12 | (3/3) Accurately ripped
13 | (3/3) Accurately ripped
14 | (3/3) Accurately ripped
15 | (3/3) Accurately ripped
16 | (3/3) Accurately ripped
17 | (3/3) Accurately ripped
18 | (3/3) Accurately ripped
19 | (3/3) Accurately ripped
20 | (3/3) Accurately ripped


==== Log checksum ADB5E6F133A1334DD4055241F229DE77169CEC9B4AA14EA9552BE19A55CAA4C2 ====

The Beatles: Japanese Bootlegs [4Box Sets, 12CD]

Tracklist CD2 - Rock`N Rolls (AC-6020):

01. Rock And Roll Music 2:31
02. She's A Woman 3:05
03. I Saw Her Standing There 2:53
04. Boys 2:26
05. Twist And Shout 2:35
06. Little Child 1:48
07. Roll Over Beethoven 2:46
08. Hold Me Tight 2:33
09. I Wanna Be Your Man 2:01
10. Money 2:50
11. Long Tall Sally 2:03
12. You Can't Do That 2:37
13. Slow Down 2:56
14. Match Box 1:59
15. Kansas City-Hey, Hey, Hey, Hey 2:37
16. Honey Don't 2:58
17. Everybody's Trying To Be My Baby 2:26
18. Bad Boy 2:22
19. Dizzy Miss Lizzy 2:55
20. I'm Down 2:30

Exact Audio Copy V1.1 from 23. June 2015

EAC extraction logfile from 28. April 2016, 12:11

The Beatles / The Beatles Story (1962 - 1967) (Disc 2 - Rock`N Rolls) (AC-6020)

Used drive : PLEXTOR DVDR PX-891SA Adapter: 1 ID: 0

Read mode : Secure
Utilize accurate stream : Yes
Defeat audio cache : Yes
Make use of C2 pointers : No

Read offset correction : 6
Overread into Lead-In and Lead-Out : No
Fill up missing offset samples with silence : Yes
Delete leading and trailing silent blocks : No
Null samples used in CRC calculations : Yes
Used interface : Native Win32 interface for Win NT & 2000

Used output format : User Defined Encoder
Selected bitrate : 128 kBit/s
Quality : High
Add ID3 tag : No
Command line compressor : C:\Program Files (x86)\Exact Audio Copy\Flac\flac.exe
Additional command line options : -V -8 -T "Genre=%genre%" -T "Artist=%artist%" -T "Title=%title%" -T "Album=%albumtitle%" -T "Date=%year%" -T "Tracknumber=%tracknr%" -T "Comment=%comment%" %source%


TOC of the extracted CD

Track | Start | Length | Start sector | End sector
––––––––––––––––––––––––––––-
1 | 0:00.00 | 2:30.73 | 0 | 11322
2 | 2:30.73 | 3:05.22 | 11323 | 25219
3 | 5:36.20 | 2:53.35 | 25220 | 38229
4 | 8:29.55 | 2:26.10 | 38230 | 49189
5 | 10:55.65 | 2:34.50 | 49190 | 60789
6 | 13:30.40 | 1:47.43 | 60790 | 68857
7 | 15:18.08 | 2:46.07 | 68858 | 81314
8 | 18:04.15 | 2:33.35 | 81315 | 92824
9 | 20:37.50 | 2:01.30 | 92825 | 101929
10 | 22:39.05 | 2:50.20 | 101930 | 114699
11 | 25:29.25 | 2:03.30 | 114700 | 123954
12 | 27:32.55 | 2:36.50 | 123955 | 135704
13 | 30:09.30 | 2:56.03 | 135705 | 148907
14 | 33:05.33 | 1:59.17 | 148908 | 157849
15 | 35:04.50 | 2:37.33 | 157850 | 169657
16 | 37:42.08 | 2:57.67 | 169658 | 182999
17 | 40:40.00 | 2:25.68 | 183000 | 193942
18 | 43:05.68 | 2:22.02 | 193943 | 204594
19 | 45:27.70 | 2:54.38 | 204595 | 217682
20 | 48:22.33 | 2:30.07 | 217683 | 228939


Range status and errors

Selected range

Filename H:\dafnaplus\Beatles Story (1962 - 1967)\Disc 2 - Rock`N Rolls\The Beatles - The Beatles Story (1962 - 1967) (Disc 2 - Rock`N Rolls) (AC-6020).wav

Peak level 100.0 %
Extraction speed 7.3 X
Range quality 100.0 %
Test CRC 1DF4D934
Copy CRC 1DF4D934
Copy OK

No errors occurred


AccurateRip summary

Track 1 accurately ripped (confidence 4) [99FA2E27] (AR v2)
Track 2 accurately ripped (confidence 4) [8662495C] (AR v2)
Track 3 accurately ripped (confidence 4) [F6368BBC] (AR v2)
Track 4 accurately ripped (confidence 4) [AB61B50D] (AR v2)
Track 5 accurately ripped (confidence 4) [A5E16530] (AR v2)
Track 6 accurately ripped (confidence 4) [EFC9E83D] (AR v2)
Track 7 accurately ripped (confidence 4) [DC1C2B3B] (AR v2)
Track 8 accurately ripped (confidence 4) [BFB586FB] (AR v2)
Track 9 accurately ripped (confidence 4) [515E44B5] (AR v2)
Track 10 accurately ripped (confidence 4) [F547327E] (AR v2)
Track 11 accurately ripped (confidence 4) [F68DCB85] (AR v2)
Track 12 accurately ripped (confidence 4) [9B36504E] (AR v2)
Track 13 accurately ripped (confidence 4) [068C5A93] (AR v2)
Track 14 accurately ripped (confidence 4) [38375E4A] (AR v2)
Track 15 accurately ripped (confidence 4) [0D6AB42C] (AR v2)
Track 16 accurately ripped (confidence 4) [FD683566] (AR v2)
Track 17 accurately ripped (confidence 4) [A140C8F8] (AR v2)
Track 18 accurately ripped (confidence 4) [0B7E8B0B] (AR v2)
Track 19 accurately ripped (confidence 4) [357F21CB] (AR v2)
Track 20 accurately ripped (confidence 4) [AD5EC012] (AR v2)

All tracks accurately ripped

End of status report

–– CUETools DB Plugin V2.1.6

[CTDB TOCID: wTeniC9hMXIRCDCoI8GfFI5bVD4-] found
Submit result: already submitted
Track | CTDB Status
1 | (8/8) Accurately ripped
2 | (8/8) Accurately ripped
3 | (8/8) Accurately ripped
4 | (8/8) Accurately ripped
5 | (8/8) Accurately ripped
6 | (8/8) Accurately ripped
7 | (8/8) Accurately ripped
8 | (8/8) Accurately ripped
9 | (8/8) Accurately ripped
10 | (8/8) Accurately ripped
11 | (8/8) Accurately ripped
12 | (8/8) Accurately ripped
13 | (8/8) Accurately ripped
14 | (8/8) Accurately ripped
15 | (8/8) Accurately ripped
16 | (8/8) Accurately ripped
17 | (8/8) Accurately ripped
18 | (8/8) Accurately ripped
19 | (8/8) Accurately ripped
20 | (8/8) Accurately ripped


==== Log checksum 40F645CE9B61FE1F06A97BA2EBA6B7B773F5FB386DFDBA96898764CF5347A779 ====

The Beatles: Japanese Bootlegs [4Box Sets, 12CD]

Tracklist CD3 - Love Ballades (AC-6021):

01. Yesterday 2:06
02. P. S. I Love You 2:05
03. Ask Me Why 2:22
04. Baby It's You 2:38
05. A Taste Of Honey 1:59
06. All My Loving 2:09
07. All I've Got To Do 2:04
08. Till There Was You 2:15
09. You Really Got A Hold On Me 3:02
10. If I Fell 2:20
11. And I Love Her 2:31
12. I'll Follow The Sun 1:49
13. Yes It Is 2:44
14. It's Only Love 1:57
15. Michelle 2:41
16. In My Life 2:26
17. Girl 2:30
18. Here There And Everywhere 2:25
19. For No One 2:01
20. She's Leaving Home 3:37

Exact Audio Copy V1.1 from 23. June 2015

EAC extraction logfile from 28. April 2016, 12:47

The Beatles / The Beatles Story (1962 - 1967) (Disc 3 - Love Ballades) (AC-6021)

Used drive : PLEXTOR DVDR PX-891SA Adapter: 1 ID: 0

Read mode : Secure
Utilize accurate stream : Yes
Defeat audio cache : Yes
Make use of C2 pointers : No

Read offset correction : 6
Overread into Lead-In and Lead-Out : No
Fill up missing offset samples with silence : Yes
Delete leading and trailing silent blocks : No
Null samples used in CRC calculations : Yes
Used interface : Native Win32 interface for Win NT & 2000

Used output format : User Defined Encoder
Selected bitrate : 128 kBit/s
Quality : High
Add ID3 tag : No
Command line compressor : C:\Program Files (x86)\Exact Audio Copy\Flac\flac.exe
Additional command line options : -V -8 -T "Genre=%genre%" -T "Artist=%artist%" -T "Title=%title%" -T "Album=%albumtitle%" -T "Date=%year%" -T "Tracknumber=%tracknr%" -T "Comment=%comment%" %source%


TOC of the extracted CD

Track | Start | Length | Start sector | End sector
––––––––––––––––––––––––––––-
1 | 0:00.00 | 2:06.32 | 0 | 9481
2 | 2:06.32 | 2:04.48 | 9482 | 18829
3 | 4:11.05 | 2:21.40 | 18830 | 29444
4 | 6:32.45 | 2:37.72 | 29445 | 41291
5 | 9:10.42 | 1:58.73 | 41292 | 50214
6 | 11:09.40 | 2:09.05 | 50215 | 59894
7 | 13:18.45 | 2:03.45 | 59895 | 69164
8 | 15:22.15 | 2:14.42 | 69165 | 79256
9 | 17:36.57 | 3:02.00 | 79257 | 92906
10 | 20:38.57 | 2:19.73 | 92907 | 103404
11 | 22:58.55 | 2:31.22 | 103405 | 114751
12 | 25:30.02 | 1:48.50 | 114752 | 122901
13 | 27:18.52 | 2:44.00 | 122902 | 135201
14 | 30:02.52 | 1:56.55 | 135202 | 143956
15 | 31:59.32 | 2:40.65 | 143957 | 156021
16 | 34:40.22 | 2:26.08 | 156022 | 166979
17 | 37:06.30 | 2:30.27 | 166980 | 178256
18 | 39:36.57 | 2:25.00 | 178257 | 189131
19 | 42:01.57 | 2:00.50 | 189132 | 198181
20 | 44:02.32 | 3:37.10 | 198182 | 214466


Range status and errors

Selected range

Filename H:\dafnaplus\Beatles Story (1962 - 1967)\Disc 3 - Love Ballades\The Beatles - The Beatles Story (1962 - 1967) (Disc 3 - Love Ballades) (AC-6021).wav

Peak level 100.0 %
Extraction speed 7.3 X
Range quality 100.0 %
Test CRC 56F90920
Copy CRC 56F90920
Copy OK

No errors occurred


AccurateRip summary

Track 1 accurately ripped (confidence 3) [F1804EF7] (AR v2)
Track 2 accurately ripped (confidence 3) [97C1BCBB] (AR v2)
Track 3 accurately ripped (confidence 3) [1EDE5E1A] (AR v2)
Track 4 accurately ripped (confidence 3) [B44B25B3] (AR v2)
Track 5 accurately ripped (confidence 3) [0FA19B41] (AR v2)
Track 6 accurately ripped (confidence 3) [11C5BF59] (AR v2)
Track 7 accurately ripped (confidence 3) [750C2591] (AR v2)
Track 8 accurately ripped (confidence 3) [BFA1B145] (AR v2)
Track 9 accurately ripped (confidence 3) [25BCECDB] (AR v2)
Track 10 accurately ripped (confidence 3) [D1475D1D] (AR v2)
Track 11 accurately ripped (confidence 3) [97F168EF] (AR v2)
Track 12 accurately ripped (confidence 3) [0518B348] (AR v2)
Track 13 accurately ripped (confidence 3) [416C3B81] (AR v2)
Track 14 accurately ripped (confidence 3) [12289C0F] (AR v2)
Track 15 accurately ripped (confidence 3) [19A3B008] (AR v2)
Track 16 accurately ripped (confidence 3) [91D9D500] (AR v2)
Track 17 accurately ripped (confidence 3) [B1499D5C] (AR v2)
Track 18 accurately ripped (confidence 3) [CE2132C7] (AR v2)
Track 19 accurately ripped (confidence 3) [D39F31CC] (AR v2)
Track 20 accurately ripped (confidence 3) [9B0BDC01] (AR v2)

All tracks accurately ripped

End of status report

–– CUETools DB Plugin V2.1.6

[CTDB TOCID: MbTg5PLPkRCxhQN10MZM_Gow2p4-] found
Submit result: already submitted
Track | CTDB Status
1 | (8/8) Accurately ripped
2 | (8/8) Accurately ripped
3 | (8/8) Accurately ripped
4 | (8/8) Accurately ripped
5 | (8/8) Accurately ripped
6 | (8/8) Accurately ripped
7 | (8/8) Accurately ripped
8 | (8/8) Accurately ripped
9 | (8/8) Accurately ripped
10 | (8/8) Accurately ripped
11 | (8/8) Accurately ripped
12 | (8/8) Accurately ripped
13 | (8/8) Accurately ripped
14 | (8/8) Accurately ripped
15 | (8/8) Accurately ripped
16 | (8/8) Accurately ripped
17 | (8/8) Accurately ripped
18 | (8/8) Accurately ripped
19 | (8/8) Accurately ripped
20 | (8/8) Accurately ripped


==== Log checksum C5A32BA3A0A178DDF3676EE6CA918E82BA46AE501BB681E46CC9C0271C52B4FB ====

The Beatles: Japanese Bootlegs [4Box Sets, 12CD]

* * *

The Beatles: Japanese Bootlegs [4Box Sets, 12CD]

The Beatles - Another The Beatles Story (1962 - 1967)
EAC | Flac(Image) + Cue + Log & MP3 CBR 320Kbps
198? | CTA AB-01/03 | Japan | ~ 936 or 368 Mb | Scans(jpg) -> 206 Mb
Classic Rock / Beat / Rock & Roll

~ 3CD: Vol. 1: 1962-1964, Vol. 2: 1964-1966 and Vol. 3: 1966-1967 ~

The Beatles: Japanese Bootlegs [4Box Sets, 12CD]

Tracklist CD1 - Vol. 1: 1962-1964 (AB-01):

01. Anna (Go To Him) 2:52
02. Do You Wanta Know A Secret 1:54
03. Misery 1:50
04. There's A Place 1:51
05. Thank You Girl 2:06
06. It Won't Be Long 2:13
07. Don't Bother Me 2:31
08. Please Mr. Postman 2:36
09. Devil In Her Heart 2:27
10. Not A Second Time 2:08
11. I Call Your Name 2:10
12. I Should Have Known Better 2:44
13. I'm Happy Just To Dance With You 1:58
14. Tell Me Why 2:12
15. Anytime At All 2:14
16. Things We Said Today 2:38
17. When I Get Home 2:19
18. I'll Be Back 2:26
19. No Reply 2:17
20. Baby's In Black 2:05

Exact Audio Copy V1.1 from 23. June 2015

EAC extraction logfile from 30. April 2016, 17:50

The Beatles / Another The Beatles Story (Vol. 1- 1962-1964) (AB-01)

Used drive : PLEXTOR DVDR PX-891SA Adapter: 1 ID: 0

Read mode : Secure
Utilize accurate stream : Yes
Defeat audio cache : Yes
Make use of C2 pointers : No

Read offset correction : 6
Overread into Lead-In and Lead-Out : No
Fill up missing offset samples with silence : Yes
Delete leading and trailing silent blocks : No
Null samples used in CRC calculations : Yes
Used interface : Native Win32 interface for Win NT & 2000

Used output format : User Defined Encoder
Selected bitrate : 128 kBit/s
Quality : High
Add ID3 tag : No
Command line compressor : C:\Program Files (x86)\Exact Audio Copy\Flac\flac.exe
Additional command line options : -V -8 -T "Genre=%genre%" -T "Artist=%artist%" -T "Title=%title%" -T "Album=%albumtitle%" -T "Date=%year%" -T "Tracknumber=%tracknr%" -T "Comment=%comment%" %source%


TOC of the extracted CD

Track | Start | Length | Start sector | End sector
––––––––––––––––––––––––––––-
1 | 0:00.00 | 2:52.00 | 0 | 12899
2 | 2:52.00 | 1:53.50 | 12900 | 21424
3 | 4:45.50 | 1:49.68 | 21425 | 29667
4 | 6:35.43 | 1:50.67 | 29668 | 37984
5 | 8:26.35 | 2:06.28 | 37985 | 47462
6 | 10:32.63 | 2:13.35 | 47463 | 57472
7 | 12:46.23 | 2:30.67 | 57473 | 68789
8 | 15:17.15 | 2:36.18 | 68790 | 80507
9 | 17:53.33 | 2:27.02 | 80508 | 91534
10 | 20:20.35 | 2:07.73 | 91535 | 101132
11 | 22:28.33 | 2:09.42 | 101133 | 110849
12 | 24:38.00 | 2:44.00 | 110850 | 123149
13 | 27:22.00 | 1:58.33 | 123150 | 132032
14 | 29:20.33 | 2:12.15 | 132033 | 141947
15 | 31:32.48 | 2:13.52 | 141948 | 151974
16 | 33:46.25 | 2:38.33 | 151975 | 163857
17 | 36:24.58 | 2:19.10 | 163858 | 174292
18 | 38:43.68 | 2:25.40 | 174293 | 185207
19 | 41:09.33 | 2:16.65 | 185208 | 195472
20 | 43:26.23 | 2:05.15 | 195473 | 204862


Range status and errors

Selected range

Filename H:\dafnaplus\Another The Beatles Story\Disc 1\The Beatles - Another The Beatles Story (Vol. 1- 1962-1964) (AB-01).wav

Peak level 90.4 %
Extraction speed 7.1 X
Range quality 100.0 %
Test CRC DB6C3A62
Copy CRC DB6C3A62
Copy OK

No errors occurred


AccurateRip summary

Track 1 accurately ripped (confidence 6) [0CB6959D] (AR v2)
Track 2 accurately ripped (confidence 6) [CC305082] (AR v2)
Track 3 accurately ripped (confidence 6) [4F677313] (AR v2)
Track 4 accurately ripped (confidence 6) [AF5657A6] (AR v2)
Track 5 accurately ripped (confidence 6) [16E842D3] (AR v2)
Track 6 accurately ripped (confidence 6) [D4FEDB90] (AR v2)
Track 7 accurately ripped (confidence 6) [E777DF17] (AR v2)
Track 8 accurately ripped (confidence 6) [A794D25B] (AR v2)
Track 9 accurately ripped (confidence 6) [F1B8B052] (AR v2)
Track 10 accurately ripped (confidence 6) [30302270] (AR v2)
Track 11 accurately ripped (confidence 6) [BA139A81] (AR v2)
Track 12 accurately ripped (confidence 6) [592114EB] (AR v2)
Track 13 accurately ripped (confidence 6) [2BCB3E7C] (AR v2)
Track 14 accurately ripped (confidence 6) [EA425B20] (AR v2)
Track 15 accurately ripped (confidence 6) [95655DFC] (AR v2)
Track 16 accurately ripped (confidence 6) [7D803F77] (AR v2)
Track 17 accurately ripped (confidence 6) [67AF91E9] (AR v2)
Track 18 accurately ripped (confidence 6) [E23E0DFE] (AR v2)
Track 19 accurately ripped (confidence 6) [ADAE1B87] (AR v2)
Track 20 accurately ripped (confidence 6) [4F870787] (AR v2)

All tracks accurately ripped

End of status report

–– CUETools DB Plugin V2.1.6

[CTDB TOCID: wVlYKXE162DWQUNwSaK_CwYikL0-] found
Submit result: wVlYKXE162DWQUNwSaK_CwYikL0- has been confirmed
Track | CTDB Status
1 | (5/5) Accurately ripped
2 | (5/5) Accurately ripped
3 | (5/5) Accurately ripped
4 | (5/5) Accurately ripped
5 | (5/5) Accurately ripped
6 | (5/5) Accurately ripped
7 | (5/5) Accurately ripped
8 | (5/5) Accurately ripped
9 | (5/5) Accurately ripped
10 | (5/5) Accurately ripped
11 | (5/5) Accurately ripped
12 | (5/5) Accurately ripped
13 | (5/5) Accurately ripped
14 | (5/5) Accurately ripped
15 | (5/5) Accurately ripped
16 | (5/5) Accurately ripped
17 | (5/5) Accurately ripped
18 | (5/5) Accurately ripped
19 | (5/5) Accurately ripped
20 | (5/5) Accurately ripped


==== Log checksum 1804E3A311186889900FC2C3E89ED9AFA3C76A467B01555769B6ECB7FDC90A95 ====

The Beatles: Japanese Bootlegs [4Box Sets, 12CD]

Tracklist CD2 - Vol. 2: 1964-1966 (AB-2):

01. Mr. Moonlight 2:40
02. Every Little Thing 2:04
03. I Don't Want To Spoil The Party 2:35
04. The Night Before 2:35
05. You've Got To Hide Your Love Away 2:11
06. I Need You 2:31
07. Another Girl 2:08
08. You're Going To Lose That Girl 2:20
09. Act Naturally 2:31
10. I've Just Seen A Face 2:06
11. Drive My Car 2:29
12. Norweigian Wood (This Bird Has Flown) 2:05
13. You Won't See Me 3:23
14. Nowhere Man 2:43
15. Think For Yourself 2:19
16. The Word 2:44
17. I'm Looking Through You 2:27
18. If I Needed Someone 2:24
19. Run For Your Life 2:24
20. Taxman 2:38

Exact Audio Copy V1.1 from 23. June 2015

EAC extraction logfile from 30. April 2016, 18:28

The Beatles / Another The Beatles Story (Vol. 2-1964-1966) (AB-02)

Used drive : PLEXTOR DVDR PX-891SA Adapter: 1 ID: 0

Read mode : Secure
Utilize accurate stream : Yes
Defeat audio cache : Yes
Make use of C2 pointers : No

Read offset correction : 6
Overread into Lead-In and Lead-Out : No
Fill up missing offset samples with silence : Yes
Delete leading and trailing silent blocks : No
Null samples used in CRC calculations : Yes
Used interface : Native Win32 interface for Win NT & 2000

Used output format : User Defined Encoder
Selected bitrate : 128 kBit/s
Quality : High
Add ID3 tag : No
Command line compressor : C:\Program Files (x86)\Exact Audio Copy\Flac\flac.exe
Additional command line options : -V -8 -T "Genre=%genre%" -T "Artist=%artist%" -T "Title=%title%" -T "Album=%albumtitle%" -T "Date=%year%" -T "Tracknumber=%tracknr%" -T "Comment=%comment%" %source%


TOC of the extracted CD

Track | Start | Length | Start sector | End sector
––––––––––––––––––––––––––––-
1 | 0:00.00 | 2:39.53 | 0 | 11977
2 | 2:39.53 | 2:03.42 | 11978 | 21244
3 | 4:43.20 | 2:34.38 | 21245 | 32832
4 | 7:17.58 | 2:35.02 | 32833 | 44459
5 | 9:52.60 | 2:11.03 | 44460 | 54287
6 | 12:03.63 | 2:30.40 | 54288 | 65577
7 | 14:34.28 | 2:08.30 | 65578 | 75207
8 | 16:42.58 | 2:19.45 | 75208 | 85677
9 | 19:02.28 | 2:30.60 | 85678 | 96987
10 | 21:33.13 | 2:05.52 | 96988 | 106414
11 | 23:38.65 | 2:29.05 | 106415 | 117594
12 | 26:07.70 | 2:04.45 | 117595 | 126939
13 | 28:12.40 | 3:22.60 | 126940 | 142149
14 | 31:35.25 | 2:43.20 | 142150 | 154394
15 | 34:18.45 | 2:19.08 | 154395 | 164827
16 | 36:37.53 | 2:43.40 | 164828 | 177092
17 | 39:21.18 | 2:27.17 | 177093 | 188134
18 | 41:48.35 | 2:24.28 | 188135 | 198962
19 | 44:12.63 | 2:23.42 | 198963 | 209729
20 | 46:36.30 | 2:38.33 | 209730 | 221612


Range status and errors

Selected range

Filename H:\dafnaplus\Another The Beatles Story\Disc 2\The Beatles - Another The Beatles Story (Vol. 2-1964-1966) (AB-02).wav

Peak level 97.1 %
Extraction speed 7.3 X
Range quality 100.0 %
Test CRC 3200EA95
Copy CRC 3200EA95
Copy OK

No errors occurred


AccurateRip summary

Track 1 accurately ripped (confidence 5) [9D91094F] (AR v2)
Track 2 accurately ripped (confidence 5) [124257B2] (AR v2)
Track 3 accurately ripped (confidence 5) [6E58E4CC] (AR v2)
Track 4 accurately ripped (confidence 5) [1C7745E6] (AR v2)
Track 5 accurately ripped (confidence 5) [0FC93FC8] (AR v2)
Track 6 accurately ripped (confidence 5) [6EDB10CB] (AR v2)
Track 7 accurately ripped (confidence 5) [F7932C35] (AR v2)
Track 8 accurately ripped (confidence 5) [826C4D76] (AR v2)
Track 9 accurately ripped (confidence 5) [EB1C1E5A] (AR v2)
Track 10 accurately ripped (confidence 5) [E554836A] (AR v2)
Track 11 accurately ripped (confidence 5) [27632054] (AR v2)
Track 12 accurately ripped (confidence 5) [029A5964] (AR v2)
Track 13 accurately ripped (confidence 5) [3C183576] (AR v2)
Track 14 accurately ripped (confidence 5) [0B698B7B] (AR v2)
Track 15 accurately ripped (confidence 5) [9B409BA1] (AR v2)
Track 16 accurately ripped (confidence 5) [E13E584A] (AR v2)
Track 17 accurately ripped (confidence 5) [892408E3] (AR v2)
Track 18 accurately ripped (confidence 5) [3D461966] (AR v2)
Track 19 accurately ripped (confidence 5) [D885CD1B] (AR v2)
Track 20 accurately ripped (confidence 5) [1947F49C] (AR v2)

All tracks accurately ripped

End of status report

–– CUETools DB Plugin V2.1.6

[CTDB TOCID: SOXL9l4QugL5d3STbSONJtj9xoc-] found
Submit result: already submitted
Track | CTDB Status
1 | (4/4) Accurately ripped
2 | (4/4) Accurately ripped
3 | (4/4) Accurately ripped
4 | (4/4) Accurately ripped
5 | (4/4) Accurately ripped
6 | (4/4) Accurately ripped
7 | (4/4) Accurately ripped
8 | (4/4) Accurately ripped
9 | (4/4) Accurately ripped
10 | (4/4) Accurately ripped
11 | (4/4) Accurately ripped
12 | (4/4) Accurately ripped
13 | (4/4) Accurately ripped
14 | (4/4) Accurately ripped
15 | (4/4) Accurately ripped
16 | (4/4) Accurately ripped
17 | (4/4) Accurately ripped
18 | (4/4) Accurately ripped
19 | (4/4) Accurately ripped
20 | (4/4) Accurately ripped


==== Log checksum 26149FEFED15D257986E2B50332C87B7A72CA885F65BBC6B654A541F992B4DB3 ====

The Beatles: Japanese Bootlegs [4Box Sets, 12CD]

Tracklist CD3 - Vol. 3: 1966-1967 (AB-03):

01. Eleanor Rigby 2:09
02. I'm Only Sleeping 3:02
03. Yellow Submarine 2:40
04. She Said She Said 2:38
05. Good Day Sunshine 2:11
06. And Your Bird Can Sing 2:02
07. Dr. Robert 2:17
08. Got To Get You Into My Life 2:31
09. Tomorrow Never Knows 3:00
10. With A Little Help From My Friends 2:50
11. Lucy In The Sky With Diamonds 3:31
12. Within You Without You 5:09
13. When I'm Sixty-Four 2:42
14. Good Morning, Good Morning 2:44
15. A Day In The Life 5:11
16. Baby You're A Rich Man 3:04
17. I Am The Walrus 4:39
18. The Fool On The Hill 3:01
19. Your Mother Should Know 2:31
20. Rain 3:02

Exact Audio Copy V1.1 from 23. June 2015

EAC extraction logfile from 30. April 2016, 18:58

The Beatles / Another The Beatles Story (Vol. 3-1966-1967) (AB-03)

Used drive : PLEXTOR DVDR PX-891SA Adapter: 1 ID: 0

Read mode : Secure
Utilize accurate stream : Yes
Defeat audio cache : Yes
Make use of C2 pointers : No

Read offset correction : 6
Overread into Lead-In and Lead-Out : No
Fill up missing offset samples with silence : Yes
Delete leading and trailing silent blocks : No
Null samples used in CRC calculations : Yes
Used interface : Native Win32 interface for Win NT & 2000

Used output format : User Defined Encoder
Selected bitrate : 128 kBit/s
Quality : High
Add ID3 tag : No
Command line compressor : C:\Program Files (x86)\Exact Audio Copy\Flac\flac.exe
Additional command line options : -V -8 -T "Genre=%genre%" -T "Artist=%artist%" -T "Title=%title%" -T "Album=%albumtitle%" -T "Date=%year%" -T "Tracknumber=%tracknr%" -T "Comment=%comment%" %source%


TOC of the extracted CD

Track | Start | Length | Start sector | End sector
––––––––––––––––––––––––––––-
1 | 0:00.00 | 2:08.73 | 0 | 9672
2 | 2:08.73 | 3:01.60 | 9673 | 23307
3 | 5:10.58 | 2:39.60 | 23308 | 35292
4 | 7:50.43 | 2:37.57 | 35293 | 47124
5 | 10:28.25 | 2:11.03 | 47125 | 56952
6 | 12:39.28 | 2:02.32 | 56953 | 66134
7 | 14:41.60 | 2:17.23 | 66135 | 76432
8 | 16:59.08 | 2:31.07 | 76433 | 87764
9 | 19:30.15 | 2:59.70 | 87765 | 101259
10 | 22:30.10 | 2:49.48 | 101260 | 113982
11 | 25:19.58 | 3:30.62 | 113983 | 129794
12 | 28:50.45 | 5:08.50 | 129795 | 152944
13 | 33:59.20 | 2:42.00 | 152945 | 165094
14 | 36:41.20 | 2:43.63 | 165095 | 177382
15 | 39:25.08 | 5:11.07 | 177383 | 200714
16 | 44:36.15 | 3:03.55 | 200715 | 214494
17 | 47:39.70 | 4:38.50 | 214495 | 235394
18 | 52:18.45 | 3:01.08 | 235395 | 248977
19 | 55:19.53 | 2:30.47 | 248978 | 260274
20 | 57:50.25 | 3:02.30 | 260275 | 273954


Range status and errors

Selected range

Filename H:\dafnaplus\Another The Beatles Story\Disc 3\The Beatles - Another The Beatles Story (Vol. 3-1966-1967) (AB-03).wav

Peak level 100.0 %
Extraction speed 7.8 X
Range quality 100.0 %
Test CRC F4C3D0A1
Copy CRC F4C3D0A1
Copy OK

No errors occurred


AccurateRip summary

Track 1 accurately ripped (confidence 4) [C0EEBBCB] (AR v2)
Track 2 accurately ripped (confidence 4) [266DAF0B] (AR v2)
Track 3 accurately ripped (confidence 4) [F3CB102D] (AR v2)
Track 4 accurately ripped (confidence 4) [1CF57B13] (AR v2)
Track 5 accurately ripped (confidence 4) [81598119] (AR v2)
Track 6 accurately ripped (confidence 4) [CDC593AF] (AR v2)
Track 7 accurately ripped (confidence 4) [3D509CB4] (AR v2)
Track 8 accurately ripped (confidence 4) [38F4674E] (AR v2)
Track 9 accurately ripped (confidence 4) [54DCC6B7] (AR v2)
Track 10 accurately ripped (confidence 4) [52CFFF3F] (AR v2)
Track 11 accurately ripped (confidence 4) [F6D887EA] (AR v2)
Track 12 accurately ripped (confidence 4) [B1DECA2B] (AR v2)
Track 13 accurately ripped (confidence 4) [99CDFF34] (AR v2)
Track 14 accurately ripped (confidence 4) [90C4C716] (AR v2)
Track 15 accurately ripped (confidence 4) [01E8D11D] (AR v2)
Track 16 accurately ripped (confidence 4) [F9BD4082] (AR v2)
Track 17 accurately ripped (confidence 4) [76A3567C] (AR v2)
Track 18 accurately ripped (confidence 4) [8E8BDFF7] (AR v2)
Track 19 accurately ripped (confidence 4) [766FC6FD] (AR v2)
Track 20 accurately ripped (confidence 4) [EB7C3AEF] (AR v2)

All tracks accurately ripped

End of status report

–– CUETools DB Plugin V2.1.6

[CTDB TOCID: Godaockz9IEkQhqubwqxfhUHMuY-] found
Submit result: already submitted
Track | CTDB Status
1 | (4/4) Accurately ripped
2 | (4/4) Accurately ripped
3 | (4/4) Accurately ripped
4 | (4/4) Accurately ripped
5 | (4/4) Accurately ripped
6 | (4/4) Accurately ripped
7 | (4/4) Accurately ripped
8 | (4/4) Accurately ripped
9 | (4/4) Accurately ripped
10 | (4/4) Accurately ripped
11 | (4/4) Accurately ripped
12 | (4/4) Accurately ripped
13 | (4/4) Accurately ripped
14 | (4/4) Accurately ripped
15 | (4/4) Accurately ripped
16 | (4/4) Accurately ripped
17 | (4/4) Accurately ripped
18 | (4/4) Accurately ripped
19 | (4/4) Accurately ripped
20 | (4/4) Accurately ripped


==== Log checksum 65D3DCE3F2811C9CD5130C70B2D07019497E1B63DAC004B258D9A555E499C789 ====

The Beatles: Japanese Bootlegs [4Box Sets, 12CD]

* * *

The Beatles: Japanese Bootlegs [4Box Sets, 12CD]

Super Selection 1962-1967
EAC | Flac(Image) + Cue + Log & MP3 CBR 320Kbps
1985 | Echo Industry EBC-216/217/218 | ~ 1016 or 3441 Mb | Scans(jpg) -> 151 Mb
Classic Rock / Beat

~ Rare 3CD Box Set. 54 Tracks. Japan ~

The Beatles: Japanese Bootlegs [4Box Sets, 12CD]

Tracklist CD1 - 1962 - 1967 (EBC-216):

01. Love Me Do 2:24
02. Please Please Me 2:03
03. From Me To You 2:00
04. She Loves You 2:23
05. I Want To Hold Your Hand 2:28
06. All My Loving 2:10
07. Can't Buy Me Love 2:15
08. A Hard Day's Night 2:32
09. And I Love Her 2:32
10. Eight Days A Week 2:45
11. I Feel Fine 2:22
12. Ticket To Ride 3:13
13. Yesterday 2:07
14. Help! 2:21
15. You've Got To Hide Your Love Away 2:12
16. We Can Work It Out 2:17
17. Day Tripper 2:51
18. Drive My Car 2:27

Exact Audio Copy V1.3 from 2. September 2016

EAC extraction logfile from 28. February 2020, 14:50

The Beatles / Super Selection 1962-1967 (Part-1)

Used drive : ASUS DRW-24D5MT Adapter: 1 ID: 0

Read mode : Secure
Utilize accurate stream : Yes
Defeat audio cache : Yes
Make use of C2 pointers : No

Read offset correction : 6
Overread into Lead-In and Lead-Out : No
Fill up missing offset samples with silence : Yes
Delete leading and trailing silent blocks : No
Null samples used in CRC calculations : Yes
Used interface : Native Win32 interface for Win NT & 2000

Used output format : User Defined Encoder
Selected bitrate : 768 kBit/s
Quality : High
Add ID3 tag : No
Command line compressor : C:\Program Files (x86)\Exact Audio Copy\Flac\flac.exe
Additional command line options : -V -8 -T "Genre=%genre%" -T "Artist=%artist%" -T "Title=%title%" -T "Album=%albumtitle%" -T "Date=%year%" -T "Tracknumber=%tracknr%" -T "Comment=%comment%" %source%


TOC of the extracted CD

Track | Start | Length | Start sector | End sector
––––––––––––––––––––––––––––-
1 | 0:00.00 | 2:23.50 | 0 | 10774
2 | 2:23.50 | 2:03.30 | 10775 | 20029
3 | 4:27.05 | 1:59.55 | 20030 | 29009
4 | 6:26.60 | 2:23.28 | 29010 | 39762
5 | 8:50.13 | 2:28.37 | 39763 | 50899
6 | 11:18.50 | 2:09.63 | 50900 | 60637
7 | 13:28.38 | 2:14.65 | 60638 | 70752
8 | 15:43.28 | 2:31.67 | 70753 | 82144
9 | 18:15.20 | 2:31.53 | 82145 | 93522
10 | 20:46.73 | 2:45.17 | 93523 | 105914
11 | 23:32.15 | 2:22.03 | 105915 | 116567
12 | 25:54.18 | 3:12.55 | 116568 | 131022
13 | 29:06.73 | 2:07.30 | 131023 | 140577
14 | 31:14.28 | 2:20.52 | 140578 | 151129
15 | 33:35.05 | 2:11.45 | 151130 | 160999
16 | 35:46.50 | 2:17.33 | 161000 | 171307
17 | 38:04.08 | 2:50.67 | 171308 | 184124
18 | 40:55.00 | 2:27.13 | 184125 | 195162


Range status and errors

Selected range

Filename I:\dafnaplus\The Beatles - Super Selection 1962-1967\Disc 1\The Beatles - Super Selection 1962-1967 (Part-1).wav

Peak level 90.5 %
Extraction speed 6.4 X
Range quality 100.0 %
Test CRC 0CE8CC36
Copy CRC 0CE8CC36
Copy OK

No errors occurred


AccurateRip summary

Track 1 accurately ripped (confidence 10) [710ABC0A] (AR v2)
Track 2 accurately ripped (confidence 10) [F40BDE37] (AR v2)
Track 3 accurately ripped (confidence 10) [555A550E] (AR v2)
Track 4 accurately ripped (confidence 10) [C56E57AA] (AR v2)
Track 5 accurately ripped (confidence 10) [A246AA5D] (AR v2)
Track 6 accurately ripped (confidence 10) [779EEC63] (AR v2)
Track 7 accurately ripped (confidence 10) [566C9F31] (AR v2)
Track 8 accurately ripped (confidence 10) [C2639FE3] (AR v2)
Track 9 accurately ripped (confidence 10) [A3F72AB3] (AR v2)
Track 10 accurately ripped (confidence 10) [B41F483D] (AR v2)
Track 11 accurately ripped (confidence 10) [4FC48A4D] (AR v2)
Track 12 accurately ripped (confidence 10) [2AC85E45] (AR v2)
Track 13 accurately ripped (confidence 10) [B4E1EA31] (AR v2)
Track 14 accurately ripped (confidence 10) [2E0FDB79] (AR v2)
Track 15 accurately ripped (confidence 10) [2CDFEFFB] (AR v2)
Track 16 accurately ripped (confidence 10) [F1FAE68B] (AR v2)
Track 17 accurately ripped (confidence 10) [65ACBC19] (AR v2)
Track 18 accurately ripped (confidence 10) [574FD9BF] (AR v2)

All tracks accurately ripped

End of status report

–– CUETools DB Plugin V2.1.6

[CTDB TOCID: GkGy3qS460AkqoWOZpSV1wSaB44-] found
Submit result: GkGy3qS460AkqoWOZpSV1wSaB44- has been confirmed
Track | CTDB Status
1 | (36/38) Accurately ripped
2 | (36/38) Accurately ripped
3 | (36/38) Accurately ripped
4 | (36/38) Accurately ripped
5 | (36/38) Accurately ripped
6 | (36/38) Accurately ripped
7 | (36/38) Accurately ripped
8 | (36/38) Accurately ripped
9 | (36/38) Accurately ripped
10 | (35/38) Accurately ripped
11 | (36/38) Accurately ripped
12 | (36/38) Accurately ripped
13 | (36/38) Accurately ripped
14 | (35/38) Accurately ripped
15 | (36/38) Accurately ripped
16 | (36/38) Accurately ripped
17 | (36/38) Accurately ripped
18 | (35/38) Accurately ripped


==== Log checksum 77878C06DE6655F2C5CD14D0EFBE4D82905B716CA6D460DC549202CC357D0146 ====


[CUETools log; Date: 03.03.2020 10:08:49; Version: 2.1.4]
[AccurateRip ID: 001baf4b-0174014e-060a2a12] found.
Track [ CRC | V2 ] Status
01 [da870913|710abc0a] (04+10/14) Accurately ripped
02 [0bf67c95|f40bde37] (04+10/14) Accurately ripped
03 [46a62352|555a550e] (04+10/14) Accurately ripped
04 [c72c2254|c56e57aa] (04+10/14) Accurately ripped
05 [e59a0a83|a246aa5d] (04+10/14) Accurately ripped
06 [03da4d61|779eec63] (04+10/14) Accurately ripped
07 [b2e587f1|566c9f31] (04+10/14) Accurately ripped
08 [6978fdf7|c2639fe3] (04+10/14) Accurately ripped
09 [3966745b|a3f72ab3] (04+10/14) Accurately ripped
10 [edb5c39c|b41f483d] (04+10/14) Accurately ripped
11 [c4b4d815|4fc48a4d] (04+10/14) Accurately ripped
12 [dcf330c2|2ac85e45] (03+10/13) Accurately ripped
13 [effd7d4e|b4e1ea31] (04+10/14) Accurately ripped
14 [34bebf95|2e0fdb79] (04+10/14) Accurately ripped
15 [745273ba|2cdfeffb] (03+10/13) Accurately ripped
16 [2a9fbeb5|f1fae68b] (04+10/14) Accurately ripped
17 [9c7fab16|65acbc19] (04+10/14) Accurately ripped
18 [18473fbb|574fd9bf] (04+10/14) Accurately ripped

Track Peak [ CRC32 ] [W/O NULL] [ LOG ]
– 90,5 [0CE8CC36] [6A48727A] CRC32
01 83,8 [23D349FB] [D56EB6D6]
02 90,5 [C0AE040B] [F35D3433]
03 75,2 [A11A14A0] [1F510EE6]
04 79,7 [EF483C08] [F110C828]
05 75,3 [6DD82B6A] [BAFF9CAD]
06 62,1 [4C876A02] [46150FF6]
07 75,1 [DE44DB5A] [C183733D]
08 78,6 [978D3219] [A68F4E2C]
09 70,4 [8451E898] [BF694FA5]
10 66,1 [DC7F0B95] [6C44EBDE]
11 90,5 [8F5CB128] [8C60F084]
12 82,4 [DEEF083C] [6D0C97C4]
13 65,6 [4370C999] [64545071]
14 61,9 [DEDE5E1A] [B9C88837]
15 68,7 [2A65DE6E] [093A6C92]
16 89,3 [F090513F] [60E61F83]
17 79,1 [5FEFEA0E] [3652FEFC]
18 73,9 [5E18BDBB] [0743A3AC]


The Beatles: Japanese Bootlegs [4Box Sets, 12CD]

Tracklist CD2 - 1962 - 1967 (EBC-217):

01. Norwegian Wood (This Bird Has Flown) 2:06
02. Nowhere Man 2:44
03. Michelle 2:42
04. In My Life 2:28
05. Girl 2:34
06. Paperback Writer 2:19
07. Eleanor Rigby 2:08
08. Yellow Submarine 2:40
09. Strawberry Field Forever 4:11
10. Penny Lane 3:04
11. Sgt. Pepper's Lonely Hearts Club Band 2:01
12. With A Little Help From My Friends 2:44
13. Lucy In The Sky With Diamonds 3:28
14. A Day In The Life 5:36
15. All You Need Is Love 3:51
16. I Am The Walrus 4:37
17. Hello Goodbye 3:31
18. The Fool On The Hill 2:57

Exact Audio Copy V1.3 from 2. September 2016

EAC extraction logfile from 28. February 2020, 15:16

The Beatles / Super Selection 1962-1967 (Part-2)

Used drive : ASUS DRW-24D5MT Adapter: 1 ID: 0

Read mode : Secure
Utilize accurate stream : Yes
Defeat audio cache : Yes
Make use of C2 pointers : No

Read offset correction : 6
Overread into Lead-In and Lead-Out : No
Fill up missing offset samples with silence : Yes
Delete leading and trailing silent blocks : No
Null samples used in CRC calculations : Yes
Used interface : Native Win32 interface for Win NT & 2000

Used output format : User Defined Encoder
Selected bitrate : 768 kBit/s
Quality : High
Add ID3 tag : No
Command line compressor : C:\Program Files (x86)\Exact Audio Copy\Flac\flac.exe
Additional command line options : -V -8 -T "Genre=%genre%" -T "Artist=%artist%" -T "Title=%title%" -T "Album=%albumtitle%" -T "Date=%year%" -T "Tracknumber=%tracknr%" -T "Comment=%comment%" %source%


TOC of the extracted CD

Track | Start | Length | Start sector | End sector
––––––––––––––––––––––––––––-
1 | 0:00.00 | 2:06.32 | 0 | 9481
2 | 2:06.32 | 2:44.25 | 9482 | 21806
3 | 4:50.57 | 2:42.25 | 21807 | 33981
4 | 7:33.07 | 2:27.70 | 33982 | 45076
5 | 10:01.02 | 2:33.63 | 45077 | 56614
6 | 12:34.65 | 2:18.72 | 56615 | 67036
7 | 14:53.62 | 2:07.53 | 67037 | 76614
8 | 17:01.40 | 2:40.32 | 76615 | 88646
9 | 19:41.72 | 4:10.38 | 88647 | 107434
10 | 23:52.35 | 3:04.05 | 107435 | 121239
11 | 26:56.40 | 2:00.67 | 121240 | 130306
12 | 28:57.32 | 2:44.08 | 130307 | 142614
13 | 31:41.40 | 3:28.27 | 142615 | 158241
14 | 35:09.67 | 5:36.03 | 158242 | 183444
15 | 40:45.70 | 3:51.17 | 183445 | 200786
16 | 44:37.12 | 4:37.18 | 200787 | 221579
17 | 49:14.30 | 3:31.25 | 221580 | 237429
18 | 52:45.55 | 2:57.37 | 237430 | 250741


Range status and errors

Selected range

Filename I:\dafnaplus\The Beatles - Super Selection 1962-1967\Disc 2\The Beatles - Super Selection 1962-1967 (Part-2).wav

Peak level 99.9 %
Extraction speed 6.7 X
Range quality 99.9 %
Test CRC E54A901A
Copy CRC E54A901A
Copy OK

No errors occurred


AccurateRip summary

Track 1 accurately ripped (confidence 8) [E797B2A1] (AR v2)
Track 2 accurately ripped (confidence 8) [77B7DF0A] (AR v2)
Track 3 accurately ripped (confidence 8) [616A0CD9] (AR v2)
Track 4 accurately ripped (confidence 8) [7CD42825] (AR v2)
Track 5 accurately ripped (confidence 8) [956B104F] (AR v2)
Track 6 accurately ripped (confidence 8) [2F93A2D1] (AR v2)
Track 7 accurately ripped (confidence 8) [C0DA01E2] (AR v2)
Track 8 accurately ripped (confidence 8) [57553269] (AR v2)
Track 9 accurately ripped (confidence 8) [3581C02F] (AR v2)
Track 10 accurately ripped (confidence 8) [4ADA84E9] (AR v2)
Track 11 accurately ripped (confidence 8) [A4B52A1F] (AR v2)
Track 12 accurately ripped (confidence 8) [5A23297F] (AR v2)
Track 13 accurately ripped (confidence 8) [F3AFBB3C] (AR v2)
Track 14 accurately ripped (confidence 8) [A80C4534] (AR v2)
Track 15 accurately ripped (confidence 8) [8F9D9314] (AR v2)
Track 16 accurately ripped (confidence 8) [1F7EB984] (AR v2)
Track 17 accurately ripped (confidence 8) [005D9C4C] (AR v2)
Track 18 accurately ripped (confidence 8) [769E27E9] (AR v2)

All tracks accurately ripped

End of status report

–– CUETools DB Plugin V2.1.6

[CTDB TOCID: N7iIrAdTpzjQxCdsZHaGRYcl6AM-] found
Submit result: N7iIrAdTpzjQxCdsZHaGRYcl6AM- has been confirmed
Track | CTDB Status
1 | (35/37) Accurately ripped
2 | (35/37) Accurately ripped
3 | (37/37) Accurately ripped
4 | (34/37) Accurately ripped
5 | (36/37) Accurately ripped
6 | (37/37) Accurately ripped
7 | (35/37) Accurately ripped
8 | (36/37) Accurately ripped
9 | (35/37) Accurately ripped
10 | (34/37) Accurately ripped
11 | (35/37) Accurately ripped
12 | (36/37) Accurately ripped
13 | (37/37) Accurately ripped
14 | (34/37) Accurately ripped
15 | (35/37) Accurately ripped
16 | (34/37) Accurately ripped
17 | (33/37) Accurately ripped
18 | (33/37) Accurately ripped


==== Log checksum 3372219BC666C7838C5E463F2CF7E7CA5440BA67FBC1502D9E382E4BE7A47991 ====


[CUETools log; Date: 03.03.2020 10:11:02; Version: 2.1.4]
[AccurateRip ID: 0020da7d-01c1c255-fe0d0f12] found.
Track [ CRC | V2 ] Status
01 [3543bfb3|e797b2a1] (03+08/16) Accurately ripped
02 [08914f92|77b7df0a] (03+08/16) Accurately ripped
03 [29149417|616a0cd9] (03+08/16) Accurately ripped
04 [cfd1fd36|7cd42825] (03+08/16) Accurately ripped
05 [f78e1c8e|956b104f] (03+08/16) Accurately ripped
06 [ffcbaa31|2f93a2d1] (03+08/16) Accurately ripped
07 [a901c881|c0da01e2] (03+08/16) Accurately ripped
08 [9558fd9b|57553269] (03+08/16) Accurately ripped
09 [06358bc8|3581c02f] (03+08/16) Accurately ripped
10 [f28d7b3b|4ada84e9] (03+08/16) Accurately ripped
11 [fb24ff4a|a4b52a1f] (03+08/16) Accurately ripped
12 [70887963|5a23297f] (03+08/16) Accurately ripped
13 [ee4052ab|f3afbb3c] (03+08/16) Accurately ripped
14 [a5256a0f|a80c4534] (03+08/16) Accurately ripped
15 [44367dac|8f9d9314] (03+08/16) Accurately ripped
16 [c1bc1827|1f7eb984] (03+08/16) Accurately ripped
17 [7f58cf9b|005d9c4c] (03+08/16) Accurately ripped
18 [e989d087|769e27e9] (03+08/16) Accurately ripped
Offsetted by 190:
01 [3e014c5e] (02/16) Accurately ripped
02 [9a9bfc53] (02/16) Accurately ripped
03 [4dd234f7] (02/16) Accurately ripped
04 [ace5c6fd] (02/16) Accurately ripped
05 [74aee79f] (02/16) Accurately ripped
06 [9fbcaf2e] (02/16) Accurately ripped
07 [7b3325a9] (02/16) Accurately ripped
08 [6d1080fd] (02/16) Accurately ripped
09 [364cc15e] (02/16) Accurately ripped
10 [69bd09a1] (02/16) Accurately ripped
11 [7e6e351c] (02/16) Accurately ripped
12 [87e06c09] (02/16) Accurately ripped
13 [eb5237c0] (02/16) Accurately ripped
14 [934249b3] (02/16) Accurately ripped
15 [7190a4ec] (02/16) Accurately ripped
16 [e37ecb86] (02/16) Accurately ripped
17 [60fbcadf] (02/16) Accurately ripped
18 [b1566766] (02/16) Accurately ripped

Track Peak [ CRC32 ] [W/O NULL] [ LOG ]
– 99,9 [E54A901A] [D29FCC33] CRC32
01 99,1 [AC0E8C6E] [EDE73D75]
02 99,9 [5347C346] [1CF48F41]
03 61,9 [1109513E] [A2348C6E]
04 80,9 [43C31AF3] [996D3E41]
05 76,2 [6832A63C] [8B7C781B]
06 91,0 [EBCE40C5] [8151479C]
07 67,5 [5C8DAD93] [134D3B3D]
08 89,2 [9326145F] [53D7C962]
09 85,2 [D6887E4B] [848C7635]
10 56,9 [FBF21741] [3CB6BF3A]
11 98,8 [38A93207] [4F54D1F7]
12 77,9 [AF3E6FF9] [35B8AAE1]
13 67,2 [88CB6A0F] [61BD308C]
14 60,5 [E8431E6B] [16E74AAB]
15 96,9 [922B634B] [CDCFB438]
16 75,9 [324B9B02] [D0D8D996]
17 84,9 [0A718018] [B915E458]
18 64,1 [C09C67CC] [BA1362FD]


The Beatles: Japanese Bootlegs [4Box Sets, 12CD]

Tracklist CD3 - 1962 - 1967 (EBC-218):

01. Thank You Girl 2:06
02. I'll Get You 2:08
03. This Boy 2:17
04. Money 2:50
05. Long Tall Sally 2:03
06. I Call Your Name 2:09
07. Slow Down 2:56
08. Matchbox 2:01
09. She's A Woman 3:05
10. I'll Be Back 2:23
11. No Reply 2:17
12. Rock and Roll Music 2:33
13. Mr. Moonlight 2:36
14. Bad Boy 2:21
15. Yes It Is 2:43
16. I'm Down 2:33
17. Your Mother Should Know 2:30
18. Magical Mystery Tour 2:49

Exact Audio Copy V1.3 from 2. September 2016

EAC extraction logfile from 28. February 2020, 15:39

The Beatles / Super Selection 1962-1967 (Part-3)

Used drive : ASUS DRW-24D5MT Adapter: 1 ID: 0

Read mode : Secure
Utilize accurate stream : Yes
Defeat audio cache : Yes
Make use of C2 pointers : No

Read offset correction : 6
Overread into Lead-In and Lead-Out : No
Fill up missing offset samples with silence : Yes
Delete leading and trailing silent blocks : No
Null samples used in CRC calculations : Yes
Used interface : Native Win32 interface for Win NT & 2000

Used output format : User Defined Encoder
Selected bitrate : 768 kBit/s
Quality : High
Add ID3 tag : No
Command line compressor : C:\Program Files (x86)\Exact Audio Copy\Flac\flac.exe
Additional command line options : -V -8 -T "Genre=%genre%" -T "Artist=%artist%" -T "Title=%title%" -T "Album=%albumtitle%" -T "Date=%year%" -T "Tracknumber=%tracknr%" -T "Comment=%comment%" %source%


TOC of the extracted CD

Track | Start | Length | Start sector | End sector
––––––––––––––––––––––––––––-
1 | 0:00.00 | 2:06.02 | 0 | 9451
2 | 2:06.02 | 2:07.58 | 9452 | 19034
3 | 4:13.60 | 2:17.27 | 19035 | 29336
4 | 6:31.12 | 2:50.10 | 29337 | 42096
5 | 9:21.22 | 2:03.13 | 42097 | 51334
6 | 11:24.35 | 2:09.02 | 51335 | 61011
7 | 13:33.37 | 2:56.25 | 61012 | 74236
8 | 16:29.62 | 2:00.58 | 74237 | 83294
9 | 18:30.45 | 3:05.32 | 83295 | 97201
10 | 21:36.02 | 2:22.68 | 97202 | 107919
11 | 23:58.70 | 2:16.65 | 107920 | 118184
12 | 26:15.60 | 2:33.12 | 118185 | 129671
13 | 28:48.72 | 2:35.70 | 129672 | 141366
14 | 31:24.67 | 2:20.43 | 141367 | 151909
15 | 33:45.35 | 2:42.52 | 151910 | 164111
16 | 36:28.12 | 2:33.28 | 164112 | 175614
17 | 39:01.40 | 2:30.30 | 175615 | 186894
18 | 41:31.70 | 2:49.12 | 186895 | 199581


Range status and errors

Selected range

Filename I:\dafnaplus\The Beatles - Super Selection 1962-1967\Disc 3\The Beatles - Super Selection 1962-1967 (Part-3).wav

Peak level 100.0 %
Extraction speed 6.3 X
Range quality 100.0 %
Test CRC 847546D1
Copy CRC 847546D1
Copy OK

No errors occurred


AccurateRip summary

Track 1 accurately ripped (confidence 1) [3D2B57D9] (AR v2)
Track 2 accurately ripped (confidence 1) [9D23064F] (AR v2)
Track 3 accurately ripped (confidence 1) [F741E7C2] (AR v2)
Track 4 accurately ripped (confidence 1) [97FBCD70] (AR v2)
Track 5 accurately ripped (confidence 1) [AABE8559] (AR v2)
Track 6 accurately ripped (confidence 1) [BE872914] (AR v2)
Track 7 accurately ripped (confidence 1) [55B2946B] (AR v2)
Track 8 accurately ripped (confidence 1) [EC112507] (AR v2)
Track 9 accurately ripped (confidence 1) [448A3CE3] (AR v2)
Track 10 accurately ripped (confidence 1) [E3C5540C] (AR v2)
Track 11 accurately ripped (confidence 1) [C5FBC41B] (AR v2)
Track 12 accurately ripped (confidence 1) [11E4E09E] (AR v2)
Track 13 accurately ripped (confidence 1) [00B12162] (AR v2)
Track 14 accurately ripped (confidence 1) [33DD2B43] (AR v2)
Track 15 accurately ripped (confidence 1) [7085B7B9] (AR v2)
Track 16 accurately ripped (confidence 1) [34C33C39] (AR v2)
Track 17 accurately ripped (confidence 1) [8345DD5A] (AR v2)
Track 18 accurately ripped (confidence 1) [A6855DB8] (AR v2)

All tracks accurately ripped

End of status report

–– CUETools DB Plugin V2.1.6

[CTDB TOCID: KxpMbBGjSnJcBlyKGmaxIUcnkrI-] found
Submit result: KxpMbBGjSnJcBlyKGmaxIUcnkrI- has been confirmed
Track | CTDB Status
1 | (25/26) Accurately ripped
2 | (25/26) Accurately ripped
3 | (25/26) Accurately ripped
4 | (25/26) Accurately ripped
5 | (25/26) Accurately ripped
6 | (25/26) Accurately ripped
7 | (25/26) Accurately ripped
8 | (25/26) Accurately ripped
9 | (25/26) Accurately ripped
10 | (25/26) Accurately ripped
11 | (22/26) Accurately ripped
12 | (20/26) Accurately ripped
13 | (25/26) Accurately ripped
14 | (25/26) Accurately ripped
15 | (25/26) Accurately ripped
16 | (25/26) Accurately ripped
17 | (25/26) Accurately ripped
18 | (21/26) Accurately ripped


==== Log checksum 7E4F502910988CCB1C85C365E9B4CD804ECBAB45B9122B79CB08D5A46FE54964 ====


[CUETools log; Date: 03.03.2020 10:12:50; Version: 2.1.4]
[AccurateRip ID: 001c1c54-0179f8e3-f80a6512] found.
Track [ CRC | V2 ] Status
01 [0c099d8b|3d2b57d9] (0+1/3) Accurately ripped
02 [4939d7c0|9d23064f] (0+1/3) Accurately ripped
03 [f6112a6e|f741e7c2] (0+1/3) Accurately ripped
04 [93367370|97fbcd70] (0+1/3) Accurately ripped
05 [0df3d22a|aabe8559] (0+1/3) Accurately ripped
06 [a048560d|be872914] (0+1/3) Accurately ripped
07 [4c6b3f5d|55b2946b] (0+1/3) Accurately ripped
08 [3d8326c4|ec112507] (0+1/3) Accurately ripped
09 [870b9c61|448a3ce3] (0+1/3) Accurately ripped
10 [078bf63a|e3c5540c] (0+1/3) Accurately ripped
11 [48f71ccb|c5fbc41b] (0+1/3) Accurately ripped
12 [78fa3dda|11e4e09e] (0+1/3) Accurately ripped
13 [037eec89|00b12162] (0+1/3) Accurately ripped
14 [ca73ebb5|33dd2b43] (0+1/3) Accurately ripped
15 [0643ce92|7085b7b9] (0+1/3) Accurately ripped
16 [7bbeae10|34c33c39] (0+1/3) Accurately ripped
17 [a3badaeb|8345dd5a] (0+1/3) Accurately ripped
18 [9d465e99|a6855db8] (0+1/3) Accurately ripped

Track Peak [ CRC32 ] [W/O NULL] [ LOG ]
– 100,0 [847546D1] [A9D88187] CRC32
01 74,9 [A33D99E0] [618DC739]
02 90,5 [D2586D53] [FC2315C6]
03 76,5 [EC2213D0] [D018ADD1]
04 77,6 [733921C4] [73C6AD91]
05 96,1 [7EE3E91E] [BD459D2E]
06 80,2 [3E4F5997] [A5D46594]
07 95,9 [C3C936B6] [5230B15F]
08 84,8 [20775C14] [BF58F0A6]
09 90,6 [38C1C670] [02D488E8]
10 86,5 [02321A70] [8C5262AB]
11 92,7 [929B93E6] [3B204398]
12 77,3 [8E3F4400] [5E2D6246]
13 68,5 [B5240CCC] [F499DC5C]
14 90,3 [F5EF2EAD] [A2CFB086]
15 90,1 [57F1F08A] [C4F15CCB]
16 100,0 [EE7245F1] [8A56B271]
17 65,1 [E9AF86AF] [A8D72761]
18 98,6 [4922E2AC] [5B2F4CDF]


The Beatles: Japanese Bootlegs [4Box Sets, 12CD]

All thanks go to dafnaplus

The Beatles in my Blog

Download The Beatles: Japanese Bootlegs: