Tags
Language
Tags

Ry Cooder - The Long Riders: Original Sound Track (1980)

Posted By: Designol
Ry Cooder - The Long Riders: Original Sound Track (1980)

Ry Cooder - The Long Riders: Original Sound Track (1980)
EAC | FLAC | Image (Cue&Log) ~ 221 Mb | Mp3 (CBR320) ~ 118 Mb | Scans included
Label: Warner Bros. | # 7599-23448-2 | Time: 00:35:42
Soundtrack, Folk, Country, Country Blues, Country Rock

Ry Cooder's soundtrack for The Long Riders received a top-notch treatment from Warner Bros. (Japan), who not only did an excellent remastering job, but backed it up with English lyrics to the songs, notes, and a Japanese insert. Cooder was in fine form with this score, using original material, unusual and anachronistic instruments (saz, tamboura, electric guitar), and elements of traditional songs from the Civil War period. As a result, the album can be appreciated as a unique entity, away from the film – and bonded to the film, the music provides grace and power to the onscreen events.

Review by Steven McDonald, Allmusic.com

Ry Cooder Biography
Ry Cooder at Wiki

Film at IMDB
Film at Wiki

Tracklist:

01. The Long Riders (03:14)
02. I'm A Good Old Rebel (02:19)
03. Seneca Square Dance (01:58)
04. Archie's Funeral (Hold to God's Unchanging Hand) (02:40)
05. I Always Knew That You Were The One (03:05)
06. Rally 'Round The Flag (04:21)
07. Wildwood Boys (04:13)
08. Better Things To Think About (01:26)
09. Jesse James (02:24)
10. Cole Younger Polka (02:23)
11. Escape From Northfield (01:15)
12. Leaving Missouri (00:58)
13. Jesse James (05:04)


Exact Audio Copy V1.0 beta 3 from 29. August 2011

Отчёт EAC об извлечении, выполненном 22. ноября 2014, 18:46

Ry Cooder / The Long Riders

Дисковод: SONY CD-RW CRX230ED Adapter: 0 ID: 1

Режим чтения : Достоверность
Использование точного потока : Да
Отключение кэша аудио : Да
Использование указателей C2 : Нет

Коррекция смещения при чтении : 6
Способность читать области Lead-in и Lead-out : Нет
Заполнение пропущенных сэмплов тишиной : Да
Удаление блоков с тишиной в начале и конце : Нет
При вычислениях CRC использовались нулевые сэмплы : Да
Интерфейс : Встроенный Win32-интерфейс для Win NT/2000

Выходной формат : Внутренние WAV-операции
Формат сэмплов : 44.100 Гц; 16 бит; стерео


TOC извлечённого CD

Трек | Старт | Длительность | Начальный сектор | Конечный сектор
––––––––––––––––––––––––––––––––––-
1 | 0:00.00 | 3:16.22 | 0 | 14721
2 | 3:16.22 | 2:19.55 | 14722 | 25201
3 | 5:36.02 | 2:00.10 | 25202 | 34211
4 | 7:36.12 | 2:42.45 | 34212 | 46406
5 | 10:18.57 | 3:08.00 | 46407 | 60506
6 | 13:26.57 | 4:23.25 | 60507 | 80256
7 | 17:50.07 | 4:15.05 | 80257 | 99386
8 | 22:05.12 | 1:26.30 | 99387 | 105866
9 | 23:31.42 | 2:26.35 | 105867 | 116851
10 | 25:58.02 | 2:24.38 | 116852 | 127689
11 | 28:22.40 | 1:15.00 | 127690 | 133314
12 | 29:37.40 | 0:59.40 | 133315 | 137779
13 | 30:37.05 | 5:04.40 | 137780 | 160619


Характеристики диапазона извлечения и сообщения об ошибках

Выбранный диапазон

Имя файла F:\MusicCD\Ry Cooder - The Long Riders\Ry Cooder - The Long Riders.wav

Пиковый уровень 100.0 %
Скорость извлечения 6.9 X
Качество диапазона 100.0 %
CRC теста 85FB4EA8
CRC копии 85FB4EA8
Копирование… OK

Ошибок не произошло


AccurateRip: сводка

Трек 1 : извлечено точно (доверие 8) [CC399F90] (AR v2)
Трек 2 : извлечено точно (доверие 8) [9B53FF34] (AR v2)
Трек 3 : извлечено точно (доверие 8) [15F21622] (AR v2)
Трек 4 : извлечено точно (доверие 8) [03E7B9DA] (AR v2)
Трек 5 : извлечено точно (доверие 8) [92D2381C] (AR v2)
Трек 6 : извлечено точно (доверие 8) [3C1ABFDD] (AR v2)
Трек 7 : извлечено точно (доверие 8) [AC4F9322] (AR v2)
Трек 8 : извлечено точно (доверие 8) [1BD69B7D] (AR v2)
Трек 9 : извлечено точно (доверие 8) [EE191AF4] (AR v2)
Трек 10 : извлечено точно (доверие 8) [868D22A4] (AR v2)
Трек 11 : извлечено точно (доверие 8) [63697891] (AR v2)
Трек 12 : извлечено точно (доверие 8) [0E971C5D] (AR v2)
Трек 13 : извлечено точно (доверие 8) [8550FC2E] (AR v2)

Все треки извлечены точно

Конец отчёта

==== Контрольная сумма отчёта 199B2D15B73F2E6401A73A8E486E9E6D48E44E470BB26A50DB1DAEAEE2E3DB61 ====

foobar2000 1.2 / Dynamic Range Meter 1.1.1
log date: 2016-12-21 17:01:02

––––––––––––––––––––––––––––––––––––––––
Analyzed: Ry Cooder / The Long Riders
––––––––––––––––––––––––––––––––––––––––

DR Peak RMS Duration Track
––––––––––––––––––––––––––––––––––––––––
DR15 -1.49 dB -22.09 dB 3:16 01-The Long Riders
DR14 -3.38 dB -20.53 dB 2:20 02-I'm A Good Old Rebel
DR12 -4.54 dB -19.00 dB 2:00 03-Seneca Square Dance
DR15 -4.31 dB -24.46 dB 2:43 04-Archie's Funeral (Hold to God's Unchanging Hand)
DR14 -7.23 dB -24.34 dB 3:08 05-I Always Knew That You Were The One
DR13 -1.01 dB -17.80 dB 4:23 06-Rally 'Round The Flag
DR14 -3.24 dB -21.49 dB 4:15 07-Wildwood Boys
DR11 -13.23 dB -28.51 dB 1:26 08-Better Things To Think About
DR18 -5.68 dB -29.08 dB 2:26 09-Jesse James
DR14 -4.70 dB -20.94 dB 2:25 10-Cole Younger Polka
DR10 -14.76 dB -30.83 dB 1:15 11-Escape From Northfield
DR14 -12.76 dB -32.32 dB 1:00 12-Leaving Missouri
DR14 0.00 dB -18.36 dB 5:05 13-Jesse James
––––––––––––––––––––––––––––––––––––––––

Number of tracks: 13
Official DR value: DR14

Samplerate: 44100 Hz
Channels: 2
Bits per sample: 16
Bitrate: 721 kbps
Codec: FLAC
================================================================================

Ry Cooder - The Long Riders: Original Sound Track (1980)

Ry Cooder - The Long Riders: Original Sound Track (1980)

All thanks to original releaser - squirr

More interesting music in My Blog