Tags
Language
Tags

Steffen Schleiermacher - Philip Glass: How Now (2010)

Posted By: Designol
Steffen Schleiermacher - Philip Glass: How Now (2010)

Steffen Schleiermacher - Philip Glass: How Now (2010)
EAC | FLAC | Image (Cue&Log) ~ 330 Mb | Mp3 (CBR320) ~ 154 Mb | Scans ~ 53 Mb
Genre: Classical, Minimalism | Label: MDG | # MDG 613 1600-2 | Time: 01:07:20

Besides having a flourishing career as a composer, Steffen Schleiermacher has made a name for himself as a pianist and conductor, focusing on new music. This MDG release features three very early works by Philip Glass from 1968 and 1969, Music in Similar Motion, How Now, and Music in Fifths. The works are stylistically closely related and come from a point in the composer's career when he was exploring the use of repetitive structures varied through additive and subtractive processes. Their tonality, limited pitch material, and constant rhythmic patterns gave rise to the popular misconception that Glass' music is about nothing but repetition. Attentive listening (or any real listening at all) reveals that there is a great deal more going on, and that in spite of the simplicity of the material, Glass' radical techniques could produce music of considerable subtlety and seriousness of intent, as well as having a surface that, for certain audiences, was compelling and immensely appealing. Much of his work from this period was created with the possibility of being performed by a variety of flexible instrumental combinations, and for this recording, Schleiermacher performs Music in Similar Motion and Music in Fifths on organ and How Now on piano. He plays with the objectivity Glass intended, and also with the energy and focus that give the music the kind of vitality it had when Glass and his Ensemble introduced it 40 years earlier. MDG's natural and unprocessed sound is, as usual, immaculate, but in the organ works listeners may want to adjust the volume downward a little because the level of very high overtones produced by the instrument can be piercing.

Review by Stephen Eddins, Allmusic.com

Steffen Schleiermacher - Philip Glass: How Now (2010)



Steffen Schleiermacher - Philip Glass: How Now (2010)



Tracklist:

01. Music in Similar Motion (1969) for organ (18:29)
02. How Now (1968) for piano (26:42)
03. Music in Fifths (1969) for organ (22:08)


Exact Audio Copy V0.99 prebeta 5 from 4. May 2009

Отчёт EAC об извлечении, выполненном 3. сентября 2010, 19:28

Philip Glass / How Now

Дисковод: Optiarc DVD RW AD-7203A Adapter: 4 ID: 1

Режим чтения : Достоверность
Использование точного потока : Да
Отключение кэша аудио : Да
Использование указателей C2 : Нет

Коррекция смещения при чтении : 48
Способность читать области Lead-in и Lead-out : Нет
Заполнение пропущенных сэмплов тишиной : Да
Удаление блоков с тишиной в начале и конце : Нет
При вычислениях CRC использовались нулевые сэмплы : Да
Интерфейс : Встроенный Win32-интерфейс для Win NT/2000

Выходной формат : Пользовательский кодировщик
Выбранный битрейт : 128 kBit/s
Качество : Высокий
Добавление ID3-тэга : Нет
Утилита сжатия : C:\Program Files\FLAC\flac.exe
Дополнительные параметры : -5 -V %s


TOC извлечённого CD

Трек | Старт | Длительность | Начальный сектор | Конечный сектор
––––––––––––––––––––––––––––––––––-
1 | 0:00.00 | 18:29.71 | 0 | 83245
2 | 18:29.71 | 26:42.14 | 83246 | 203409
3 | 45:12.10 | 22:08.06 | 203410 | 303015


Характеристики диапазона извлечения и сообщения об ошибках

Выбранный диапазон

Имя файла D:\EAC\Philip Glass - How Now.wav

Пиковый уровень 86.9 %
Качество диапазона 99.9 %
CRC теста 96032D24
CRC копии 96032D24
Копирование… OK

Ошибок не произошло


AccurateRip: сводка

Трек 1 нет в базе данных
Трек 2 нет в базе данных
Трек 3 нет в базе данных

Ни одного трека нет в базе AccurateRip

Конец отчёта

[CUETools log; Date: 26.03.2015 1:33:35; Version: 2.1.4]
[CTDB TOCID: CaAfyBWKy4WyXj.DbizgFfnlkxs-] found.
Track | CTDB Status
1 | (3/3) Accurately ripped
2 | (3/3) Accurately ripped
3 | (3/3) Accurately ripped
[AccurateRip ID: 0008ff68-001e58b3-140fc803] found.
Track [ CRC | V2 ] Status
01 [14f596bf|7a63853f] (0+2/2) Accurately ripped
02 [b6b210c5|d97806cb] (0+2/2) Accurately ripped
03 [7340b5a1|5dc0b29f] (0+2/2) Accurately ripped

Track Peak [ CRC32 ] [W/O NULL] [ LOG ]
– 86,9 [96032D24] [B9E88D54] CRC32
01 80,4 [C85A4184] [E0274CB9]
02 86,9 [4B214DE1] [3FA5B25D]
03 56,5 [ACEEC527] [879F00F4]

foobar2000 1.2 / Dynamic Range Meter 1.1.1
log date: 2015-03-28 09:19:45

––––––––––––––––––––––––––––––––––––––––
Analyzed: Philip Glass / How Now
––––––––––––––––––––––––––––––––––––––––

DR Peak RMS Duration Track
––––––––––––––––––––––––––––––––––––––––
DR11 -1.89 dB -15.27 dB 18:30 01-Music in Similar Motion (1969) for organ
DR15 -1.22 dB -20.68 dB 26:42 02-How Now (1968) for piano
DR11 -4.96 dB -18.11 dB 22:08 03-Music in Fifths (1969) for organ
––––––––––––––––––––––––––––––––––––––––

Number of tracks: 3
Official DR value: DR12

Samplerate: 44100 Hz
Channels: 2
Bits per sample: 16
Bitrate: 686 kbps
Codec: FLAC
================================================================================

Steffen Schleiermacher - Philip Glass: How Now (2010)

All thanks to original releaser - GFox

More interesting music in My Blog