Tags
Language
Tags

Peter Donohoe, Andrew Litton - The Romantic Piano Concerto Vol. 14: Litolff: Concertos symphoniques Nos 2 & 4 (1997)

Posted By: ArlegZ
Peter Donohoe, Andrew Litton - The Romantic Piano Concerto Vol. 14: Litolff: Concertos symphoniques Nos 2 & 4 (1997)

Peter Donohoe, Andrew Litton, Bournemouth Symphony Orchestra - The Romantic Piano Concerto Vol. 14: Henry Charles Litolff: Concertos symphoniques Nos 2 & 4 (1997)
EAC | FLAC | Image (Cue & Log) ~ 296 Mb | Total time: 70:39 | Scans included
Classical | Label: Hyperion | # CDA66889 | Recorded: 1996

Litolff was one of the great virtuosi of the nineteenth century. His five Concertos Symphoniques (the first of which is now unfortunately lost) were of major influence in the transition from the Classically-derived concertos of Hummel, Moscheles and Chopin to the more symphonic late-Romantic concertos. He pioneered the use of a four-movement structure which included a Scherzo (as in Brahms's Second Concerto) and gave the orchestra much more of the thematic material. Indeed, although the piano writing is very brilliant, much of it is accompanimental. The Second Concerto is a real rarity, the orchestral parts proving very hard to locate. This is probably its first performance in over 130 years.

Performer:
Peter Donohoe, piano
Bournemouth Symphony Orchestra
Andrew Litton, conductor

Track List:
Henry Charles Litolff (1818-1891)
Concerto symphonique No 2 in B minor Op 22
01. Maestoso
02. Scherzo
03. Andante
04. Rondo: Allegretto
Concerto symphonique No 4 in D minor Op 102
05. Allegro con fuoco
06. Scherzo: Presto
07. Adagio religioso
08. Allegro impetuoso


Exact Audio Copy V1.0 beta 3 from 29. August 2011

EAC extraction logfile from 26. November 2012, 18:15

Peter Donohoe / Litolff - Concertos symphoniques No2 & 4 - Donohoe

Used drive : TSSTcorpCDDVDW TS-L633M Adapter: 1 ID: 0

Read mode : Secure
Utilize accurate stream : Yes
Defeat audio cache : Yes
Make use of C2 pointers : No

Read offset correction : 6
Overread into Lead-In and Lead-Out : No
Fill up missing offset samples with silence : Yes
Delete leading and trailing silent blocks : No
Null samples used in CRC calculations : Yes
Used interface : Native Win32 interface for Win NT & 2000

Used output format : User Defined Encoder
Selected bitrate : 320 kBit/s
Quality : High
Add ID3 tag : No
Command line compressor : C:\Program Files\Exact Audio Copy\Flac\flac.exe
Additional command line options : -8 -V -T "TITLE=%title%" -T "ARTIST=%artist%" -T "ALBUMARTIST=%albumartist%" -T "ALBUM=%albumtitle%" -T "DATE=%year%" -T "TRACKNUMBER=%tracknr%" -T "TRACKTOTAL=%numtracks%" -T "GENRE=%genre%" -T "COMMENT=%comment%" -T "PERFORMER=%albuminterpret%" -T "COMPOSER=%composer%" %source% -o %dest%


TOC of the extracted CD

Track | Start | Length | Start sector | End sector
––––––––––––––––––––––––––––-
1 | 0:00.00 | 16:11.37 | 0 | 72861
2 | 16:11.37 | 4:07.15 | 72862 | 91401
3 | 20:18.52 | 5:20.10 | 91402 | 115411
4 | 25:38.62 | 6:47.68 | 115412 | 146004
5 | 32:26.55 | 13:37.00 | 146005 | 207279
6 | 46:03.55 | 6:29.70 | 207280 | 236524
7 | 52:33.50 | 7:28.30 | 236525 | 270154
8 | 60:02.05 | 10:26.35 | 270155 | 317139


Range status and errors

Selected range

Filename C:\Users\JS\Desktop\[2700] - Litolff - Concertos symphoniques No2 & 4 - Donohoe\Litolff - Concertos symphoniques No2 & 4 - Donohoe.wav

Peak level 99.8 %
Extraction speed 2.1 X
Range quality 99.9 %
Test CRC BFFEF904
Copy CRC BFFEF904
Copy OK

No errors occurred


AccurateRip summary

Track 1 accurately ripped (confidence 2) [D223E8BB] (AR v2)
Track 2 accurately ripped (confidence 2) [3B17B038] (AR v2)
Track 3 accurately ripped (confidence 2) [66582346] (AR v2)
Track 4 accurately ripped (confidence 2) [6D8DC4F8] (AR v2)
Track 5 accurately ripped (confidence 2) [8C4ED885] (AR v2)
Track 6 accurately ripped (confidence 2) [B29F49A1] (AR v2)
Track 7 accurately ripped (confidence 2) [8902FB17] (AR v2)
Track 8 accurately ripped (confidence 2) [564DF5C7] (AR v2)

All tracks accurately ripped

End of status report

Peter Donohoe, Andrew Litton - The Romantic Piano Concerto Vol. 14: Litolff: Concertos symphoniques Nos 2 & 4 (1997)

Thanks to the original releaser