Tags
Language
Tags

Ozric Tentacles - 13 Studio Albums (1989-2011) (Re-up)

Posted By: gribovar
Ozric Tentacles - 13 Studio Albums (1989-2011) (Re-up)

Ozric Tentacles - 13 Studio Albums (1989-2011)
EAC Rip | FLAC, WavPack (tracks/image+.cue+log) - 5,54 GB | MP3 CBR 320 kbps (LAME 3.93) - 1,88 GB | Covers - 1,7 GB
Genre: Psychedelic/Space Rock | RAR 3% Rec. | Label: Snapper Music, Dovetail Records, Phoenix Rising, Stretchy Records, Magna Carta

Ozric Tentacles are simply put, legends of the UK underground. Inspired by a myriad of musical genres and musicians from Kraut-rockers Kaan to guitar maestro Steve VAI, from ethnic Arabic to electronic techno, from Hendrix to Hillage. Ozric Tentacles' music is a fusion of sounds, styles and genres that cannot be categorized nor plagiarized, such is its complexity. The essence of the Ozric Tentacles remains essentially a free-willed musical unit oblivious to fashion trends and intent on exploring instrumental experimental music with an obsessive zeal. Formed in the early eighties, the Ozrics began life as a free-form psychedelic vehicle for jamming, attracting a dedicated fan-base at grassroots level by playing at all the free festivals to fans of space-rock, dub, psychedelia, and later on when the festivals had developed into raves, to fans of house and techno. Having then developed their own cottage industry - studio, label, tour bus, dedicated following - the Ozrics eventually achieved top ten album status in the UK with their 1993 album "Jurassic Shift". It was, and still is, an astonishing accomplishment for a band with no celebrity status, and no major record label backing.

Ozric Tentacles - 13 Studio Albums (1989-2011) (Re-up)

Ozric Tentacles - Pungent Effulgent (1989) [Reissue 1998]
EAC Rip | FLAC (tracks+.cue+log) - 506 MB | MP3 CBR 320 kbps (LAME 3.93) - 177 MB | Covers - 14 MB
Genre: Psychedelic/Space Rock | RAR 3% Rec. | Label: Snapper Music (SMMCD 545)

Tracklist:
01. Dissolution (The Clouds Disperse)
02. O-I
03. Phalarn Dawn
04. The Domes Of G'Bal
05. Shaping The Pelm
06. Ayurvedic
07. Kick Muck
08. Agog In The Ether
09. Wreltch
10. Ayurvedsim (Bonus track)

Total time: 01:15:05

Exact Audio Copy V1.1 from 23. June 2015

EAC extraction logfile from 15. February 2016, 11:28

Ozric Tentacles / Pungent Effulgent

Used drive : HL-DT-STDVD-RAM GH22NP20 Adapter: 1 ID: 0

Read mode : Secure
Utilize accurate stream : Yes
Defeat audio cache : Yes
Make use of C2 pointers : No

Read offset correction : 102
Overread into Lead-In and Lead-Out : No
Fill up missing offset samples with silence : Yes
Delete leading and trailing silent blocks : No
Null samples used in CRC calculations : Yes
Used interface : Native Win32 interface for Win NT & 2000
Gap handling : Appended to previous track

Used output format : User Defined Encoder
Selected bitrate : 128 kBit/s
Quality : High
Add ID3 tag : No
Command line compressor : C:\Program Files (x86)\Exact Audio Copy\Flac\flac.exe
Additional command line options : -8 -e -V -T "ARTIST=%artist%" -T "TITLE=%title%" -T "ALBUM=%albumtitle%" -T "DATE=%year%" -T "TRACKNUMBER=%tracknr%" -T "GENRE=%genre%" -T "PERFORMER=%albuminterpret%" -T "COMPOSER=%composer%" %haslyrics%–tag-from-file=LYRICS="%lyricsfile%"%haslyrics% -T "ALBUMARTIST=%albumartist%" -T "DISCNUMBER=%cdnumber%" -T "TOTALDISCS=%totalcds%" -T "TOTALTRACKS=%numtracks%" -T "COMMENT=%comment%" %source% -o %dest%


TOC of the extracted CD

Track | Start | Length | Start sector | End sector
––––––––––––––––––––––––––––-
1 | 0:00.00 | 6:15.25 | 0 | 28149
2 | 6:15.25 | 3:58.10 | 28150 | 46009
3 | 10:13.35 | 7:34.50 | 46010 | 80109
4 | 17:48.10 | 4:36.20 | 80110 | 100829
5 | 22:24.30 | 6:08.65 | 100830 | 128494
6 | 28:33.20 | 10:57.30 | 128495 | 177799
7 | 39:30.50 | 3:53.15 | 177800 | 195289
8 | 43:23.65 | 4:05.65 | 195290 | 213729
9 | 47:29.55 | 8:31.17 | 213730 | 252071
10 | 56:00.72 | 19:03.43 | 252072 | 337839


Track 1

Filename D:\01 - Dissolution (The Clouds Disperse).wav

Pre-gap length 0:00:02.00

Peak level 96.7 %
Extraction speed 1.8 X
Track quality 100.0 %
Test CRC 006BD88E
Copy CRC 006BD88E
Accurately ripped (confidence 7) [170697FC] (AR v2)
Copy OK

Track 2

Filename D:\02 - O-I.wav

Pre-gap length 0:00:00.24

Peak level 100.0 %
Extraction speed 2.0 X
Track quality 100.0 %
Test CRC 70EDB4EB
Copy CRC 70EDB4EB
Accurately ripped (confidence 7) [D354188F] (AR v2)
Copy OK

Track 3

Filename D:\03 - Phalarn Dawn.wav

Peak level 86.8 %
Extraction speed 2.3 X
Track quality 100.0 %
Test CRC 82151EC0
Copy CRC 82151EC0
Accurately ripped (confidence 7) [AFEAFB42] (AR v2)
Copy OK

Track 4

Filename D:\04 - The Domes Of G'Bal.wav

Peak level 100.0 %
Extraction speed 2.4 X
Track quality 100.0 %
Test CRC 700894C8
Copy CRC 700894C8
Accurately ripped (confidence 7) [BCAA5873] (AR v2)
Copy OK

Track 5

Filename D:\05 - Shaping The Pelm.wav

Peak level 100.0 %
Extraction speed 2.4 X
Track quality 99.9 %
Test CRC A99E9BFC
Copy CRC A99E9BFC
Accurately ripped (confidence 7) [D7B3D70C] (AR v2)
Copy OK

Track 6

Filename D:\06 - Ayurvedic.wav

Pre-gap length 0:00:01.86

Peak level 100.0 %
Extraction speed 2.9 X
Track quality 100.0 %
Test CRC 50146366
Copy CRC 50146366
Accurately ripped (confidence 7) [AEBCF75B] (AR v2)
Copy OK

Track 7

Filename D:\07 - Kick Muck.wav

Peak level 100.0 %
Extraction speed 2.9 X
Track quality 100.0 %
Test CRC AA8373E3
Copy CRC AA8373E3
Accurately ripped (confidence 7) [712B31BF] (AR v2)
Copy OK

Track 8

Filename D:\08 - Agog In The Ether.wav

Peak level 100.0 %
Extraction speed 3.0 X
Track quality 100.0 %
Test CRC FF4C8B3E
Copy CRC FF4C8B3E
Accurately ripped (confidence 7) [5F98AC28] (AR v2)
Copy OK

Track 9

Filename D:\09 - Wreltch.wav

Peak level 100.0 %
Extraction speed 3.4 X
Track quality 100.0 %
Test CRC AD9DCC31
Copy CRC AD9DCC31
Accurately ripped (confidence 7) [5F63A12E] (AR v2)
Copy OK

Track 10

Filename D:\10 - Ayurvedsim.wav

Peak level 100.0 %
Extraction speed 3.9 X
Track quality 100.0 %
Test CRC D8983456
Copy CRC D8983456
Accurately ripped (confidence 7) [062D88AD] (AR v2)
Copy OK


All tracks accurately ripped

No errors occurred

End of status report

–– CUETools DB Plugin V2.1.6

[CTDB TOCID: C_VtMc2QdvpXs1om4R_ulJ8rX.c-] found
Submit result: C_VtMc2QdvpXs1om4R_ulJ8rX.c- has been confirmed
Track | CTDB Status
1 | (22/23) Accurately ripped
2 | (21/23) Accurately ripped
3 | (22/23) Accurately ripped
4 | (22/23) Accurately ripped
5 | (22/23) Accurately ripped
6 | (22/23) Accurately ripped
7 | (22/23) Accurately ripped
8 | (22/23) Accurately ripped
9 | (21/23) Accurately ripped
10 | (19/23) Accurately ripped


==== Log checksum 3DD4F745D2A65313815DF80D20B2CD16A8DA7C673390B9E655E52F0C3AC587BB ====

[CUETools log; Date: 17.05.2022 16:23:58; Version: 2.1.4]
[CTDB TOCID: C_VtMc2QdvpXs1om4R_ulJ8rX.c-] found.
Track | CTDB Status
1 | (161/165) Accurately ripped
2 | (160/165) Accurately ripped
3 | (160/165) Accurately ripped
4 | (160/165) Accurately ripped
5 | (159/165) Accurately ripped
6 | (161/165) Accurately ripped
7 | (161/165) Accurately ripped
8 | (161/165) Accurately ripped
9 | (159/165) Accurately ripped
10 | (153/165) Accurately ripped
[AccurateRip ID: 0017cf07-00c2a95d-7c11980a] found.
Track [ CRC | V2 ] Status
01 [0a3d266e|170697fc] (007+017/126) Accurately ripped
02 [5bf04d44|d354188f] (007+017/126) Accurately ripped
03 [2765999e|afeafb42] (007+017/127) Accurately ripped
04 [8b3019db|bcaa5873] (007+017/126) Accurately ripped
05 [71605f8d|d7b3d70c] (007+017/126) Accurately ripped
06 [9f1f60e7|aebcf75b] (007+017/123) Accurately ripped
07 [765e0a6c|712b31bf] (007+017/127) Accurately ripped
08 [8c6c7a57|5f98ac28] (007+017/126) Accurately ripped
09 [3188b95f|5f63a12e] (007+017/124) Accurately ripped
10 [d4844a73|062d88ad] (007+017/122) Accurately ripped
Offsetted by -1377:
01 [8678be0c] (004/126) Accurately ripped
02 [e07d6819] (004/126) Accurately ripped
03 [c4220854] (004/127) Accurately ripped
04 [2d211ab6] (004/126) Accurately ripped
05 [15326ee1] (004/126) Accurately ripped
06 [4c0d996e] (004/123) Accurately ripped
07 [72b47506] (004/127) Accurately ripped
08 [6c6ca31b] (004/126) Accurately ripped
09 [1af26c84] (004/124) Accurately ripped
10 [1ec19396] (004/122) Accurately ripped
Offsetted by -1372:
01 [9b36e636] (008/126) Accurately ripped
02 [ed47fff2] (008/126) Accurately ripped
03 [e1bf166f] (008/127) Accurately ripped
04 [d9d6aedc] (008/126) Accurately ripped
05 [4bad8825] (008/126) Accurately ripped
06 [f8b52449] (006/123) Accurately ripped
07 [8d9ca6dd] (008/127) Accurately ripped
08 [e7772114] (008/126) Accurately ripped
09 [7c01dba3] (008/124) Accurately ripped
10 [494ab2d3] (007/122) Accurately ripped
Offsetted by -713:
01 [af83fa3c] (022/126) Accurately ripped
02 [80230ace] (022/126) Accurately ripped
03 [e44feb66] (022/127) Accurately ripped
04 [0ba9a06e] (022/126) Accurately ripped
05 [ebe79372] (022/126) Accurately ripped
06 [819fdf5a] (022/123) Accurately ripped
07 [f9811ce6] (022/127) Accurately ripped
08 [85a7ff4f] (022/126) Accurately ripped
09 [265719d6] (021/124) Accurately ripped
10 [1113ff04] (021/122) Accurately ripped
Offsetted by -49:
01 [d88f366c] (003/126) Accurately ripped
02 [50553ec3] (003/126) Accurately ripped
03 [c4b03d97] (003/127) Accurately ripped
04 [ef7fdac5] (003/126) Accurately ripped
05 [d4ccca15] (003/126) Accurately ripped
06 [346f3aee] (003/123) Accurately ripped
07 [abed50eb] (003/127) Accurately ripped
08 [1a136fcc] (003/126) Accurately ripped
09 [086c1f91] (003/124) Accurately ripped
10 [5d22630b] (003/122) Accurately ripped
Offsetted by 22:
01 [98b50a5a] (009/126) Accurately ripped
02 [6787016a] (009/126) Accurately ripped
03 [00f7d9ad] (009/127) Accurately ripped
04 [8e20dcfb] (009/126) Accurately ripped
05 [e565ed6c] (009/126) Accurately ripped
06 [793cb1a4] (009/123) Accurately ripped
07 [2f081f3d] (009/127) Accurately ripped
08 [629a12dc] (009/126) Accurately ripped
09 [c299e508] (009/124) Accurately ripped
10 [777f2f31] (009/122) Accurately ripped
Offsetted by -1371:
01 [38f687d8] (000/126) No match (V2 was not tested)
02 [099b6b6b] (000/126) No match (V2 was not tested)
03 [709dc7fb] (000/127) No match (V2 was not tested)
04 [8bea4821] (000/126) No match (V2 was not tested)
05 [f0075b81] (000/126) No match (V2 was not tested)
06 [edc008db] (000/123) No match (V2 was not tested)
07 [9844b2c3] (000/127) No match (V2 was not tested)
08 [985da7b9] (000/126) No match (V2 was not tested)
09 [592cbce8] (000/124) No match (V2 was not tested)
10 [b834ec48] (000/122) No match (V2 was not tested)

Track Peak [ CRC32 ] [W/O NULL] [ LOG ]
– 100,0 [2A340060] [4241CF91]
01 96,7 [006BD88E] [7D3E9852] CRC32
02 100,0 [70EDB4EB] [CE911D4B] CRC32
03 86,8 [82151EC0] [D5A90590] CRC32
04 100,0 [700894C8] [A3521663] CRC32
05 100,0 [A99E9BFC] [D70A6E9A] CRC32
06 100,0 [50146366] [5BFA1B14] CRC32
07 100,0 [AA8373E3] [9DB44E76] CRC32
08 100,0 [FF4C8B3E] [14D6333C] CRC32
09 100,0 [AD9DCC31] [18AB88CA] CRC32
10 100,0 [D8983456] [FBBD7302] CRC32

Ozric Tentacles - 13 Studio Albums (1989-2011) (Re-up)

Ozric Tentacles - Erpland (1990) [Reissue 2010]
EAC Rip | WavPack (image+.cue+log) - 460 MB | MP3 CBR 320 kbps (LAME 3.93) - 173 MB | Covers - 615 MB
Genre: Psychedelic/Space Rock | RAR 3% Rec. | Label: Snapper Music (SMACD962)

CD Tracklist:
01. Eternal Wheel
02. Toltec Spring
03. Tidal Convergence
04. Sunscape
05. Mysticum Arabicola
06. Crackerblocks
07. The Throbbe
08. Erpland
09. Valley of a Thousand Thoughts
10. Snakepit
11. Iscence
12. A Gift of Wings

Total time: 01:13:45

Exact Audio Copy V1.1 from 23. June 2015

EAC extraction logfile from 27. November 2015, 16:48

Ozric Tentacles / Erpland

Used drive : TSSTcorpCDDVDW SH-S223C Adapter: 1 ID: 0

Read mode : Secure
Utilize accurate stream : Yes
Defeat audio cache : Yes
Make use of C2 pointers : No

Read offset correction : 697
Overread into Lead-In and Lead-Out : No
Fill up missing offset samples with silence : Yes
Delete leading and trailing silent blocks : No
Null samples used in CRC calculations : Yes
Used interface : Native Win32 interface for Win NT & 2000

Used output format : User Defined Encoder
Selected bitrate : 128 kBit/s
Quality : High
Add ID3 tag : No
Command line compressor : C:\Program Files (x86)\Exact Audio Copy\wavpack\wavpack.exe
Additional command line options : -hm -w "Year=%year%" -w "Genre=%genre%" %source% %dest%


TOC of the extracted CD

Track | Start | Length | Start sector | End sector
––––––––––––––––––––––––––––-
1 | 0:00.00 | 8:20.24 | 0 | 37523
2 | 8:20.24 | 3:03.16 | 37524 | 51264
3 | 11:23.40 | 7:14.26 | 51265 | 83840
4 | 18:37.66 | 4:02.27 | 83841 | 102017
5 | 22:40.18 | 9:14.58 | 102018 | 143625
6 | 31:55.01 | 5:40.05 | 143626 | 169130
7 | 37:35.06 | 6:21.60 | 169131 | 197765
8 | 43:56.66 | 5:32.22 | 197766 | 222687
9 | 49:29.13 | 6:32.16 | 222688 | 252103
10 | 56:01.29 | 3:17.68 | 252104 | 266946
11 | 59:19.22 | 4:37.38 | 266947 | 287759
12 | 63:56.60 | 9:47.71 | 287760 | 331855


Range status and errors

Selected range

Filename D:\_NL+_\_CD\Ozric Tentacles - Erpland.wav

Peak level 93.9 %
Extraction speed 6.1 X
Range quality 99.9 %
Test CRC 276840F1
Copy CRC 276840F1
Copy OK

No errors occurred


AccurateRip summary

Track 1 accurately ripped (confidence 20) [B63AAEA7] (AR v2)
Track 2 accurately ripped (confidence 21) [10D910D3] (AR v2)
Track 3 accurately ripped (confidence 21) [BF65B1AC] (AR v2)
Track 4 accurately ripped (confidence 21) [D3E6AC80] (AR v2)
Track 5 accurately ripped (confidence 21) [A88A51AB] (AR v2)
Track 6 accurately ripped (confidence 21) [819FC582] (AR v2)
Track 7 accurately ripped (confidence 21) [72AD68D6] (AR v2)
Track 8 accurately ripped (confidence 21) [92799B1C] (AR v2)
Track 9 accurately ripped (confidence 21) [7C803036] (AR v2)
Track 10 accurately ripped (confidence 21) [1F6E364E] (AR v2)
Track 11 accurately ripped (confidence 20) [0538B91C] (AR v2)
Track 12 accurately ripped (confidence 20) [912D5E09] (AR v2)

All tracks accurately ripped

End of status report

–– CUETools DB Plugin V2.1.6

[CTDB TOCID: zmVJocm9VIDWSlD6R9AP.pUBdN0-] found
Submit result: zmVJocm9VIDWSlD6R9AP.pUBdN0- has been confirmed
Track | CTDB Status
1 | (33/33) Accurately ripped
2 | (33/33) Accurately ripped
3 | (33/33) Accurately ripped
4 | (33/33) Accurately ripped
5 | (33/33) Accurately ripped
6 | (33/33) Accurately ripped
7 | (33/33) Accurately ripped
8 | (33/33) Accurately ripped
9 | (33/33) Accurately ripped
10 | (33/33) Accurately ripped
11 | (33/33) Accurately ripped
12 | (33/33) Accurately ripped


==== Log checksum 01FD0AA601833C6C0B9DCFF3EEE3B27031A84476CA12AB444662619A8E36BECD ====

[CUETools log; Date: 17.05.2022 16:13:33; Version: 2.1.4]
[CTDB TOCID: zmVJocm9VIDWSlD6R9AP.pUBdN0-] found.
Track | CTDB Status
1 | (232/235) Accurately ripped
2 | (234/235) Accurately ripped
3 | (232/235) Accurately ripped
4 | (234/235) Accurately ripped
5 | (232/235) Accurately ripped
6 | (233/235) Accurately ripped
7 | (234/235) Accurately ripped
8 | (234/235) Accurately ripped
9 | (233/235) Accurately ripped
10 | (233/235) Accurately ripped
11 | (231/235) Accurately ripped
12 | (230/235) Accurately ripped
[AccurateRip ID: 0020c0de-01301f74-b011480c] found.
Track [ CRC | V2 ] Status
01 [0a21aaef|b63aaea7] (005+040/204) Accurately ripped
02 [54900126|10d910d3] (005+041/206) Accurately ripped
03 [c1d838be|bf65b1ac] (005+041/207) Accurately ripped
04 [2eabcc47|d3e6ac80] (005+041/206) Accurately ripped
05 [ad33dc03|a88a51ab] (005+041/205) Accurately ripped
06 [532f1134|819fc582] (005+040/202) Accurately ripped
07 [a45a3717|72ad68d6] (005+041/203) Accurately ripped
08 [b89535ba|92799b1c] (005+041/203) Accurately ripped
09 [981518b6|7c803036] (005+041/205) Accurately ripped
10 [c363008f|1f6e364e] (005+041/204) Accurately ripped
11 [f2189f71|0538b91c] (005+040/201) Accurately ripped
12 [be76371f|912d5e09] (005+040/197) Accurately ripped
Offsetted by -622:
01 [2a2756d3] (012/204) Accurately ripped
02 [6cec684a] (012/206) Accurately ripped
03 [678dd0d4] (013/207) Accurately ripped
04 [48cbe0d7] (013/206) Accurately ripped
05 [7aa3f56b] (013/205) Accurately ripped
06 [5a41ec2c] (011/202) Accurately ripped
07 [649b2a91] (011/203) Accurately ripped
08 [03413d82] (011/203) Accurately ripped
09 [1a652a72] (012/205) Accurately ripped
10 [868cf12d] (012/204) Accurately ripped
11 [2ce68b65] (012/201) Accurately ripped
12 [6250904f] (012/197) Accurately ripped
Offsetted by 42:
01 [59a046b6] (002/204) Accurately ripped
02 [ab589c07] (002/206) Accurately ripped
03 [0de8c51c] (002/207) Accurately ripped
04 [a370d597] (002/206) Accurately ripped
05 [684c582e] (002/205) Accurately ripped
06 [0708df08] (002/202) Accurately ripped
07 [502c28ba] (002/203) Accurately ripped
08 [381169e2] (002/203) Accurately ripped
09 [e764e891] (002/205) Accurately ripped
10 [bf9c4e08] (002/204) Accurately ripped
11 [0737783b] (002/201) Accurately ripped
12 [6e40c88f] (002/197) Accurately ripped
Offsetted by 676:
01 [e2ff92af] (002/204) Accurately ripped
02 [1b04f0e6] (002/206) Accurately ripped
03 [1037e76a] (002/207) Accurately ripped
04 [f3d23167] (002/206) Accurately ripped
05 [fed80bbd] (002/205) Accurately ripped
06 [d257ed9d] (002/202) Accurately ripped
07 [e54b4a8c] (002/203) Accurately ripped
08 [11d2034a] (002/203) Accurately ripped
09 [b556d63b] (002/205) Accurately ripped
10 [3bdff0e6] (002/204) Accurately ripped
11 [1eb0ec9d] (002/201) Accurately ripped
12 [b37bbd7f] (002/197) Accurately ripped
Offsetted by 706:
01 [7b3946f4] (017/204) Accurately ripped
02 [fbb73fe9] (017/206) Accurately ripped
03 [b443b964] (017/207) Accurately ripped
04 [fe15ca57] (017/206) Accurately ripped
05 [3c2f9357] (016/205) Accurately ripped
06 [89649d77] (016/202) Accurately ripped
07 [2af229da] (016/203) Accurately ripped
08 [6ce19642] (016/203) Accurately ripped
09 [83888b02] (017/205) Accurately ripped
10 [fbf5574b] (017/204) Accurately ripped
11 [37949e3f] (016/201) Accurately ripped
12 [7a3100cf] (016/197) Accurately ripped
Offsetted by 1370:
01 [c391ec4f] (003/204) Accurately ripped
02 [43bdad0e] (003/206) Accurately ripped
03 [5a9eadac] (003/207) Accurately ripped
04 [58babf17] (003/206) Accurately ripped
05 [b9ff65f8] (003/205) Accurately ripped
06 [e9a754d4] (003/202) Accurately ripped
07 [e3936b28] (003/203) Accurately ripped
08 [a1b1c2a2] (003/203) Accurately ripped
09 [5040c233] (003/205) Accurately ripped
10 [51029207] (003/204) Accurately ripped
11 [8200d8f2] (003/201) Accurately ripped
12 [8621390f] (003/197) Accurately ripped
Offsetted by 1458:
01 [674eebfa] (002/204) Accurately ripped
02 [7c1caac3] (002/206) Accurately ripped
03 [8016af34] (002/207) Accurately ripped
04 [bb1aa1d7] (002/206) Accurately ripped
05 [546d7505] (002/205) Accurately ripped
06 [9451a36e] (002/202) Accurately ripped
07 [da106659] (002/203) Accurately ripped
08 [0223b602] (002/203) Accurately ripped
09 [b5499c75] (002/205) Accurately ripped
10 [3113ffad] (002/204) Accurately ripped
11 [923aa8aa] (002/201) Accurately ripped
12 [de12cb4f] (002/197) Accurately ripped
Offsetted by 2034:
01 [6a8bd7da] (004/204) Accurately ripped
02 [b8409083] (004/206) Accurately ripped
03 [00f9a1f4] (004/207) Accurately ripped
04 [b35fb3d7] (003/206) Accurately ripped
05 [ee9d935f] (004/205) Accurately ripped
06 [3b4941bc] (004/202) Accurately ripped
07 [9685b739] (004/203) Accurately ripped
08 [d681ef02] (004/203) Accurately ripped
09 [09809d93] (004/205) Accurately ripped
10 [09d34528] (004/204) Accurately ripped
11 [8dcae2c1] (004/201) Accurately ripped
12 [9211714f] (004/197) Accurately ripped
Offsetted by 2105:
01 [a8243a23] (033/204) Accurately ripped
02 [477aaa2e] (033/206) Accurately ripped
03 [8dc04619] (033/207) Accurately ripped
04 [d432e20f] (033/206) Accurately ripped
05 [2478abc9] (032/205) Accurately ripped
06 [e448e917] (033/202) Accurately ripped
07 [29b5a4d5] (033/203) Accurately ripped
08 [58af535e] (033/203) Accurately ripped
09 [d020c00b] (033/205) Accurately ripped
10 [5f2ec3e8] (033/204) Accurately ripped
11 [8a15cdec] (033/201) Accurately ripped
12 [8a7a2a37] (032/197) Accurately ripped
Offsetted by 712:
01 [d851f5e4] (000/204) No match (V2 was not tested)
02 [8dc780d1] (000/206) No match (V2 was not tested)
03 [08461696] (000/207) No match (V2 was not tested)
04 [33568287] (000/206) No match (V2 was not tested)
05 [4d5f3967] (000/205) No match (V2 was not tested)
06 [a94cd1f0] (000/202) No match (V2 was not tested)
07 [05f323b3] (000/203) No match (V2 was not tested)
08 [7f17e6da] (000/203) No match (V2 was not tested)
09 [46b2e075] (000/205) No match (V2 was not tested)
10 [655d0c1d] (000/204) No match (V2 was not tested)
11 [d76d9348] (000/201) No match (V2 was not tested)
12 [6ebba7df] (000/197) No match (V2 was not tested)
Offsetted by 2117:
01 [02c94d07] (002/204) Accurately ripped
02 [2883ac5a] (002/206) Accurately ripped
03 [35c5007d] (002/207) Accurately ripped
04 [3eb4526f] (002/206) Accurately ripped
05 [b493b77b] (002/205) Accurately ripped
06 [55544ff7] (002/202) Accurately ripped
07 [ba4240ab] (002/203) Accurately ripped
08 [7d1bf48e] (002/203) Accurately ripped
09 [eab59b19] (002/205) Accurately ripped
10 [31d92bfc] (002/204) Accurately ripped
11 [f88929e2] (002/201) Accurately ripped
12 [738f7857] (000/197) No match (V2 was not tested)

Track Peak [ CRC32 ] [W/O NULL] [ LOG ]
– 93,9 [276840F1] [9DA12B67] CRC32
01 88,3 [951D345A] [AA131233]
02 84,3 [126CCBF9] [FA6FED21]
03 61,4 [D38EA46D] [9D1F8A6D]
04 74,8 [0556F666] [4CA1A5BE]
05 73,2 [6060640C] [9C5E5861]
06 54,3 [B34586E3] [67FEFA1B]
07 93,9 [E0FE784C] [2C4F0184]
08 75,5 [150ADD26] [713E2F01]
09 72,2 [04D66179] [9671B4C4]
10 75,5 [14B7AA5C] [EEE3DBEF]
11 92,8 [4F19E797] [29FDEDDF]
12 67,8 [1829C17E] [865CCA86]

Ozric Tentacles - 13 Studio Albums (1989-2011) (Re-up)

Ozric Tentacles - Strangeitude (1991) [2CD Reissue 2010]
EAC Rip | WavPack (image+.cue+log) - 711 MB | MP3 CBR 320 kbps (LAME 3.93) - 244 MB | Covers - 742 MB
Genre: Psychedelic/Space Rock | RAR 3% Rec. | Label: Snapper Music (SMACD956)

CD 1 Tracklist:
01. White Rhino Tea
02. Sploosh!
03. Saucers
04. Strangeitude
05. Bizarre Bazaar
06. Space Between Your Ears
07. Live Throbbe
08. Weirditude

Total time: 51:49

CD 2 Tracklist:
01. Saucers (Live Extended)
02. Sploosh! (Live)
03. Space Between Your Ears (Live)
04. White Rhino Tea (Earlier, Stranger Mix)
05. Weirditude (Live)
06. The Throbbe (Live)

Total time: 51:58

Exact Audio Copy V1.0 beta 6 from 9. April 2015

EAC extraction logfile from 11. September 2015, 17:41

Ozric Tentacles / Strangeitude CD1

Used drive : TSSTcorpCDDVDW SH-S223C Adapter: 1 ID: 0

Read mode : Secure
Utilize accurate stream : Yes
Defeat audio cache : Yes
Make use of C2 pointers : No

Read offset correction : 697
Overread into Lead-In and Lead-Out : No
Fill up missing offset samples with silence : Yes
Delete leading and trailing silent blocks : No
Null samples used in CRC calculations : Yes
Used interface : Native Win32 interface for Win NT & 2000

Used output format : User Defined Encoder
Selected bitrate : 128 kBit/s
Quality : High
Add ID3 tag : No
Command line compressor : C:\Program Files (x86)\Exact Audio Copy\wavpack\wavpack.exe
Additional command line options : -hm -w "Year=%year%" -w "Genre=%genre%" %source% %dest%


TOC of the extracted CD

Track | Start | Length | Start sector | End sector
––––––––––––––––––––––––––––-
1 | 0:00.00 | 5:55.15 | 0 | 26639
2 | 5:55.15 | 6:26.17 | 26640 | 55606
3 | 12:21.32 | 7:32.30 | 55607 | 89536
4 | 19:53.62 | 7:31.43 | 89537 | 123404
5 | 27:25.30 | 4:06.67 | 123405 | 141921
6 | 31:32.22 | 7:47.38 | 141922 | 176984
7 | 39:19.60 | 7:16.20 | 176985 | 209704
8 | 46:36.05 | 5:13.07 | 209705 | 233186


Range status and errors

Selected range

Filename D:\_NL+_\_CD\Ozric Tentacles - Strangeitude CD1.wav

Peak level 98.8 %
Extraction speed 6.1 X
Range quality 99.9 %
Test CRC F2C3F738
Copy CRC F2C3F738
Copy OK

No errors occurred


AccurateRip summary

Track 1 accurately ripped (confidence 7) [694353F3] (AR v2)
Track 2 accurately ripped (confidence 7) [D81EF77B] (AR v2)
Track 3 accurately ripped (confidence 7) [6AFE1070] (AR v2)
Track 4 accurately ripped (confidence 7) [BA3D83D3] (AR v2)
Track 5 accurately ripped (confidence 7) [8F6A2CF0] (AR v2)
Track 6 accurately ripped (confidence 7) [BA21DDDB] (AR v2)
Track 7 accurately ripped (confidence 7) [D6945D74] (AR v2)
Track 8 accurately ripped (confidence 7) [679470F2] (AR v2)

All tracks accurately ripped

End of status report

–– CUETools DB Plugin V2.1.6

[CTDB TOCID: tRoaiGJw9BmptWIOK9J8Ax5IG0k-] found
Submit result: tRoaiGJw9BmptWIOK9J8Ax5IG0k- has been confirmed
Track | CTDB Status
1 | (20/21) Accurately ripped
2 | (20/21) Accurately ripped
3 | (19/21) Accurately ripped
4 | (20/21) Accurately ripped
5 | (19/21) Accurately ripped
6 | (20/21) Accurately ripped
7 | (20/21) Accurately ripped
8 | (20/21) Accurately ripped


==== Log checksum A4396D862D544591CEE41323FE89639C66DFD1F89EC27BC5C7DA725610D8516D ====

[CUETools log; Date: 17.05.2022 16:24:39; Version: 2.1.4]
[CTDB TOCID: tRoaiGJw9BmptWIOK9J8Ax5IG0k-] found.
Track | CTDB Status
1 | (131/135) Accurately ripped
2 | (134/135) Accurately ripped
3 | (127/135) Accurately ripped, or (3/135) differs in 48 samples @04:52:63-04:52:64
4 | (134/135) Accurately ripped
5 | (129/135) Accurately ripped, or (2/135) differs in 89 samples @02:22:61-02:22:62
6 | (134/135) Accurately ripped
7 | (134/135) Accurately ripped
8 | (134/135) Accurately ripped
[AccurateRip ID: 001020dc-006bc209-7d0c2508] found.
Track [ CRC | V2 ] Status
01 [eb64b151|694353f3] (04+15/92) Accurately ripped
02 [07c13d07|d81ef77b] (04+15/95) Accurately ripped
03 [ecb2575c|6afe1070] (04+15/88) Accurately ripped
04 [df2abbf7|ba3d83d3] (04+15/95) Accurately ripped
05 [11f1fc91|8f6a2cf0] (05+15/94) Accurately ripped
06 [196f9cdd|ba21dddb] (05+15/96) Accurately ripped
07 [4a773e74|d6945d74] (05+15/96) Accurately ripped
08 [4ad4d6d8|679470f2] (05+15/96) Accurately ripped
Offsetted by 10:
01 [a75face1] (08/92) Accurately ripped
02 [54068937] (08/95) Accurately ripped
03 [62f5d04c] (08/88) Accurately ripped
04 [098147bd] (08/95) Accurately ripped
05 [98798f59] (08/94) Accurately ripped
06 [121ae695] (08/96) Accurately ripped
07 [33c153f0] (08/96) Accurately ripped
08 [643f1d76] (08/96) Accurately ripped
Offsetted by 664:
01 [e07df111] (19/92) Accurately ripped
02 [36876647] (20/95) Accurately ripped
03 [9965b59c] (20/88) Accurately ripped
04 [da6a301f] (20/95) Accurately ripped
05 [f6b5a871] (20/94) Accurately ripped
06 [32a9eefd] (20/96) Accurately ripped
07 [0014d104] (20/96) Accurately ripped
08 [48cbf4a0] (20/96) Accurately ripped
Offsetted by 1328:
01 [d59730d1] (03/92) Accurately ripped
02 [654d8f87] (03/95) Accurately ripped
03 [461913dc] (03/88) Accurately ripped
04 [d5a9a447] (03/95) Accurately ripped
05 [db795451] (03/94) Accurately ripped
06 [4be4411d] (03/96) Accurately ripped
07 [b5b26394] (03/96) Accurately ripped
08 [46c31268] (03/96) Accurately ripped
Offsetted by -12:
01 [70378371] (00/92) No match (V2 was not tested)
02 [7907ae67] (00/95) No match (V2 was not tested)
03 [5ec7c63c] (00/88) No match (V2 was not tested)
04 [ac5c7aa3] (00/95) No match (V2 was not tested)
05 [70827fa1] (00/94) No match (V2 was not tested)
06 [223baacd] (00/96) No match (V2 was not tested)
07 [98eb24ac] (00/96) No match (V2 was not tested)
08 [f9221bb4] (00/96) No match (V2 was not tested)
Offsetted by -6:
01 [adce1a61] (00/92) No match (V2 was not tested)
02 [406475b7] (00/95) No match (V2 was not tested)
03 [a5bd0ecc] (00/88) No match (V2 was not tested)
04 [c5c39b4d] (00/95) No match (V2 was not tested)
05 [c13a3e19] (00/94) No match (V2 was not tested)
06 [1dd5a3d5] (00/96) No match (V2 was not tested)
07 [f1b13190] (00/96) No match (V2 was not tested)
08 [a1fb7946] (00/96) No match (V2 was not tested)

Track Peak [ CRC32 ] [W/O NULL] [ LOG ]
– 98,8 [F2C3F738] [D727ACB4] CRC32
01 98,4 [1B279FB5] [3CA262D5]
02 97,7 [78A02B48] [1CF5202A]
03 97,7 [7F8C4C4D] [A30C3235]
04 97,7 [109B1208] [25343D96]
05 97,7 [C6BA3EA8] [257F93BE]
06 98,8 [B631AF37] [81212929]
07 98,8 [AD10BF5D] [85540CBD]
08 97,7 [9A2EAC5E] [2CCBDD9E]

Exact Audio Copy V1.0 beta 6 from 9. April 2015

EAC extraction logfile from 11. September 2015, 23:02

Ozric Tentacles / Strangeitude - Archives 1991-2004 CD2

Used drive : TSSTcorpCDDVDW SH-S223C Adapter: 1 ID: 0

Read mode : Secure
Utilize accurate stream : Yes
Defeat audio cache : Yes
Make use of C2 pointers : No

Read offset correction : 697
Overread into Lead-In and Lead-Out : No
Fill up missing offset samples with silence : Yes
Delete leading and trailing silent blocks : No
Null samples used in CRC calculations : Yes
Used interface : Native Win32 interface for Win NT & 2000

Used output format : User Defined Encoder
Selected bitrate : 128 kBit/s
Quality : High
Add ID3 tag : No
Command line compressor : C:\Program Files (x86)\Exact Audio Copy\wavpack\wavpack.exe
Additional command line options : -hm -w "Year=%year%" -w "Genre=%genre%" %source% %dest%


TOC of the extracted CD

Track | Start | Length | Start sector | End sector
––––––––––––––––––––––––––––-
1 | 0:00.00 | 15:34.15 | 0 | 70064
2 | 15:34.15 | 7:09.70 | 70065 | 102309
3 | 22:44.10 | 10:47.55 | 102310 | 150889
4 | 33:31.65 | 5:53.32 | 150890 | 177396
5 | 39:25.22 | 5:14.50 | 177397 | 200996
6 | 44:39.72 | 7:17.49 | 200997 | 233820


Range status and errors

Selected range

Filename D:\_NL+_\_CD\Ozric Tentacles - Strangeitude - Archives 1991-2004 CD2.wav

Peak level 98.2 %
Extraction speed 6.4 X
Range quality 100.0 %
Test CRC 8F625087
Copy CRC 8F625087
Copy OK

No errors occurred


AccurateRip summary

Track 1 accurately ripped (confidence 11) [FC21CB02] (AR v2)
Track 2 accurately ripped (confidence 11) [5EAF20F2] (AR v2)
Track 3 accurately ripped (confidence 11) [CA350B2A] (AR v2)
Track 4 accurately ripped (confidence 11) [7A71C6DC] (AR v2)
Track 5 accurately ripped (confidence 11) [136CF1AE] (AR v2)
Track 6 accurately ripped (confidence 11) [F63DE71C] (AR v2)

All tracks accurately ripped

End of status report

–– CUETools DB Plugin V2.1.6

[CTDB TOCID: Cs1SqOsa4wQrsrw_jdSCrjNLBCU-] found
Submit result: Cs1SqOsa4wQrsrw_jdSCrjNLBCU- has been confirmed
Track | CTDB Status
1 | (9/9) Accurately ripped
2 | (9/9) Accurately ripped
3 | (9/9) Accurately ripped
4 | (9/9) Accurately ripped
5 | (9/9) Accurately ripped
6 | (9/9) Accurately ripped


==== Log checksum E258C9DE3A793D5A601365157DD6A39E9E8C4875768757C18F37248FFE66E8EB ====

[CUETools log; Date: 17.05.2022 16:25:15; Version: 2.1.4]
[CTDB TOCID: Cs1SqOsa4wQrsrw_jdSCrjNLBCU-] found.
Track | CTDB Status
1 | (51/51) Accurately ripped
2 | (51/51) Accurately ripped
3 | (51/51) Accurately ripped
4 | (51/51) Accurately ripped
5 | (51/51) Accurately ripped
6 | (51/51) Accurately ripped
[AccurateRip ID: 000e4638-0048f12f-4d0c2d06] found.
Track [ CRC | V2 ] Status
01 [0e84469b|fc21cb02] (03+21/24) Accurately ripped
02 [759f5e53|5eaf20f2] (03+21/24) Accurately ripped
03 [cbafdad7|ca350b2a] (03+20/23) Accurately ripped
04 [eede19ee|7a71c6dc] (03+21/24) Accurately ripped
05 [94d04201|136cf1ae] (03+21/24) Accurately ripped
06 [c23dcd9a|f63de71c] (03+21/24) Accurately ripped

Track Peak [ CRC32 ] [W/O NULL] [ LOG ]
– 98,2 [8F625087] [6D7AFC2C] CRC32
01 98,2 [C34A1EEE] [B1ED7B8F]
02 98,2 [EDCBFBCB] [FDFE6B61]
03 98,2 [652FC535] [8BC92C62]
04 98,2 [DB0A78CF] [2D00E5B7]
05 98,2 [1B9C01D6] [3A1124FD]
06 98,2 [8184B348] [BD2390B5]

Ozric Tentacles - 13 Studio Albums (1989-2011) (Re-up)

Ozric Tentacles - Jurassic Shift (1993) [Reissue 1998]
EAC Rip | FLAC (image+.cue+log) - 457 MB | MP3 CBR 320 kbps (LAME 3.93) - 150 MB | Covers - 18 MB
Genre: Psychedelic/Space Rock | RAR 3% Rec. | Label: Snapper Music (SMM CD 547)

Tracklist:
01. Sunhair
02. Stretchy
03. Feng Shui
04. Half Light In Thillai
05. Jurassic Shift
06. Pteranodon
07. Train Oasis
08. Vita Voom
09. Feng Shui (Live, Bonus track)

Total time: 01:03:50

Exact Audio Copy V0.99 prebeta 4 from 23. January 2008

EAC extraction logfile from 10. February 2008, 18:05

Ozric Tentacles / Jurassic Shift

Used drive : PLEXTOR CD-R PX-W5224A Adapter: 1 ID: 1

Read mode : Secure
Utilize accurate stream : Yes
Defeat audio cache : Yes
Make use of C2 pointers : No

Read offset correction : 30
Overread into Lead-In and Lead-Out : Yes
Fill up missing offset samples with silence : Yes
Delete leading and trailing silent blocks : No
Null samples used in CRC calculations : Yes
Used interface : Installed external ASPI interface

Used output format : Internal WAV Routines
Sample format : 44.100 Hz; 16 Bit; Stereo


TOC of the extracted CD

Track | Start | Length | Start sector | End sector
––––––––––––––––––––––––––––-
1 | 0:00.00 | 5:43.20 | 0 | 25744
2 | 5:43.20 | 6:51.40 | 25745 | 56609
3 | 12:34.60 | 10:24.47 | 56610 | 103456
4 | 22:59.32 | 5:35.55 | 103457 | 128636
5 | 28:35.12 | 11:04.63 | 128637 | 178499
6 | 39:40.00 | 5:40.67 | 178500 | 204066
7 | 45:20.67 | 2:45.58 | 204067 | 216499
8 | 48:06.50 | 4:47.45 | 216500 | 238069
9 | 52:54.20 | 10:56.00 | 238070 | 287269


Range status and errors

Selected range

Filename C:\DAE\Ozric Tentacles - Jurassic Shift\Ozric Tentacles - Jurassic Shift.wav

Peak level 98.8 %
Range quality 100.0 %
Test CRC 627DE56E
Copy CRC 627DE56E
Copy OK

No errors occurred

End of status report

[CUETools log; Date: 17.05.2022 16:52:17; Version: 2.1.4]
[CTDB TOCID: KCd8Gmf2y0XxUP2j9CACjSbUTHs-] found.
Track | CTDB Status
1 | (146/181) Accurately ripped
2 | (146/181) Accurately ripped
3 | (145/181) Accurately ripped
4 | (145/181) Accurately ripped
5 | (144/181) Accurately ripped
6 | (145/181) Accurately ripped
7 | (146/181) Accurately ripped
8 | (146/181) Accurately ripped
9 | (146/181) Accurately ripped
[AccurateRip ID: 0015f488-00a099cd-840ef609] found.
Track [ CRC | V2 ] Status
01 [dce27789|13077f1b] (017+018/158) Accurately ripped
02 [6b567d06|8733c8b2] (017+018/160) Accurately ripped
03 [3c5fbacd|a0814f61] (017+018/160) Accurately ripped
04 [7560df0b|c17ffbc2] (017+018/161) Accurately ripped
05 [154ed642|f93b5adf] (017+018/158) Accurately ripped
06 [afc0476a|074cac11] (017+018/158) Accurately ripped
07 [3dcfa620|0b9fb622] (017+018/160) Accurately ripped
08 [4804faf0|5a965487] (017+018/157) Accurately ripped
09 [d91f70f6|b3d03bd8] (017+018/154) Accurately ripped
Offsetted by -2646:
01 [accee639] (006/158) Accurately ripped
02 [3b252986] (006/160) Accurately ripped
03 [67cfdfd3] (006/160) Accurately ripped
04 [c18cefe7] (006/161) Accurately ripped
05 [5483207a] (005/158) Accurately ripped
06 [f8855220] (006/158) Accurately ripped
07 [c7d7a2b2] (006/160) Accurately ripped
08 [182d615c] (006/157) Accurately ripped
09 [1b7872e2] (005/154) Accurately ripped
Offsetted by -2006:
01 [92e5d239] (005/158) Accurately ripped
02 [26ae4986] (005/160) Accurately ripped
03 [4da1c953] (005/160) Accurately ripped
04 [120136e7] (005/161) Accurately ripped
05 [f5e3ce7a] (005/158) Accurately ripped
06 [f18fe7a0] (005/158) Accurately ripped
07 [e1aabf32] (005/160) Accurately ripped
08 [6cb2cc5c] (005/157) Accurately ripped
09 [c026bde2] (005/154) Accurately ripped
Offsetted by -1982:
01 [feb9e179] (005/158) Accurately ripped
02 [391d0786] (005/160) Accurately ripped
03 [cfd9a87b] (005/160) Accurately ripped
04 [31d25ff7] (005/161) Accurately ripped
05 [12576e9a] (005/158) Accurately ripped
06 [c14d1a08] (005/158) Accurately ripped
07 [0f6f76aa] (005/160) Accurately ripped
08 [3977cd2c] (004/157) Accurately ripped
09 [1986e0b2] (004/154) Accurately ripped
Offsetted by -1318:
01 [50a4dcb9] (006/158) Accurately ripped
02 [3714e586] (006/160) Accurately ripped
03 [37e37123] (006/160) Accurately ripped
04 [a217d007] (006/161) Accurately ripped
05 [d02bbcba] (006/158) Accurately ripped
06 [8a14e1f0] (006/158) Accurately ripped
07 [57074aa2] (006/160) Accurately ripped
08 [5ac238fc] (006/157) Accurately ripped
09 [17954e82] (006/154) Accurately ripped
Offsetted by -654:
01 [a28fd7f9] (003/158) Accurately ripped
02 [350cc386] (003/160) Accurately ripped
03 [9fed39cb] (003/160) Accurately ripped
04 [125d4017] (003/161) Accurately ripped
05 [8e000ada] (003/158) Accurately ripped
06 [52dca9d8] (003/158) Accurately ripped
07 [9e9f1e9a] (003/160) Accurately ripped
08 [7c0ca4cc] (002/157) Accurately ripped
09 [15a3bc52] (002/154) Accurately ripped
Offsetted by -2641:
01 [389b1411] (002/158) Accurately ripped
02 [1efc3bc6] (002/160) Accurately ripped
03 [4d9b83a6] (002/160) Accurately ripped
04 [482dd875] (002/161) Accurately ripped
05 [6fc5e1d6] (000/158) No match (V2 was not tested)
06 [ae77674b] (002/158) Accurately ripped
07 [1c0b48eb] (002/160) Accurately ripped
08 [c2d66c32] (002/157) Accurately ripped
09 [38c1cf78] (002/154) Accurately ripped
Offsetted by -2000:
01 [6ddad609] (000/158) No match (V2 was not tested)
02 [6b49f906] (000/160) No match (V2 was not tested)
03 [2e2fc11d] (000/160) No match (V2 was not tested)
04 [19f5812b] (000/161) No match (V2 was not tested)
05 [7d00b682] (000/158) No match (V2 was not tested)
06 [657f343a] (000/158) No match (V2 was not tested)
07 [ad1bed10] (000/160) No match (V2 was not tested)
08 [9fe40c90] (000/157) No match (V2 was not tested)
09 [167ec696] (000/154) No match (V2 was not tested)
Offsetted by -1977:
01 [8a860f51] (009/158) Accurately ripped
02 [1cf419c6] (009/160) Accurately ripped
03 [b5a54c4e] (009/160) Accurately ripped
04 [b8734885] (009/161) Accurately ripped
05 [2d9a2ff6] (000/158) No match (V2 was not tested)
06 [773f2f33] (009/158) Accurately ripped
07 [63a31ce3] (009/160) Accurately ripped
08 [e420d802] (009/157) Accurately ripped
09 [36d03d48] (009/154) Accurately ripped
Offsetted by -66:
01 [745b4d99] (000/158) No match (V2 was not tested)
02 [78a5f286] (000/160) No match (V2 was not tested)
03 [9646151f] (000/160) No match (V2 was not tested)
04 [1de1ae1f] (000/161) No match (V2 was not tested)
05 [4710ddea] (000/158) No match (V2 was not tested)
06 [b477fccc] (000/158) No match (V2 was not tested)
07 [7ff2ad96] (000/160) No match (V2 was not tested)
08 [14e738b4] (000/157) No match (V2 was not tested)
09 [2357113a] (000/154) No match (V2 was not tested)
Offsetted by 1683:
01 [465924f1] (000/158) No match (V2 was not tested)
02 [97ec48c6] (000/160) No match (V2 was not tested)
03 [c7edbba2] (000/160) No match (V2 was not tested)
04 [ac8c3e8d] (000/161) No match (V2 was not tested)
05 [207b1306] (000/158) No match (V2 was not tested)
06 [b773b627] (000/158) No match (V2 was not tested)
07 [275267df] (000/160) No match (V2 was not tested)
08 [df7bd3ea] (000/157) No match (V2 was not tested)
09 [f494fa30] (000/154) No match (V2 was not tested)

Track Peak [ CRC32 ] [W/O NULL] [ LOG ]
– 98,8 [627DE56E] [C1DFD4B3] CRC32
01 98,8 [880CA38F] [7ACCC36B]
02 97,5 [E9610047] [C45A5D60]
03 93,0 [19A080AA] [C90F4271]
04 76,4 [28CCD167] [5B9F567C]
05 98,8 [8AFF8E14] [DE2FB834]
06 97,5 [3FD8FDC2] [501BEDED]
07 88,5 [9CD6315F] [494ADC2D]
08 98,8 [222A75FD] [C99EE116]
09 98,8 [187DBEBF] [A9EDC3B6]

Ozric Tentacles - 13 Studio Albums (1989-2011) (Re-up)

Ozric Tentacles - Arborescence (1994)
EAC Rip | FLAC (tracks+.cue+log) - 340 MB | MP3 CBR 320 kbps (LAME 3.93) - 116 MB | Covers - 9 MB
Genre: Psychedelic/Space Rock | RAR 3% Rec. | Label: Dovetail Records/I.R.S. Records (7243 8 29486 29)

Tracklist:
01. Astro Cortex
02. Yog-Bar-Og
03. Arborescence
04. Al-Salooq
05. Dance of the Loomi
06. Myriapod
07. There's a Planet Here
08. Shima Koto

Total time: 49:17

Exact Audio Copy V1.3 from 2. September 2016

EAC extraction logfile from 18. February 2017, 14:43

Ozric Tentacles / Arborescence

Used drive : PLDS DVD-RW DS8ABSH Adapter: 1 ID: 0

Read mode : Secure
Utilize accurate stream : Yes
Defeat audio cache : Yes
Make use of C2 pointers : No

Read offset correction : 6
Overread into Lead-In and Lead-Out : No
Fill up missing offset samples with silence : Yes
Delete leading and trailing silent blocks : No
Null samples used in CRC calculations : Yes
Used interface : Native Win32 interface for Win NT & 2000
Gap handling : Appended to previous track

Used output format : User Defined Encoder
Selected bitrate : 1024 kBit/s
Quality : High
Add ID3 tag : No
Command line compressor : C:\Program Files (x86)\Exact Audio Copy\Flac\flac.exe
Additional command line options : -8 -e -p -V -T "ARTIST=%artist%" -T "TITLE=%title%" -T "ALBUM=%albumtitle%" -T "DATE=%year%" -T "TRACKNUMBER=%tracknr%" -T "GENRE=%genre%" -T "PERFORMER=%albuminterpret%" -T "COMPOSER=%composer%" %haslyrics%–tag-from-file=LYRICS="%lyricsfile%"%haslyrics% -T "ALBUMARTIST=%albumartist%" -T "DISCNUMBER=%cdnumber%" -T "TOTALDISCS=%totalcds%" -T "TOTALTRACKS=%numtracks%" -T "COMMENT=%comment%" %source% -o %dest%


TOC of the extracted CD

Track | Start | Length | Start sector | End sector
––––––––––––––––––––––––––––-
1 | 0:00.00 | 5:21.15 | 0 | 24089
2 | 5:21.15 | 9:40.40 | 24090 | 67629
3 | 15:01.55 | 4:53.50 | 67630 | 89654
4 | 19:55.30 | 5:02.70 | 89655 | 112374
5 | 24:58.25 | 5:14.67 | 112375 | 135991
6 | 30:13.17 | 5:59.18 | 135992 | 162934
7 | 36:12.35 | 6:39.50 | 162935 | 192909
8 | 42:52.10 | 6:24.47 | 192910 | 221756


Track 1

Filename E:\el-rips\Ozric Tentacles - Arborescence (1994) [FLAC] {CD 7243 8 29486 29}\01 - Astro Cortex.wav

Pre-gap length 0:00:02.00

Peak level 100.0 %
Extraction speed 1.2 X
Track quality 100.0 %
Test CRC C0BBD76F
Copy CRC C0BBD76F
Accurately ripped (confidence 24) [8D87A2DD] (AR v2)
Copy OK

Track 2

Filename E:\el-rips\Ozric Tentacles - Arborescence (1994) [FLAC] {CD 7243 8 29486 29}\02 - Yog-Bar-Og.wav

Peak level 100.0 %
Extraction speed 1.5 X
Track quality 100.0 %
Test CRC 5E4EDB4C
Copy CRC 5E4EDB4C
Accurately ripped (confidence 24) [0B7066C8] (AR v2)
Copy OK

Track 3

Filename E:\el-rips\Ozric Tentacles - Arborescence (1994) [FLAC] {CD 7243 8 29486 29}\03 - Arborescence.wav

Peak level 53.0 %
Extraction speed 1.6 X
Track quality 100.0 %
Test CRC BB1CBAC8
Copy CRC BB1CBAC8
Accurately ripped (confidence 24) [FBDF9107] (AR v2)
Copy OK

Track 4

Filename E:\el-rips\Ozric Tentacles - Arborescence (1994) [FLAC] {CD 7243 8 29486 29}\04 - Al-Salooq.wav

Peak level 95.8 %
Extraction speed 1.7 X
Track quality 100.0 %
Test CRC 6D201538
Copy CRC 6D201538
Accurately ripped (confidence 24) [BBA09418] (AR v2)
Copy OK

Track 5

Filename E:\el-rips\Ozric Tentacles - Arborescence (1994) [FLAC] {CD 7243 8 29486 29}\05 - Dance of the Loomi.wav

Peak level 94.4 %
Extraction speed 1.8 X
Track quality 100.0 %
Test CRC C2593BB9
Copy CRC C2593BB9
Accurately ripped (confidence 24) [941AB209] (AR v2)
Copy OK

Track 6

Filename E:\el-rips\Ozric Tentacles - Arborescence (1994) [FLAC] {CD 7243 8 29486 29}\06 - Myriapod.wav

Peak level 94.4 %
Extraction speed 2.0 X
Track quality 100.0 %
Test CRC 92E79B9C
Copy CRC 92E79B9C
Accurately ripped (confidence 24) [D6CB779C] (AR v2)
Copy OK

Track 7

Filename E:\el-rips\Ozric Tentacles - Arborescence (1994) [FLAC] {CD 7243 8 29486 29}\07 - There's a Planet Here.wav

Peak level 100.0 %
Extraction speed 2.1 X
Track quality 100.0 %
Test CRC FBDB3BC9
Copy CRC FBDB3BC9
Accurately ripped (confidence 24) [F9297DF8] (AR v2)
Copy OK

Track 8

Filename E:\el-rips\Ozric Tentacles - Arborescence (1994) [FLAC] {CD 7243 8 29486 29}\08 - Shima Koto.wav

Peak level 100.0 %
Extraction speed 2.2 X
Track quality 100.0 %
Test CRC E09F080F
Copy CRC E09F080F
Accurately ripped (confidence 24) [E1BD32E2] (AR v2)
Copy OK


All tracks accurately ripped

No errors occurred

End of status report

–– CUETools DB Plugin V2.1.6

[CTDB TOCID: qHdfH0VjIGt_Jab9_ukI8S0hBXs-] found
Submit result: qHdfH0VjIGt_Jab9_ukI8S0hBXs- has been confirmed
Track | CTDB Status
1 | (26/27) Accurately ripped
2 | (25/27) Accurately ripped
3 | (25/27) Accurately ripped
4 | (25/27) Accurately ripped
5 | (25/27) Accurately ripped
6 | (27/27) Accurately ripped
7 | (25/27) Accurately ripped
8 | (27/27) Accurately ripped


==== Log checksum 3185537D5FC73BC98D35264A65AB24D64D4202B594905A487B268918503FB6A7 ====

[CUETools log; Date: 17.05.2022 17:55:50; Version: 2.1.4]
[CTDB TOCID: qHdfH0VjIGt_Jab9_ukI8S0hBXs-] found.
Track | CTDB Status
1 | (80/82) Accurately ripped
2 | (79/82) Accurately ripped
3 | (79/82) Accurately ripped
4 | (80/82) Accurately ripped
5 | (79/82) Accurately ripped
6 | (80/82) Accurately ripped
7 | (78/82) Accurately ripped
8 | (81/82) Accurately ripped
[AccurateRip ID: 000f5ef0-0065bb94-5d0b8c08] found.
Track [ CRC | V2 ] Status
01 [75d30f5e|8d87a2dd] (25+42/67) Accurately ripped
02 [b0c525c6|0b7066c8] (26+42/68) Accurately ripped
03 [dcb72635|fbdf9107] (26+42/68) Accurately ripped
04 [45e68291|bba09418] (26+42/68) Accurately ripped
05 [e2cdaf0b|941ab209] (27+42/69) Accurately ripped
06 [feaeccee|d6cb779c] (26+42/68) Accurately ripped
07 [f7d1231c|f9297df8] (26+42/68) Accurately ripped
08 [14123a86|e1bd32e2] (26+40/66) Accurately ripped

Track Peak [ CRC32 ] [W/O NULL] [ LOG ]
– 100,0 [AF2F6398] [EF097C62]
01 100,0 [C0BBD76F] [8FB419AF] CRC32
02 100,0 [5E4EDB4C] [B28A9EB5] CRC32
03 53,0 [BB1CBAC8] [C2747AF8] CRC32
04 95,8 [6D201538] [6976C31E] CRC32
05 94,4 [C2593BB9] [BB494798] CRC32
06 94,4 [92E79B9C] [5E424631] CRC32
07 100,0 [FBDB3BC9] [24891BC2] CRC32
08 100,0 [E09F080F] [06411A3F] CRC32

Ozric Tentacles - 13 Studio Albums (1989-2011) (Re-up)

Ozric Tentacles - Become The Other (1995) [Reissue 1999]
EAC Rip | FLAC (image+.cue+log) - 371 MB | MP3 CBR 320 kbps (LAME 3.93) - 129 MB | Covers - 21 MB
Genre: Psychedelic/Space Rock | RAR 3% Rec. | Label: Snapper Music (SMM CD 593)

Tracklist:
01. Cat DNA
02. Ahu Belahu
03. Ghedengi
04. Wob Glass
05. Neurochasm
06. Become The Other
07. Vibuthi
08. Plurnstyle

Total time: 54:49

Exact Audio Copy V0.99 prebeta 4 from 23. January 2008

EAC extraction logfile from 10. February 2008, 18:44

Ozric Tentacles / Become The Other

Used drive : PLEXTOR CD-R PX-W5224A Adapter: 1 ID: 1

Read mode : Secure
Utilize accurate stream : Yes
Defeat audio cache : Yes
Make use of C2 pointers : No

Read offset correction : 30
Overread into Lead-In and Lead-Out : Yes
Fill up missing offset samples with silence : Yes
Delete leading and trailing silent blocks : No
Null samples used in CRC calculations : Yes
Used interface : Installed external ASPI interface

Used output format : Internal WAV Routines
Sample format : 44.100 Hz; 16 Bit; Stereo


TOC of the extracted CD

Track | Start | Length | Start sector | End sector
––––––––––––––––––––––––––––-
1 | 0:00.32 | 6:30.58 | 32 | 29339
2 | 6:31.15 | 2:52.65 | 29340 | 42304
3 | 9:24.05 | 5:41.22 | 42305 | 67901
4 | 15:05.27 | 7:52.05 | 67902 | 103306
5 | 22:57.32 | 6:47.28 | 103307 | 133859
6 | 29:44.60 | 6:25.17 | 133860 | 162751
7 | 36:10.02 | 10:50.70 | 162752 | 211571
8 | 47:00.72 | 7:48.03 | 211572 | 246674


Range status and errors

Selected range

Filename C:\DAE\Ozric Tentacles - Become The Other\Ozric Tentacles - Become The Other.wav

Peak level 98.8 %
Range quality 100.0 %
Test CRC 2E8A3C7D
Copy CRC 2E8A3C7D
Copy OK

No errors occurred

End of status report

[CUETools log; Date: 17.05.2022 16:52:55; Version: 2.1.4]
Pregap length 00:00:32.
[CTDB TOCID: 09a.dlQN5LWMzYWPU9SO7N0WgFc-] found.
Track | CTDB Status
1 | (129/134) Accurately ripped
2 | (129/134) Accurately ripped
3 | (128/134) Accurately ripped
4 | (130/134) Accurately ripped
5 | (130/134) Accurately ripped
6 | (132/134) Accurately ripped
7 | (128/134) Accurately ripped
8 | (128/134) Accurately ripped
[AccurateRip ID: 000f3971-0068332d-760cd908] found.
Track [ CRC | V2 ] Status
01 [3ce6fdac|5d599dff] (011+012/115) Accurately ripped
02 [306334dc|61c10676] (011+011/117) Accurately ripped
03 [8087632a|4d1e2e27] (011+011/115) Accurately ripped
04 [e6362a2d|7174ee86] (011+012/118) Accurately ripped
05 [84bde378|69da34d3] (011+012/116) Accurately ripped
06 [5933a417|b96d281d] (011+012/116) Accurately ripped
07 [ba914fba|9af69fc3] (011+011/116) Accurately ripped
08 [316fc9e8|767e55bd] (011+012/118) Accurately ripped
Offsetted by -2058:
01 [63237989] (002/115) Accurately ripped
02 [6114cf08] (002/117) Accurately ripped
03 [262de872] (002/115) Accurately ripped
04 [91bd7599] (002/118) Accurately ripped
05 [8a571de8] (002/116) Accurately ripped
06 [5441c2fc] (002/116) Accurately ripped
07 [9d9bce1b] (002/116) Accurately ripped
08 [639526f9] (002/118) Accurately ripped
Offsetted by -2048:
01 [dc3659e4] (007/115) Accurately ripped
02 [7fb55133] (007/117) Accurately ripped
03 [8cd4dbee] (007/115) Accurately ripped
04 [8f533948] (007/118) Accurately ripped
05 [47136263] (007/116) Accurately ripped
06 [f7ac26c1] (007/116) Accurately ripped
07 [45d6be49] (007/116) Accurately ripped
08 [615ae1ba] (007/118) Accurately ripped
Offsetted by -1394:
01 [a4cfc4c8] (004/115) Accurately ripped
02 [c7c78425] (004/117) Accurately ripped
03 [7b7537a1] (004/115) Accurately ripped
04 [376aa200] (004/118) Accurately ripped
05 [c404120a] (004/116) Accurately ripped
06 [05604bc6] (004/116) Accurately ripped
07 [6d59c2ec] (004/116) Accurately ripped
08 [c2e29392] (004/118) Accurately ripped
Offsetted by -735:
01 [679304c4] (002/115) Accurately ripped
02 [0e3cae12] (002/117) Accurately ripped
03 [49c4e581] (002/115) Accurately ripped
04 [5f4c2ced] (002/118) Accurately ripped
05 [b56226aa] (002/116) Accurately ripped
06 [2825ef24] (002/116) Accurately ripped
07 [f6d83bcc] (002/116) Accurately ripped
08 [df75b348] (002/118) Accurately ripped
Offsetted by -71:
01 [92ccaec6] (003/115) Accurately ripped
02 [1ccdb3d6] (003/117) Accurately ripped
03 [3d57b7ca] (003/115) Accurately ripped
04 [cd829e02] (003/118) Accurately ripped
05 [88d5eb84] (003/116) Accurately ripped
06 [f2e1e724] (003/116) Accurately ripped
07 [e23ddc04] (003/116) Accurately ripped
08 [82ac4dca] (003/118) Accurately ripped
Offsetted by 920:
01 [e3c71627] (014/115) Accurately ripped
02 [a6923e9f] (015/117) Accurately ripped
03 [c12f024c] (014/115) Accurately ripped
04 [4667ad5e] (015/118) Accurately ripped
05 [f0fd867a] (015/116) Accurately ripped
06 [0e7fe048] (015/116) Accurately ripped
07 [9977af20] (014/116) Accurately ripped
08 [a9a2a8a6] (015/118) Accurately ripped
Offsetted by -659:
01 [2bb20c4c] (000/115) No match (V2 was not tested)
02 [748c0507] (000/117) No match (V2 was not tested)
03 [112c0f39] (000/115) No match (V2 was not tested)
04 [5565533d] (000/118) No match (V2 was not tested)
05 [9d54c488] (000/116) No match (V2 was not tested)
06 [f303fdba] (000/116) No match (V2 was not tested)
07 [23dc5ade] (000/116) No match (V2 was not tested)
08 [733eb6e9] (000/118) No match (V2 was not tested)

Track Peak [ CRC32 ] [W/O NULL] [ LOG ]
– 98,8 [2E8A3C7D] [2D7C7147] CRC32
01 98,8 [3A0F61E4] [CD7EE890]
02 98,8 [07396788] [915ECA64]
03 98,8 [8D5B3575] [712899AF]
04 98,8 [4EBAEA36] [83A5ED72]
05 98,8 [52C36CED] [8C001154]
06 98,8 [84AB0520] [D950925A]
07 98,8 [CD402306] [7F7A76D6]
08 98,8 [CCC3D321] [300CF32E]

Ozric Tentacles - 13 Studio Albums (1989-2011) (Re-up)

Ozric Tentacles - Curious Corn (1997)
EAC Rip | FLAC (tracks+.cue+log) - 332 MB | MP3 CBR 320 kbps (LAME 3.93) - 109 MB | Covers - 25 MB
Genre: Psychedelic/Space Rock | RAR 3% Rec. | Label: Snapper Music (SMACD 502)

Tracklist:
01. Spyroid
02. Oolite Grove
03. Afroclonk
04. Curious Corn
05. Oddentity
06. Papyrus
07. Meander

Total time: 46:36

Exact Audio Copy V1.3 from 2. September 2016

EAC extraction logfile from 24. February 2017, 12:34

Ozric Tentacles / Curious Corn

Used drive : ATAPI iHAS524 B Adapter: 1 ID: 0

Read mode : Secure
Utilize accurate stream : Yes
Defeat audio cache : Yes
Make use of C2 pointers : No

Read offset correction : 6
Overread into Lead-In and Lead-Out : No
Fill up missing offset samples with silence : Yes
Delete leading and trailing silent blocks : No
Null samples used in CRC calculations : Yes
Used interface : Native Win32 interface for Win NT & 2000
Gap handling : Appended to previous track

Used output format : User Defined Encoder
Selected bitrate : 896 kBit/s
Quality : High
Add ID3 tag : No
Command line compressor : C:\Program Files (x86)\Exact Audio Copy\Flac\flac.exe
Additional command line options : -8 -e -p -V -T "ARTIST=%artist%" -T "TITLE=%title%" -T "ALBUM=%albumtitle%" -T "DATE=%year%" -T "TRACKNUMBER=%tracknr%" -T "GENRE=%genre%" -T "PERFORMER=%albuminterpret%" -T "COMPOSER=%composer%" %haslyrics%–tag-from-file=LYRICS="%lyricsfile%"%haslyrics% -T "ALBUMARTIST=%albumartist%" -T "DISCNUMBER=%cdnumber%" -T "TOTALDISCS=%totalcds%" -T "TOTALTRACKS=%numtracks%" -T "COMMENT=%comment%" %source% -o %dest%


TOC of the extracted CD

Track | Start | Length | Start sector | End sector
––––––––––––––––––––––––––––-
1 | 0:00.00 | 3:47.57 | 0 | 17081
2 | 3:47.57 | 5:57.73 | 17082 | 43929
3 | 9:45.55 | 8:06.55 | 43930 | 80434
4 | 17:52.35 | 10:56.32 | 80435 | 129666
5 | 28:48.67 | 7:00.33 | 129667 | 161199
6 | 35:49.25 | 5:32.67 | 161200 | 186166
7 | 41:22.17 | 5:13.38 | 186167 | 209679


Track 1

Filename U:\el-rips (hey there, people of the future!)\Ozric Tentacles - Curious Corn (1997) [FLAC] {SMACD 502}\01 - Spyroid.wav

Pre-gap length 0:00:02.00

Peak level 100.0 %
Extraction speed 2.8 X
Track quality 99.9 %
Test CRC 4B92FC9E
Copy CRC 4B92FC9E
Accurately ripped (confidence 29) [E8C61CBC] (AR v2)
Copy OK

Track 2

Filename U:\el-rips (hey there, people of the future!)\Ozric Tentacles - Curious Corn (1997) [FLAC] {SMACD 502}\02 - Oolite Grove.wav

Peak level 100.0 %
Extraction speed 4.3 X
Track quality 100.0 %
Test CRC 50371AF1
Copy CRC 50371AF1
Accurately ripped (confidence 29) [50DB47F3] (AR v2)
Copy OK

Track 3

Filename U:\el-rips (hey there, people of the future!)\Ozric Tentacles - Curious Corn (1997) [FLAC] {SMACD 502}\03 - Afroclonk.wav

Peak level 100.0 %
Extraction speed 5.0 X
Track quality 100.0 %
Test CRC EA1103DA
Copy CRC EA1103DA
Accurately ripped (confidence 30) [2E5CDEC4] (AR v2)
Copy OK

Track 4

Filename U:\el-rips (hey there, people of the future!)\Ozric Tentacles - Curious Corn (1997) [FLAC] {SMACD 502}\04 - Curious Corn.wav

Peak level 100.0 %
Extraction speed 5.8 X
Track quality 100.0 %
Test CRC 8FEB3E60
Copy CRC 8FEB3E60
Accurately ripped (confidence 29) [A54AE11A] (AR v2)
Copy OK

Track 5

Filename U:\el-rips (hey there, people of the future!)\Ozric Tentacles - Curious Corn (1997) [FLAC] {SMACD 502}\05 - Oddentity.wav

Peak level 100.0 %
Extraction speed 6.2 X
Track quality 100.0 %
Test CRC 167BD543
Copy CRC 167BD543
Accurately ripped (confidence 30) [3927D496] (AR v2)
Copy OK

Track 6

Filename U:\el-rips (hey there, people of the future!)\Ozric Tentacles - Curious Corn (1997) [FLAC] {SMACD 502}\06 - Papyrus.wav

Peak level 100.0 %
Extraction speed 6.5 X
Track quality 100.0 %
Test CRC 75183BC9
Copy CRC 75183BC9
Accurately ripped (confidence 30) [95608A4B] (AR v2)
Copy OK

Track 7

Filename U:\el-rips (hey there, people of the future!)\Ozric Tentacles - Curious Corn (1997) [FLAC] {SMACD 502}\07 - Meander.wav

Peak level 100.0 %
Extraction speed 6.7 X
Track quality 100.0 %
Test CRC 458DDA5F
Copy CRC 458DDA5F
Accurately ripped (confidence 30) [3400E0FB] (AR v2)
Copy OK


All tracks accurately ripped

No errors occurred

End of status report

–– CUETools DB Plugin V2.1.6

[CTDB TOCID: ZuEasXTaAFpd2SRab5v_U3aIbOA-] found
Submit result: ZuEasXTaAFpd2SRab5v_U3aIbOA- has been confirmed
Track | CTDB Status
1 | (36/37) Accurately ripped
2 | (36/37) Accurately ripped
3 | (36/37) Accurately ripped
4 | (36/37) Accurately ripped
5 | (36/37) Accurately ripped
6 | (35/37) Accurately ripped
7 | (36/37) Accurately ripped


==== Log checksum A922EE260AAE453D8E1FBC29EB5618DFE5AC0D04F3944E1EB1AE8C7E30ED92BE ====

[CUETools log; Date: 17.05.2022 17:10:05; Version: 2.1.4]
[CTDB TOCID: ZuEasXTaAFpd2SRab5v_U3aIbOA-] found.
Track | CTDB Status
1 | (105/107) Accurately ripped
2 | (106/107) Accurately ripped
3 | (105/107) Accurately ripped
4 | (106/107) Accurately ripped
5 | (105/107) Accurately ripped
6 | (103/107) Accurately ripped
7 | (105/107) Accurately ripped
[AccurateRip ID: 000ca301-004d92bf-550aeb07] found.
Track [ CRC | V2 ] Status
01 [e28a5a36|e8c61cbc] (26+52/80) Accurately ripped
02 [2e7406cd|50db47f3] (29+52/83) Accurately ripped
03 [ac9450f3|2e5cdec4] (28+53/83) Accurately ripped
04 [c3838de4|a54ae11a] (28+52/82) Accurately ripped
05 [d673d26f|3927d496] (29+53/84) Accurately ripped
06 [aa986468|95608a4b] (28+53/83) Accurately ripped
07 [d9425e4a|3400e0fb] (28+53/83) Accurately ripped
Offsetted by -681:
01 [ed3a5d1a] (00/80) No match (V2 was not tested)
02 [29d5f65c] (00/83) No match (V2 was not tested)
03 [5ee6eb8b] (00/83) No match (V2 was not tested)
04 [a2a1796b] (00/82) No match (V2 was not tested)
05 [772825ac] (00/84) No match (V2 was not tested)
06 [a5fd9368] (00/83) No match (V2 was not tested)
07 [8a1fe408] (00/83) No match (V2 was not tested)

Track Peak [ CRC32 ] [W/O NULL] [ LOG ]
– 100,0 [67AB0535] [B9DF583B]
01 100,0 [4B92FC9E] [29C7716A] CRC32
02 100,0 [50371AF1] [57CB3FCB] CRC32
03 100,0 [EA1103DA] [D66AF810] CRC32
04 100,0 [8FEB3E60] [55D6AF41] CRC32
05 100,0 [167BD543] [C37CCF20] CRC32
06 100,0 [75183BC9] [5F0369CF] CRC32
07 100,0 [458DDA5F] [A0DF02FA] CRC32

Ozric Tentacles - 13 Studio Albums (1989-2011) (Re-up)

Ozric Tentacles - Waterfall Cities (1999)
EAC Rip | FLAC (image+.cue+log) - 429 MB | MP3 CBR 320 kbps (LAME 3.93) - 135 MB | Covers - 17 MB
Genre: Psychedelic/Space Rock | RAR 3% Rec. | Label: Phoenix Rising (2005)

Tracklist:
01. Coily
02. Xingu
03. Waterfall City
04. Ch'ai
05. Spiralmind
06. Sultana Detrii
07. Aura Borealis

Total time: 57:35

EAC extraction logfile from 3. December 2006, 10:04 for CD
Ozric Tentacles / Waterfall Cities

Used drive : PLEXTOR CD-R PX-W5224A Adapter: 1 ID: 1
Read mode : Secure with NO C2, accurate stream, disable cache
Read offset correction : 30
Overread into Lead-In and Lead-Out : Yes

Used output format : Internal WAV Routines
44.100 Hz; 16 Bit; Stereo

Other options :
Fill up missing offset samples with silence : Yes
Delete leading and trailing silent blocks : No
Installed external ASPI interface


Range status and errors
Selected range
Filename C:\DAE\Ozric Tentacles\Waterfall Cities\cdimage.wav

Peak level 100.0 %
Range quality 99.9 %
CRC 84BF08F5
Copy OK

No errors occured

End of status report

[CUETools log; Date: 17.05.2022 16:55:34; Version: 2.1.4]
[CTDB TOCID: EwCDpdKoBElpMR75GqYaq3g.81I-] found.
Track | CTDB Status
1 | (44/47) Accurately ripped
2 | (43/47) Accurately ripped
3 | (43/47) Accurately ripped
4 | (44/47) Accurately ripped
5 | (43/47) Accurately ripped
6 | (45/47) Accurately ripped
7 | (43/47) Accurately ripped
[AccurateRip ID: 000fe01b-005ff678-690d7f07] found.
Track [ CRC | V2 ] Status
01 [1f86fb3e|c900818a] (21+24/45) Accurately ripped
02 [a44e0c52|64f54c38] (22+24/46) Accurately ripped
03 [44a3ebc1|31a99c75] (22+23/45) Accurately ripped
04 [22cc669f|98bd145d] (22+23/45) Accurately ripped
05 [63598e5f|def59a5b] (21+20/43) Accurately ripped
06 [677cdd13|34065be1] (22+24/46) Accurately ripped
07 [fb616f3a|390b3649] (21+23/44) Accurately ripped

Track Peak [ CRC32 ] [W/O NULL] [ LOG ]
– 100,0 [84BF08F5] [E8FC2F0E] CRC32
01 100,0 [8259A1A8] [57DF0A73]
02 100,0 [8220B9EB] [68FCE430]
03 100,0 [7DDB4A72] [7643707B]
04 100,0 [0BA03369] [E396C8D9]
05 100,0 [4E943D95] [09AC4018]
06 100,0 [89F0F47A] [17727C74]
07 100,0 [751DF678] [78424438]

Ozric Tentacles - 13 Studio Albums (1989-2011) (Re-up)

Ozric Tentacles - The Hidden Step (2000)
EAC Rip | FLAC (image+.cue+log) - 292 MB | MP3 CBR 320 kbps (LAME 3.93) - 112 MB | Covers - 24 MB
Genre: Psychedelic/Space Rock | RAR 3% Rec. | Label: Stretchy Records (STRETCHYCD3)

Tracklist:
01. Holohedron
02. The Hidden Step
03. Ashlandi Bol
04. Aramanu
05. Pixel Dream
06. Tight Spin
07. Ta Khut

Total time: 47:54

EAC extraction logfile from 16. August 2005, 12:59 for CD
Ozric Tentacles / The Hidden Step

Used drive : PLEXTOR DVDR PX-708A Adapter: 1 ID: 0
Read mode : Secure with NO C2, accurate stream, disable cache
Read offset correction : 30
Overread into Lead-In and Lead-Out : Yes

Used output format : Internal WAV Routines
44.100 Hz; 16 Bit; Stereo

Other options :
Fill up missing offset samples with silence : Yes
Delete leading and trailing silent blocks : No
Installed external ASPI interface


Range status and errors
Selected range
Filename C:\DAE\Ozric Tentacles\The Hidden Step\CDImage.wav

Peak level 98.8 %
Range quality 100.0 %
CRC 8062F5E3
Copy OK

No errors occured

End of status report

[CUETools log; Date: 17.05.2022 16:56:59; Version: 2.1.4]
[CTDB TOCID: WUP2x0hdW62VwIA9yyLZnuJiZh4-] found.
Track | CTDB Status
1 | (64/65) Accurately ripped
2 | (63/65) Accurately ripped
3 | (64/65) Accurately ripped
4 | (64/65) Accurately ripped
5 | (64/65) Accurately ripped
6 | (64/65) Accurately ripped
7 | (63/65) Accurately ripped
[AccurateRip ID: 000cbd7a-004cf2e0-580b3907] found.
Track [ CRC | V2 ] Status
01 [dd502c30|1a53c785] (18+32/50) Accurately ripped
02 [9fc58dbe|b9281b39] (17+30/47) Accurately ripped
03 [92468746|ebcf375b] (16+31/47) Accurately ripped
04 [7a0c0595|bec0e391] (16+31/47) Accurately ripped
05 [df862995|7d9e08ae] (17+31/48) Accurately ripped
06 [3f680d9d|b3c74437] (18+31/49) Accurately ripped
07 [61624497|d08bc568] (16+30/46) Accurately ripped
Offsetted by -66:
01 [7513b69c] (00/50) No match (V2 was not tested)
02 [a3f00e27] (00/47) No match (V2 was not tested)
03 [6d2cb20a] (00/47) No match (V2 was not tested)
04 [f8876cb9] (00/47) No match (V2 was not tested)
05 [aeff8f51] (00/48) No match (V2 was not tested)
06 [3f41d6cb] (00/49) No match (V2 was not tested)
07 [23979d3c] (00/46) No match (V2 was not tested)

Track Peak [ CRC32 ] [W/O NULL] [ LOG ]
– 98,8 [8062F5E3] [75FD1388] CRC32
01 98,8 [668A499F] [B27F1E03]
02 98,8 [413616D7] [EE4E8076]
03 98,8 [5D6043C8] [1BB2FE00]
04 98,8 [4F91481F] [F2991466]
05 98,8 [6FBD9E97] [D92FDD7C]
06 98,8 [F56BDC5B] [55B0702D]
07 98,8 [5D68AF89] [66532090]

Ozric Tentacles - 13 Studio Albums (1989-2011) (Re-up)

Ozric Tentacles - Swirly Termination (2000)
EAC Rip | FLAC (image+.cue+log) - 339 MB | MP3 CBR 320 kbps (LAME 3.93) - 107 MB | Covers - 13 MB
Genre: Psychedelic/Space Rock | RAR 3% Rec. | Label: Snapper Music (SMA CD 821)

Tracklist:
01. Steep
02. Space Out
03. Pyoing
04. Far Dreaming
05. Waldorfdub
06. Kick 98
07. Voy Mandala

Total time: 45:44

EAC extraction logfile from 16. August 2005, 13:47 for CD
Ozric Tentacles / Swirly Termination

Used drive : PLEXTOR DVDR PX-708A Adapter: 1 ID: 0
Read mode : Secure with NO C2, accurate stream, disable cache
Read offset correction : 30
Overread into Lead-In and Lead-Out : Yes

Used output format : Internal WAV Routines
44.100 Hz; 16 Bit; Stereo

Other options :
Fill up missing offset samples with silence : Yes
Delete leading and trailing silent blocks : No
Installed external ASPI interface


Range status and errors
Selected range
Filename C:\DAE\Ozric Tentacles\Swirly Termination\CDImage.wav

Peak level 100.0 %
Range quality 100.0 %
CRC 3AC84DB4
Copy OK

No errors occured

End of status report

[CUETools log; Date: 17.05.2022 16:57:48; Version: 2.1.4]
[CTDB TOCID: GMmP6lBW_oDvwx2W8BwlNT8vtCk-] found.
Track | CTDB Status
1 | (84/86) Accurately ripped
2 | (83/86) Accurately ripped
3 | (83/86) Accurately ripped
4 | (83/86) Accurately ripped
5 | (82/86) Accurately ripped
6 | (82/86) Accurately ripped
7 | (82/86) Accurately ripped
[AccurateRip ID: 000afc3b-004389ff-4f0ab707] found.
Track [ CRC | V2 ] Status
01 [6b2be0ee|b6e5d255] (15+34/80) Accurately ripped
02 [4e7542f7|db8a6a98] (15+34/79) Accurately ripped
03 [de254b73|83b4ada0] (15+34/80) Accurately ripped
04 [871a2265|94d005b6] (15+34/80) Accurately ripped
05 [d58a4179|632dfd5f] (15+33/79) Accurately ripped
06 [923300a9|4af2fd25] (15+33/79) Accurately ripped
07 [f4d60bac|f5cd57be] (14+34/78) Accurately ripped
Offsetted by -1328:
01 [a7880aa5] (02/80) Accurately ripped
02 [65522bcb] (02/79) Accurately ripped
03 [7334f2d5] (02/80) Accurately ripped
04 [8e0f2a4c] (02/80) Accurately ripped
05 [725eed82] (02/79) Accurately ripped
06 [9edf2cd5] (02/79) Accurately ripped
07 [3e6e8b25] (02/78) Accurately ripped
Offsetted by -664:
01 [85226f20] (11/80) Accurately ripped
02 [3c187607] (11/79) Accurately ripped
03 [873efa6d] (11/80) Accurately ripped
04 [356cfb98] (11/80) Accurately ripped
05 [0d455214] (11/79) Accurately ripped
06 [2847415a] (11/79) Accurately ripped
07 [ef3f3814] (11/78) Accurately ripped
Offsetted by -659:
01 [dba1f39a] (03/80) Accurately ripped
02 [3aaf1962] (02/79) Accurately ripped
03 [4367c8b6] (03/80) Accurately ripped
04 [e65f4a19] (03/80) Accurately ripped
05 [e3a57695] (03/79) Accurately ripped
06 [c2916968] (03/79) Accurately ripped
07 [ab34d857] (03/78) Accurately ripped

Track Peak [ CRC32 ] [W/O NULL] [ LOG ]
– 100,0 [3AC84DB4] [03EB1182] CRC32
01 100,0 [20DBAFE5] [1093EBD9]
02 100,0 [610BE58A] [0F70B8E4]
03 100,0 [46432FF3] [4D6E6E03]
04 100,0 [D480D038] [5FFA4D2B]
05 100,0 [3D1172F0] [76C79C0E]
06 100,0 [0CA35220] [F2897720]
07 100,0 [30A9D142] [879BB663]

Ozric Tentacles - 13 Studio Albums (1989-2011) (Re-up)

Ozric Tentacles - Spirals in Hyperspace (2004)
EAC Rip | FLAC (tracks+.cue+log) - 496 MB | MP3 CBR 320 kbps (LAME 3.93) - 164 MB | Covers - 50 MB
Genre: Psychedelic/Space Rock | RAR 3% Rec. | Label: Magna Carta (MAX-9067-2)

Tracklist:
01. Chewier
02. Spirals In Hyperspace
03. Slinky
04. Toka Tola
05. Plasmoid
06. Oakum
07. Akasha
08. Psychic Chasm
09. Zoemetra

Total time: 01:09:39

Exact Audio Copy V1.3 from 2. September 2016

EAC extraction logfile from 23. February 2017, 15:31

Ozric Tentacles / Spirals in Hyperspace

Used drive : ATAPI iHAS524 B Adapter: 1 ID: 0

Read mode : Secure
Utilize accurate stream : Yes
Defeat audio cache : Yes
Make use of C2 pointers : No

Read offset correction : 6
Overread into Lead-In and Lead-Out : No
Fill up missing offset samples with silence : Yes
Delete leading and trailing silent blocks : No
Null samples used in CRC calculations : Yes
Used interface : Native Win32 interface for Win NT & 2000
Gap handling : Appended to previous track

Used output format : User Defined Encoder
Selected bitrate : 896 kBit/s
Quality : High
Add ID3 tag : No
Command line compressor : C:\Program Files (x86)\Exact Audio Copy\Flac\flac.exe
Additional command line options : -8 -e -p -V -T "ARTIST=%artist%" -T "TITLE=%title%" -T "ALBUM=%albumtitle%" -T "DATE=%year%" -T "TRACKNUMBER=%tracknr%" -T "GENRE=%genre%" -T "PERFORMER=%albuminterpret%" -T "COMPOSER=%composer%" %haslyrics%–tag-from-file=LYRICS="%lyricsfile%"%haslyrics% -T "ALBUMARTIST=%albumartist%" -T "DISCNUMBER=%cdnumber%" -T "TOTALDISCS=%totalcds%" -T "TOTALTRACKS=%numtracks%" -T "COMMENT=%comment%" %source% -o %dest%


TOC of the extracted CD

Track | Start | Length | Start sector | End sector
––––––––––––––––––––––––––––-
1 | 0:00.00 | 5:26.51 | 0 | 24500
2 | 5:26.51 | 9:51.21 | 24501 | 68846
3 | 15:17.72 | 8:39.06 | 68847 | 107777
4 | 23:57.03 | 7:46.39 | 107778 | 142766
5 | 31:43.42 | 5:17.34 | 142767 | 166575
6 | 37:01.01 | 9:03.24 | 166576 | 207324
7 | 46:04.25 | 7:27.12 | 207325 | 240861
8 | 53:31.37 | 8:44.34 | 240862 | 280195
9 | 62:15.71 | 7:23.09 | 280196 | 313429


Track 1

Filename U:\el-rips (hey there, people of the future!)\Ozric Tentacles - Spirals in Hyperspace (2004) [FLAC] {MA-9067-2}\01 - Chewier.wav

Pre-gap length 0:00:02.00

Peak level 98.8 %
Extraction speed 3.4 X
Track quality 99.9 %
Test CRC 02575C30
Copy CRC 02575C30
Accurately ripped (confidence 29) [21F044C3] (AR v2)
Copy OK

Track 2

Filename U:\el-rips (hey there, people of the future!)\Ozric Tentacles - Spirals in Hyperspace (2004) [FLAC] {MA-9067-2}\02 - Spirals in Hyperspace.wav

Peak level 98.8 %
Extraction speed 4.4 X
Track quality 99.9 %
Test CRC D6736816
Copy CRC D6736816
Accurately ripped (confidence 29) [2C6B8722] (AR v2)
Copy OK

Track 3

Filename U:\el-rips (hey there, people of the future!)\Ozric Tentacles - Spirals in Hyperspace (2004) [FLAC] {MA-9067-2}\03 - Slinky.wav

Peak level 98.8 %
Extraction speed 5.6 X
Track quality 100.0 %
Test CRC F5366BE0
Copy CRC F5366BE0
Accurately ripped (confidence 29) [E9232FFF] (AR v2)
Copy OK

Track 4

Filename U:\el-rips (hey there, people of the future!)\Ozric Tentacles - Spirals in Hyperspace (2004) [FLAC] {MA-9067-2}\04 - Toka Tola.wav

Peak level 98.8 %
Extraction speed 6.1 X
Track quality 100.0 %
Test CRC 0E2B8F37
Copy CRC 0E2B8F37
Accurately ripped (confidence 29) [C6EC6E93] (AR v2)
Copy OK

Track 5

Filename U:\el-rips (hey there, people of the future!)\Ozric Tentacles - Spirals in Hyperspace (2004) [FLAC] {MA-9067-2}\05 - Plasmoid.wav

Peak level 98.8 %
Extraction speed 6.3 X
Track quality 100.0 %
Test CRC 2975B080
Copy CRC 2975B080
Accurately ripped (confidence 27) [A707D655] (AR v2)
Copy OK

Track 6

Filename U:\el-rips (hey there, people of the future!)\Ozric Tentacles - Spirals in Hyperspace (2004) [FLAC] {MA-9067-2}\06 - Oakum.wav

Peak level 98.8 %
Extraction speed 7.0 X
Track quality 100.0 %
Test CRC FA40F26E
Copy CRC FA40F26E
Accurately ripped (confidence 27) [05F9E842] (AR v2)
Copy OK

Track 7

Filename U:\el-rips (hey there, people of the future!)\Ozric Tentacles - Spirals in Hyperspace (2004) [FLAC] {MA-9067-2}\07 - Akasha.wav

Peak level 98.8 %
Extraction speed 6.4 X
Track quality 99.9 %
Test CRC 9F17218F
Copy CRC 9F17218F
Accurately ripped (confidence 29) [372835F2] (AR v2)
Copy OK

Track 8

Filename U:\el-rips (hey there, people of the future!)\Ozric Tentacles - Spirals in Hyperspace (2004) [FLAC] {MA-9067-2}\08 - Psychic Chasm.wav

Peak level 98.8 %
Extraction speed 7.8 X
Track quality 100.0 %
Test CRC DC0FA54B
Copy CRC DC0FA54B
Accurately ripped (confidence 29) [9C67B663] (AR v2)
Copy OK

Track 9

Filename U:\el-rips (hey there, people of the future!)\Ozric Tentacles - Spirals in Hyperspace (2004) [FLAC] {MA-9067-2}\09 - Zoemetra.wav

Peak level 98.8 %
Extraction speed 8.1 X
Track quality 100.0 %
Test CRC B6BC2430
Copy CRC B6BC2430
Accurately ripped (confidence 29) [A19A4874] (AR v2)
Copy OK


All tracks accurately ripped

No errors occurred

End of status report

–– CUETools DB Plugin V2.1.6

[CTDB TOCID: vLFRmwpsXf0EVf1dVoqdq_BHPkc-] found
Submit result: vLFRmwpsXf0EVf1dVoqdq_BHPkc- has been confirmed
Track | CTDB Status
1 | (48/48) Accurately ripped
2 | (48/48) Accurately ripped
3 | (48/48) Accurately ripped
4 | (48/48) Accurately ripped
5 | (47/48) Accurately ripped
6 | (48/48) Accurately ripped
7 | (48/48) Accurately ripped
8 | (48/48) Accurately ripped
9 | (47/48) Accurately ripped


==== Log checksum 8D0249FFB44C1DBD30E02FAD0C0D6CAD083C7A0EB9D384A7B64C5781FDC5281F ====

[CUETools log; Date: 17.05.2022 17:10:37; Version: 2.1.4]
[CTDB TOCID: vLFRmwpsXf0EVf1dVoqdq_BHPkc-] found.
Track | CTDB Status
1 | (121/122) Accurately ripped
2 | (121/122) Accurately ripped
3 | (121/122) Accurately ripped
4 | (121/122) Accurately ripped
5 | (120/122) Accurately ripped
6 | (121/122) Accurately ripped
7 | (121/122) Accurately ripped
8 | (121/122) Accurately ripped
9 | (116/122) Accurately ripped
[AccurateRip ID: 0017af9a-00ae78c6-7d105309] found.
Track [ CRC | V2 ] Status
01 [ef519ed7|21f044c3] (29+50/97) Accurately ripped
02 [d37cc581|2c6b8722] (29+50/98) Accurately ripped
03 [f3bf2444|e9232fff] (30+50/99) Accurately ripped
04 [9b306834|c6ec6e93] (29+49/97) Accurately ripped
05 [b8b5b276|a707d655] (29+47/95) Accurately ripped
06 [139de1fd|05f9e842] (29+47/95) Accurately ripped
07 [3098929b|372835f2] (29+50/98) Accurately ripped
08 [89ab1548|9c67b663] (27+50/96) Accurately ripped
09 [02fa13ab|a19a4874] (27+48/94) Accurately ripped
Offsetted by -664:
01 [c05e64e3] (05/97) Accurately ripped
02 [aa768759] (05/98) Accurately ripped
03 [d24c1d34] (05/99) Accurately ripped
04 [8278264f] (05/97) Accurately ripped
05 [24ae867b] (05/95) Accurately ripped
06 [02500981] (05/95) Accurately ripped
07 [21856371] (05/98) Accurately ripped
08 [d78d240e] (05/96) Accurately ripped
09 [c0c5ca20] (05/94) Accurately ripped
Offsetted by 6:
01 [66a21d64] (00/97) No match
02 [c9d580ab] (00/98) No match
03 [f5975048] (00/99) No match
04 [5cdb4c7a] (00/97) No match
05 [28e46a87] (00/95) No match (V2 was not tested)
06 [090b4424] (00/95) No match (V2 was not tested)
07 [f0c72f4c] (00/98) No match
08 [0c29d573] (00/96) No match
09 [20d2f889] (00/94) No match
Offsetted by 572:
01 [310d8f48] (00/97) No match (V2 was not tested)
02 [e5dd2325] (00/98) No match (V2 was not tested)
03 [4e3f886c] (00/99) No match (V2 was not tested)
04 [8b6fca92] (00/97) No match (V2 was not tested)
05 [b1852fd6] (00/95) No match (V2 was not tested)
06 [4f69e503] (00/95) No match (V2 was not tested)
07 [f3eef819] (00/98) No match (V2 was not tested)
08 [d74ee912] (00/96) No match (V2 was not tested)
09 [c0fdc489] (00/94) No match (V2 was not tested)

Track Peak [ CRC32 ] [W/O NULL] [ LOG ]
– 98,8 [A4227083] [B17C7DB6]
01 98,8 [02575C30] [BF11E618] CRC32
02 98,8 [D6736816] [6EF342E7] CRC32
03 98,8 [F5366BE0] [AE141689] CRC32
04 98,8 [0E2B8F37] [43D6C40F] CRC32
05 98,8 [2975B080] [515ACED6] CRC32
06 98,8 [FA40F26E] [99BEDDF6] CRC32
07 98,8 [9F17218F] [EB4B87EE] CRC32
08 98,8 [DC0FA54B] [FC84E0FF] CRC32
09 98,8 [B6BC2430] [6A04A463] CRC32

Ozric Tentacles - 13 Studio Albums (1989-2011) (Re-up)

Ozric Tentacles - The Yumyum Tree (2009)
EAC Rip | FLAC (image+.cue+log) - 378 MB | MP3 CBR 320 kbps (LAME 3.93) - 125 MB | Covers - 28 MB
Genre: Psychedelic/Space Rock | RAR 3% Rec. | Label: Snapper Music (SMACD958)

Tracklist:
01. Magick Valley
02. Oddweird
03. Mooncalf
04. Oolong Oolong
05. Yumyum Tree
06. Plant Music
07. Nakuru
08. San Pedro

Total time: 53:10

Exact Audio Copy V0.99 prebeta 4 from 23. January 2008

EAC extraction logfile from 10. June 2009, 9:07

Ozric Tentacles / The Yumyum Tree

Used drive : PLEXTOR CD-R PREMIUM2 Adapter: 1 ID: 0

Read mode : Secure
Utilize accurate stream : Yes
Defeat audio cache : Yes
Make use of C2 pointers : No

Read offset correction : 30
Overread into Lead-In and Lead-Out : Yes
Fill up missing offset samples with silence : Yes
Delete leading and trailing silent blocks : No
Null samples used in CRC calculations : Yes
Used interface : Native Win32 interface for Win NT & 2000

Used output format : Internal WAV Routines
Sample format : 44.100 Hz; 16 Bit; Stereo


TOC of the extracted CD

Track | Start | Length | Start sector | End sector
––––––––––––––––––––––––––––-
1 | 0:00.00 | 6:42.54 | 0 | 30203
2 | 6:42.54 | 6:14.37 | 30204 | 58290
3 | 12:57.16 | 7:41.17 | 58291 | 92882
4 | 20:38.33 | 5:54.21 | 92883 | 119453
5 | 26:32.54 | 9:07.73 | 119454 | 160551
6 | 35:40.52 | 5:28.09 | 160552 | 185160
7 | 41:08.61 | 5:39.10 | 185161 | 210595
8 | 46:47.71 | 6:21.68 | 210596 | 239238


Range status and errors

Selected range

Filename C:\DAE\Ozric Tentacles - The Yumyum Tree\Ozric Tentacles - The Yumyum Tree.wav

Peak level 100.0 %
Range quality 100.0 %
Test CRC DCEE7A7D
Copy CRC DCEE7A7D
Copy OK

No errors occurred


AccurateRip summary

Track 1 not present in database
Track 2 not present in database
Track 3 not present in database
Track 4 not present in database
Track 5 not present in database
Track 6 not present in database
Track 7 not present in database
Track 8 not present in database

None of the tracks are present in the AccurateRip database

End of status report

[CUETools log; Date: 17.05.2022 17:00:58; Version: 2.1.4]
[CTDB TOCID: gteVWbBHR.TeBHRTL6TKmJUbKfY-] found.
Track | CTDB Status
1 | (114/114) Accurately ripped
2 | (114/114) Accurately ripped
3 | (114/114) Accurately ripped
4 | (114/114) Accurately ripped
5 | (110/114) Accurately ripped
6 | (114/114) Accurately ripped
7 | (114/114) Accurately ripped
8 | (114/114) Accurately ripped
[AccurateRip ID: 0010babc-006f6942-640c7508] found.
Track [ CRC | V2 ] Status
01 [b01eaee5|90051922] (28+27/87) Accurately ripped
02 [47102034|a627d77d] (28+26/86) Accurately ripped
03 [8a11130b|6b664001] (28+26/86) Accurately ripped
04 [cf21c024|27724600] (28+27/87) Accurately ripped
05 [f92a53ce|77c5441d] (28+26/86) Accurately ripped
06 [5320cad4|0badb82a] (28+26/86) Accurately ripped
07 [c31909d2|7f8aabf9] (28+26/86) Accurately ripped
08 [62b93005|358e0875] (29+26/87) Accurately ripped
Offsetted by -676:
01 [b9b24f7d] (05/87) Accurately ripped
02 [530bc5d2] (05/86) Accurately ripped
03 [2aa7f6d9] (05/86) Accurately ripped
04 [ab6cabbe] (05/87) Accurately ripped
05 [5cd763a8] (05/86) Accurately ripped
06 [313f2805] (05/86) Accurately ripped
07 [cf6dade5] (05/86) Accurately ripped
08 [a824d859] (05/87) Accurately ripped
Offsetted by -732:
01 [04b6f74d] (00/87) No match (V2 was not tested)
02 [caea8565] (00/86) No match (V2 was not tested)
03 [56465792] (00/86) No match (V2 was not tested)
04 [e5354587] (00/87) No match (V2 was not tested)
05 [7df038ab] (00/86) No match
06 [56f622d8] (00/86) No match (V2 was not tested)
07 [5d35e0ce] (00/86) No match (V2 was not tested)
08 [0a4c0f31] (00/87) No match (V2 was not tested)
Offsetted by -670:
01 [71a8ab39] (00/87) No match (V2 was not tested)
02 [4dd19fb9] (00/86) No match (V2 was not tested)
03 [d6c8470c] (00/86) No match (V2 was not tested)
04 [56562495] (00/87) No match (V2 was not tested)
05 [77fef795] (00/86) No match (V2 was not tested)
06 [ff5d62fe] (00/86) No match (V2 was not tested)
07 [22b3da64] (00/86) No match (V2 was not tested)
08 [26c5370b] (00/87) No match (V2 was not tested)
Offsetted by -144:
01 [71061545] (00/87) No match
02 [cea628e3] (00/86) No match
03 [3f5ed844] (00/86) No match
04 [d3fb8461] (00/87) No match
05 [05284369] (00/86) No match (V2 was not tested)
06 [ee810c59] (00/86) No match
07 [c0491d21] (00/86) No match
08 [83b04f55] (00/87) No match

Track Peak [ CRC32 ] [W/O NULL] [ LOG ]
– 100,0 [DCEE7A7D] [54AE27AC] CRC32
01 100,0 [9F515308] [ACF56F7F]
02 100,0 [2B03C1D2] [2D0DF6FE]
03 100,0 [8E2AC62D] [F027FB34]
04 100,0 [E0856A99] [CE1D615A]
05 100,0 [170995F8] [5BBBBED7]
06 100,0 [EA459F00] [809640F3]
07 100,0 [F4A11D3D] [CEA3CB4A]
08 100,0 [A3959C20] [855AE687]

Ozric Tentacles - 13 Studio Albums (1989-2011) (Re-up)

Ozric Tentacles - Paper Monkeys (2011)
EAC Rip | WavPack (image+.cue+log) - 434 MB | MP3 CBR 320 kbps (LAME 3.93) - 144 MB | Covers - 124 MB
Genre: Psychedelic/Space Rock | RAR 3% Rec. | Label: Snapper Music (SMACD979)

Tracklist:
01. Attack of the Vapours
02. Lemon Kush
03. Flying Machines
04. Knurl
05. Lost in the Sky
06. Paper Monkeys
07. Plowm
08. Will of the Wisps
09. Air City

Total time: 01:01:20

Exact Audio Copy V1.0 beta 3 from 29. August 2011

EAC extraction logfile from 21. October 2011, 20:48

Ozric Tentacles / Paper Monkeys

Used drive : PLEXTOR DVDR PX-820SA Adapter: 3 ID: 0

Read mode : Secure
Utilize accurate stream : Yes
Defeat audio cache : Yes
Make use of C2 pointers : No

Read offset correction : 48
Overread into Lead-In and Lead-Out : No
Fill up missing offset samples with silence : Yes
Delete leading and trailing silent blocks : No
Null samples used in CRC calculations : Yes
Used interface : Installed external ASPI interface

Used output format : Internal WAV Routines
Sample format : 44.100 Hz; 16 Bit; Stereo


TOC of the extracted CD

Track | Start | Length | Start sector | End sector
––––––––––––––––––––––––––––-
1 | 0:00.00 | 5:22.16 | 0 | 24165
2 | 5:22.16 | 6:15.56 | 24166 | 52346
3 | 11:37.72 | 6:26.45 | 52347 | 81341
4 | 18:04.42 | 6:08.41 | 81342 | 108982
5 | 24:13.08 | 7:20.57 | 108983 | 142039
6 | 31:33.65 | 7:17.18 | 142040 | 174832
7 | 38:51.08 | 7:52.14 | 174833 | 210246
8 | 46:43.22 | 10:42.73 | 210247 | 258469
9 | 57:26.20 | 3:53.19 | 258470 | 275963


Range status and errors

Selected range

Filename C:\supang\Ozric Tentacles -2011- Paper Monkeys {Madfish SMACD979}\Ozric Tentacles - Paper Monkeys.wav

Peak level 96.8 %
Extraction speed 4.0 X
Range quality 99.9 %
Test CRC F9B1239B
Copy CRC F9B1239B
Copy OK

No errors occurred


AccurateRip summary

Track 1 not present in database
Track 2 not present in database
Track 3 not present in database
Track 4 not present in database
Track 5 not present in database
Track 6 not present in database
Track 7 not present in database
Track 8 not present in database
Track 9 not present in database

None of the tracks are present in the AccurateRip database

End of status report

==== Log checksum A9CE2BF6FE2B1F0601027E95D713DC3605ED81EF7BB01265AE4F110613BC2BB3 ====

[CUETools log; Date: 17.05.2022 16:26:07; Version: 2.1.4]
[CTDB TOCID: T.3vD.O9UKkDuokA5IrUdD.Q10o-] found.
Track | CTDB Status
1 | (123/123) Accurately ripped
2 | (123/123) Accurately ripped
3 | (123/123) Accurately ripped
4 | (123/123) Accurately ripped
5 | (123/123) Accurately ripped
6 | (123/123) Accurately ripped
7 | (122/123) Accurately ripped
8 | (123/123) Accurately ripped
9 | (122/123) Accurately ripped
[AccurateRip ID: 00144508-00975c56-850e5f09] found.
Track [ CRC | V2 ] Status
01 [4a78e91e|5dbfc9d2] (07+60/78) Accurately ripped
02 [a14fe59a|d3ecfac7] (07+61/79) Accurately ripped
03 [48245d93|943c49ab] (07+61/80) Accurately ripped
04 [971944ba|a9a3b436] (07+60/79) Accurately ripped
05 [aec3c9a5|34112f1f] (07+60/80) Accurately ripped
06 [c89aeb35|04b7b9a2] (07+60/80) Accurately ripped
07 [2545d528|056fc4f9] (07+60/80) Accurately ripped
08 [74350f7a|90057c45] (07+60/76) Accurately ripped
09 [0c679e00|5983f66e] (07+59/80) Accurately ripped
Offsetted by -48:
01 [2996c72b] (00/78) No match (V2 was not tested)
02 [4cccb9d6] (00/79) No match (V2 was not tested)
03 [5398076b] (00/80) No match (V2 was not tested)
04 [5b0ca0da] (00/79) No match (V2 was not tested)
05 [ed663105] (00/80) No match (V2 was not tested)
06 [5352b675] (00/80) No match (V2 was not tested)
07 [25c1095b] (00/80) No match (V2 was not tested)
08 [65664670] (00/76) No match (V2 was not tested)
09 [1a228a9b] (00/80) No match (V2 was not tested)
Offsetted by -18:
01 [c6e0d46f] (00/78) No match (V2 was not tested)
02 [6a9a2d03] (00/79) No match (V2 was not tested)
03 [2e1f6bdb] (00/80) No match (V2 was not tested)
04 [1d70735e] (00/79) No match (V2 was not tested)
05 [4640b069] (00/80) No match (V2 was not tested)
06 [fc9fd76d] (00/80) No match (V2 was not tested)
07 [f21454fe] (00/80) No match (V2 was not tested)
08 [26c9d1be] (00/76) No match (V2 was not tested)
09 [73fe9b5c] (00/80) No match (V2 was not tested)
Offsetted by -6:
01 [46e6f79b] (00/78) No match (V2 was not tested)
02 [d6243e54] (00/79) No match (V2 was not tested)
03 [442b08e8] (00/80) No match (V2 was not tested)
04 [6ea255cf] (00/79) No match (V2 was not tested)
05 [36981691] (00/80) No match (V2 was not tested)
06 [d9f1e49d] (00/80) No match (V2 was not tested)
07 [4d5b7ca9] (00/80) No match (V2 was not tested)
08 [458483bd] (00/76) No match (V2 was not tested)
09 [2f9c9dde] (00/80) No match (V2 was not tested)
Offsetted by 6:
01 [377bd65d] (00/78) No match (V2 was not tested)
02 [8078766a] (00/79) No match (V2 was not tested)
03 [65294290] (00/80) No match (V2 was not tested)
04 [bfeb31f3] (00/79) No match (V2 was not tested)
05 [26ef7cb9] (00/80) No match (V2 was not tested)
06 [b743f1cd] (00/80) No match (V2 was not tested)
07 [62e983fb] (00/80) No match (V2 was not tested)
08 [ad5c405c] (00/76) No match (V2 was not tested)
09 [e87b9d85] (00/80) No match (V2 was not tested)

Track Peak [ CRC32 ] [W/O NULL] [ LOG ]
– 96,8 [F9B1239B] [00BCDAE4] CRC32
01 96,6 [873A0E8C] [0411EB2B]
02 96,6 [779462F6] [0D2AC357]
03 96,6 [71486C1B] [674CF45E]
04 96,6 [98090E05] [4B6D6375]
05 96,6 [BFB46BBE] [45ECC519]
06 96,7 [8F49587A] [F0C04751]
07 96,6 [D2978AAA] [BE388D6A]
08 96,8 [49F65D0D] [99E78A7E]
09 96,5 [916C5FCA] [2B75AED4]

Thanks to supang, tatuk

See also:
Ozric Tentacles - Eternal Wheel (The Best Of) (2004)