Tags
Language
Tags
December 2022
Su Mo Tu We Th Fr Sa
27 28 29 30 1 2 3
4 5 6 7 8 9 10
11 12 13 14 15 16 17
18 19 20 21 22 23 24
25 26 27 28 29 30 31

Mariah Carey - Live World (1994) {Japanese Edition}

Posted By: popsakov
Mariah Carey - Live World (1994) {Japanese Edition}

Mariah Carey - Live World (1994) {Japanese Edition}
EAC Rip | FLAC (Img) + Cue + Log ~ 375 Mb | MP3 CBR320 ~ 152 Mb
Full Scans | 00:46:24 | RAR 5% Recovery
R&B, Soul, Pop, Dance-Pop | Apple House Music / Eyebic Inc. #AKD-3

Partially unofficial edition. This release is an Australia press CD with Japan packaging. The obi-strip (when intact with the CD) says "Live World", the front cover says "Without You" and the disc is labeled as "Emotions". Tracks 11 and 12 are listed as bonus tracks.

***************

Mariah Carey - Live World (1994) {Japanese Edition}

Track List:

01. Emotions [0:03:53.00]
02. Vison Of Love [0:03:37.65]
03. Hero [0:04:32.05]
04. Without You [0:03:51.45]
05. Someday [0:03:39.05]
06. Dreamlover [0:03:24.32]
07. Make It Happen [0:04:32.03]
08. Anytime You Need a Friend [0:03:48.62]
09. Love Takes Time [0:03:45.50]
10. I'll Be There [0:04:20.08]
11. Hero (bonus truck, version #2) [0:04:12.22]
12. Anytime You Need a Friend (bonus truck, version #2) [0:02:47.28]

Exact Audio Copy V1.3 from 2. September 2016

EAC extraction logfile from 18. July 2017, 23:48

Mariah Carey / Live World

Used drive : PLEXTOR DVDR PX-716A Adapter: 1 ID: 0

Read mode : Secure
Utilize accurate stream : Yes
Defeat audio cache : Yes
Make use of C2 pointers : No

Read offset correction : 30
Overread into Lead-In and Lead-Out : No
Fill up missing offset samples with silence : Yes
Delete leading and trailing silent blocks : No
Null samples used in CRC calculations : Yes
Used interface : Installed external ASPI interface

Used output format : User Defined Encoder
Selected bitrate : 1024 kBit/s
Quality : High
Add ID3 tag : No
Command line compressor : C:\Program Files (x86)\Exact Audio Copy\Flac\flac.exe
Additional command line options : -6 -V -T "ARTIST=%artist%" -T "TITLE=%title%" -T "ALBUM=%albumtitle%" -T "DATE=%year%" -T "TRACKNUMBER=%tracknr%" -T "GENRE=%genre%" -T "COMMENT=%comment%" -T "BAND=%albuminterpret%" -T "ALBUMARTIST=%albuminterpret%" -T "COMPOSER=%composer%" %haslyrics%–tag-from-file=LYRICS="%lyricsfile%"%haslyrics% -T "DISCNUMBER=%cdnumber%" -T "TOTALDISCS=%totalcds%" -T "TOTALTRACKS=%numtracks%" %hascover%–picture="%coverfile%"%hascover% %source% -o %dest%


TOC of the extracted CD

Track | Start | Length | Start sector | End sector
––––––––––––––––––––––––––––-
1 | 0:00.00 | 3:53.00 | 0 | 17474
2 | 3:53.00 | 3:37.65 | 17475 | 33814
3 | 7:30.65 | 4:32.05 | 33815 | 54219
4 | 12:02.70 | 3:51.45 | 54220 | 71589
5 | 15:54.40 | 3:39.05 | 71590 | 88019
6 | 19:33.45 | 3:24.32 | 88020 | 103351
7 | 22:58.02 | 4:32.03 | 103352 | 123754
8 | 27:30.05 | 3:48.62 | 123755 | 140916
9 | 31:18.67 | 3:45.50 | 140917 | 157841
10 | 35:04.42 | 4:20.08 | 157842 | 177349
11 | 39:24.50 | 4:12.22 | 177350 | 196271
12 | 43:36.72 | 2:47.28 | 196272 | 208824


Range status and errors

Selected range

Filename C:\mm\Mariah Carey\1994 - Live World [AKD-3]\Mariah Carey - Live World.wav

Peak level 85.0 %
Extraction speed 3.8 X
Range quality 100.0 %
Test CRC FFC2B65A
Copy CRC FFC2B65A
Copy OK

No errors occurred

End of status report

–– CUETools DB Plugin V2.1.6

[CTDB TOCID: 9UwGR3nVeBRsb9NjfSJHgvjZD64-] found
Submit result: 9UwGR3nVeBRsb9NjfSJHgvjZD64- has been confirmed
Track | CTDB Status
1 | ( 7/10) Accurately ripped, or (3/10) differs in 313 samples @00:35:52,00:41:21,02:12:30-02:12:31,02:56:52-02:56:53
2 | ( 9/10) Accurately ripped
3 | (10/10) Accurately ripped
4 | (10/10) Accurately ripped
5 | (10/10) Accurately ripped
6 | (10/10) Accurately ripped
7 | (10/10) Accurately ripped
8 | (10/10) Accurately ripped
9 | (10/10) Accurately ripped
10 | (10/10) Accurately ripped
11 | (10/10) Accurately ripped
12 | (10/10) Accurately ripped

[CUETools log; Date: 23.07.2017 17:12:23; Version: 2.1.5]
[CTDB TOCID: 9UwGR3nVeBRsb9NjfSJHgvjZD64-] found.
Track | CTDB Status
1 | ( 8/11) Accurately ripped, or (3/11) differs in 313 samples @00:35:52,00:41:21,02:12:30-02:12:31,02:56:52-02:56:53
2 | (10/11) Accurately ripped
3 | (11/11) Accurately ripped
4 | (11/11) Accurately ripped
5 | (11/11) Accurately ripped
6 | (11/11) Accurately ripped
7 | (11/11) Accurately ripped
8 | (11/11) Accurately ripped
9 | (11/11) Accurately ripped
10 | (11/11) Accurately ripped
11 | (11/11) Accurately ripped
12 | (11/11) Accurately ripped
[AccurateRip ID: 0014f4f9-00c39f8a-9c0ae00c] found.
Track [ CRC | V2 ] Status
01 [648e683e|ce4b81b1] (0+1/3) Accurately ripped
02 [0c55f020|3b32e363] (0+1/3) Accurately ripped
03 [47e88d4a|3bc4cebc] (0+1/3) Accurately ripped
04 [9e5dd694|9469810b] (0+1/3) Accurately ripped
05 [1cfb05af|c6f2646d] (0+1/3) Accurately ripped
06 [a0d4aad7|d8c001d8] (0+1/3) Accurately ripped
07 [1bdd3f09|448b6d03] (0+1/3) Accurately ripped
08 [c1e5bb5f|72bdf26b] (0+1/3) Accurately ripped
09 [9fd4d1d6|db0928d3] (0+1/3) Accurately ripped
10 [cc3c19f6|67d5af94] (0+1/3) Accurately ripped
11 [d73c6fa2|04ad32e6] (0+1/3) Accurately ripped
12 [958c4dd4|8799a34e] (0+1/3) Accurately ripped

Track Peak [ CRC32 ] [W/O NULL] [ LOG ]
– 85,0 [FFC2B65A] [413706BF] CRC32
01 84,3 [3A0B35D6] [533B40BC]
02 82,1 [3F7FF424] [9A276280]
03 79,6 [74E5BE8E] [6A83EB32]
04 84,1 [3A399596] [F3F113C3]
05 85,0 [BD436883] [EA028782]
06 80,8 [19F5EA6C] [342CC955]
07 83,1 [9E78DE5D] [C2BFCCC9]
08 84,3 [7DF4E386] [2FFF25A3]
09 82,1 [6B201A1F] [7915653A]
10 77,3 [F5CFF5A9] [8A44B315]
11 67,5 [A309C333] [56CB261C]
12 75,4 [E6C97F0C] [297B4C24]

Mariah Carey - Live World (1994) {Japanese Edition}


All thanks go to sergych

>>> Mariah Carey in my Blog <<<

DOWNLOAD: