Tags
Language
Tags

Kansas - The Best Of Kansas (1984) {Reissue}

Posted By: popsakov
Kansas - The Best Of Kansas (1984) {Reissue}

Kansas - The Best Of Kansas (1984) {Reissue}
EAC Rip | FLAC (Img) + Cue + Log ~ 341 Mb | MP3 CBR320 ~ 144 Mb
Full Scans | 00:48:17 | RAR 5% Recovery
Progressive Rock, Hard Rock | Epic #EPC 461036 2

With hard rock Kansas standards like "Carry On Wayward Son" and "Point Of Know Return" and the brilliant prog-rock classics "Dust In The Wind" and "The Wall," The 1984 release of The Best Of Kansas album would go on to become one of the best-selling greatest hits albums of all time. The long out of print original version of this greatest hits masterpiece also includes the appearance of 1984's "Perfect Lover".
Kansas - The Best Of Kansas (1984) {Reissue}


***************

Kansas - The Best Of Kansas (1984) {Reissue}

Kansas - The Best Of Kansas (1984) {Reissue}

Track List:

01. Carry On Wayward Son [05:24]
02. Point Of Know Return [03:12]
03. Fight Fire With Fire [03:41]
04. Dust In The Wind [03:27]
05. Song For America [09:09]
06. Perfect Lover [04:19]
07. Hold On [03:53]
08. No One Together [06:58]
09. Play The Game Tonight [03:28]
10. The Wall [04:50]

Exact Audio Copy V1.0 beta 2 from 29. April 2011

EAC extraction logfile from 8. August 2011, 22:15

Kansas / The Best Of

Used drive : Optiarc DVD RW AD-7200S Adapter: 1 ID: 0

Read mode : Secure
Utilize accurate stream : Yes
Defeat audio cache : Yes
Make use of C2 pointers : No

Read offset correction : 48
Overread into Lead-In and Lead-Out : No
Fill up missing offset samples with silence : Yes
Delete leading and trailing silent blocks : No
Null samples used in CRC calculations : Yes
Used interface : Installed external ASPI interface

Used output format : User Defined Encoder
Selected bitrate : 1024 kBit/s
Quality : High
Add ID3 tag : No
Command line compressor : C:\Program Files\Exact Audio Copy\wavpack.exe
Additional command line options : -hm %source% %dest%


TOC of the extracted CD

Track | Start | Length | Start sector | End sector
––––––––––––––––––––––––––––-
1 | 0:00.00 | 5:23.32 | 0 | 24256
2 | 5:23.32 | 3:11.53 | 24257 | 38634
3 | 8:35.10 | 3:40.67 | 38635 | 55201
4 | 12:16.02 | 3:26.08 | 55202 | 70659
5 | 15:42.10 | 9:08.57 | 70660 | 111816
6 | 24:50.67 | 4:18.50 | 111817 | 131216
7 | 29:09.42 | 3:52.43 | 131217 | 148659
8 | 33:02.10 | 6:57.35 | 148660 | 179969
9 | 39:59.45 | 3:27.30 | 179970 | 195524
10 | 43:27.00 | 4:49.07 | 195525 | 217206


Range status and errors

Selected range

Filename C:\lossless\Kansas\Kansas - The Best Of.wav

Peak level 85.6 %
Extraction speed 3.7 X
Range quality 100.0 %
Test CRC 2E753A35
Copy CRC 2E753A35
Copy OK

No errors occurred


AccurateRip summary

Track 1 cannot be verified as accurate (confidence 35) [3EE4E185], AccurateRip returned [DACDAAD5] (AR v2)
Track 2 cannot be verified as accurate (confidence 35) [AD2BF9C9], AccurateRip returned [1E3EBA94] (AR v2)
Track 3 cannot be verified as accurate (confidence 35) [94956E36], AccurateRip returned [78181224] (AR v2)
Track 4 cannot be verified as accurate (confidence 35) [5BF8ADCA], AccurateRip returned [15330AFC] (AR v2)
Track 5 cannot be verified as accurate (confidence 35) [B023A874], AccurateRip returned [911057EE] (AR v2)
Track 6 cannot be verified as accurate (confidence 35) [541C2365], AccurateRip returned [BD39922C] (AR v2)
Track 7 cannot be verified as accurate (confidence 35) [F186FBA4], AccurateRip returned [102CF0A2] (AR v2)
Track 8 cannot be verified as accurate (confidence 34) [A9588C40], AccurateRip returned [6AACDE5C] (AR v2)
Track 9 cannot be verified as accurate (confidence 33) [C246BF22], AccurateRip returned [576B0416] (AR v2)
Track 10 cannot be verified as accurate (confidence 33) [FFB0761B], AccurateRip returned [4FB6750A] (AR v2)

No tracks could be verified as accurate
You may have a different pressing from the one(s) in the database

End of status report

==== Log checksum 4ACC048EC05D43C0D361FEEF0ED9B687109B4CAFA9279EC2EF95F1BCFAF94E53 ====

[CUETools log; Date: 23.05.2016 23:44:52; Version: 2.1.5]
[CTDB TOCID: 9pfi20SxKgRi7Q.duy84HAWesIU-] found.
Track | CTDB Status
1 | (176/198) Accurately ripped
2 | (176/198) Accurately ripped
3 | (175/198) Accurately ripped
4 | (178/198) Accurately ripped
5 | (176/198) Accurately ripped
6 | (177/198) Accurately ripped
7 | (176/198) Accurately ripped
8 | (177/198) Accurately ripped
9 | (177/198) Accurately ripped
10 | (176/198) Accurately ripped
[AccurateRip ID: 0011e69e-0090ad0e-880b500a] found.
Track [ CRC | V2 ] Status
01 [b8bb63e9|3ee4e185] (000+015/228) Accurately ripped
02 [dddcfc08|ad2bf9c9] (002+015/224) Accurately ripped
03 [7598964e|94956e36] (002+015/227) Accurately ripped
04 [c0552106|5bf8adca] (002+015/228) Accurately ripped
05 [b016109a|b023a874] (002+015/224) Accurately ripped
06 [3f586f28|541c2365] (002+015/222) Accurately ripped
07 [b21cd22c|f186fba4] (002+015/227) Accurately ripped
08 [87b24304|a9588c40] (002+015/225) Accurately ripped
09 [04015b2e|c246bf22] (002+015/223) Accurately ripped
10 [2e0f9f44|ffb0761b] (002+016/223) Accurately ripped
Offsetted by 346:
01 [c747c983] (008/228) Accurately ripped
02 [3a336386] (008/224) Accurately ripped
03 [56141892] (008/227) Accurately ripped
04 [9eaf0442] (008/228) Accurately ripped
05 [edb36aea] (008/224) Accurately ripped
06 [d51914c8] (007/222) Accurately ripped
07 [08622e24] (008/227) Accurately ripped
08 [caa6dc0c] (008/225) Accurately ripped
09 [20f05392] (007/223) Accurately ripped
10 [cd237a00] (008/223) Accurately ripped
Offsetted by 599:
01 [47c17b27] (013/228) Accurately ripped
02 [3e8aec12] (012/224) Accurately ripped
03 [518f2671] (012/227) Accurately ripped
04 [ab35c074] (013/228) Accurately ripped
05 [1fc75d19] (012/224) Accurately ripped
06 [988cd9ac] (012/222) Accurately ripped
07 [a3fb128f] (013/227) Accurately ripped
08 [f36fee12] (012/225) Accurately ripped
09 [f2098131] (013/223) Accurately ripped
10 [404547ff] (012/223) Accurately ripped
Offsetted by 628:
01 [2c7d8c3f] (025/228) Accurately ripped
02 [e0ed1950] (024/224) Accurately ripped
03 [350607c6] (024/227) Accurately ripped
04 [34440402] (025/228) Accurately ripped
05 [f109cf28] (024/224) Accurately ripped
06 [f5c5b4a4] (025/222) Accurately ripped
07 [791a8c94] (023/227) Accurately ripped
08 [c05b5ff0] (025/225) Accurately ripped
09 [6c24140a] (024/223) Accurately ripped
10 [7de8d77a] (024/223) Accurately ripped
Offsetted by -1468:
01 [2f83302c] (000/228) No match (V2 was not tested)
02 [1e3eba94] (036/224) Accurately ripped
03 [78181224] (036/227) Accurately ripped
04 [15330afc] (036/228) Accurately ripped
05 [911057ee] (036/224) Accurately ripped
06 [bd39922c] (036/222) Accurately ripped
07 [102cf0a2] (036/227) Accurately ripped
08 [6aacde5c] (035/225) Accurately ripped
09 [576b0416] (034/223) Accurately ripped
10 [4fb6750a] (034/223) Accurately ripped
Offsetted by -36:
01 [2363393f] (000/228) No match (V2 was not tested)
02 [ae1185f6] (000/224) No match (V2 was not tested)
03 [e0148b3e] (000/227) No match (V2 was not tested)
04 [c86493be] (000/228) No match (V2 was not tested)
05 [2db9efd8] (000/224) No match (V2 was not tested)
06 [e8289cce] (000/222) No match (V2 was not tested)
07 [66526324] (000/227) No match (V2 was not tested)
08 [987c0356] (000/225) No match (V2 was not tested)
09 [4339dd3c] (000/223) No match (V2 was not tested)
10 [9df6583e] (000/223) No match (V2 was not tested)

Track Peak [ CRC32 ] [W/O NULL] [ LOG ]
– 85,6 [2E753A35] [516223FF] CRC32
01 85,6 [B523EBED] [507E7F81]
02 79,9 [3E0EC98F] [3EC3C34E]
03 68,6 [040E3DEB] [AC408513]
04 57,7 [122CE3CA] [C5E2E3A5]
05 69,6 [1583B71F] [7E6901D3]
06 81,2 [3D0FBBDD] [EA277FEB]
07 79,8 [3CB836CE] [AE0163E3]
08 76,1 [E1B956DC] [CA95B2C8]
09 74,8 [0526FC93] [2E3EBD09]
10 78,8 [BFB3BE03] [5A2F1132]

Kansas - The Best Of Kansas (1984) {Reissue}


All thanks go to the original ripper(s) …

>>> Kansas in my Blog <<<

DOWNLOAD: