Tags
Language
Tags
December 2022
Su Mo Tu We Th Fr Sa
27 28 29 30 1 2 3
4 5 6 7 8 9 10
11 12 13 14 15 16 17
18 19 20 21 22 23 24
25 26 27 28 29 30 31

VA - In Belgium They Call It Popcorn (2017)

Posted By: Rtax
VA - In Belgium They Call It Popcorn (2017)

VA - In Belgium They Call It Popcorn (2017)
EAC Rip | FLAC (tracks, cue, log) - 414 MB
1:14:15 | Soul, Funk, Rhythm & Blues, Pop | Label: Not Now Music

We all know popcorn as a sweet and salty confectionery made from maize that is sold in cinemas. But it also gave rise to an R&B instrumental, The Popcorn, written by James Brown in 1969. Around that time, a new form of party music developing in Belgium was named ‘Popcorn’ after the James Brown hits. Rather like Northern Soul in Wigan, it relied on disc jockeys, notably Gilbert Govaert, unearthing black soul singles from the early 1960s. Northern Soul favoured up-tempo tracks and Popcorn smoochier ones, which prompted a ‘slow swing’ dance. Enjoy this 2CD compilation including Timi Yuro, The Pentagons, Ben E. King and many more.

Tracklist
CD 1
01. Timi Yuro - I Ain't Gonna Cry No More 2:33
02. Ben E. King - Fever 3:01
03. Birdie Green - Tremblin' 2:29
04. Dee Clark - Drums In My Heart 2:51
05. Irma Thomas - Two Winters Long 2:47
06. The Cleftones - There She Goes 2:23
07. Cicero Blake - See What Tomorrow Brings 2:29
08. Gene Chandler - You Threw A Lucky Punch 2:35
09. Chuck Jackson - Getting Ready For The Heartbreak 2:28
10. Varetta - Fly By Night 2:30
11. Marie Knight - To Be Loved By You 2:22
12. Jeanette Baby Washington - Let Love Go By 1:57
13. Gene Stridel - Let Her Go 2:33
14. The Lions - Girl Of The World 2:12
15. McKinley Mitchell - No Love (Like Your Love) 2:38

CD 2
01. The Pentagons - I Wonder (If Your Love Will Ever Belong To Me) 2:27
02. Chuck Jackson - In Between Tears 2:22
03. Carrie Grant & The Grandeurs - Take All Of My Life 2:17
04. Cicero Blake - Don't Do This To Me 1:58
05. Mary Wells - You Beat Me To The Punch 2:44
06. Tommy Hunt - Poor Millionaire 2:11
07. Clyde McPhatter - I'll Love You Til The Cows Come Home 2:23
08. Aaron Neville - How Could I Help But Love You 2:51
09. Geraldine Hunt - I Let Myself Go 2:10
10. Ronnie Love - Chills And Fevers 2:27
11. Harvey Fuqua - Any Way You Wanta 2:46
12. Lena Calhoun - First Love Baby 2:09
13. Herb Hardesty - Just A Little Bit Of Everything 2:45
14. Wilson Pickett - Let Me Be Your Boy 2:47
15. Lavern Baker - Love Me Right 1:58
Exact Audio Copy V1.3 from 2. September 2016

EAC extraction logfile from 2. May 2019, 20:39

Various Artists / In Belgium They Call It Popcorn!

Used drive : PLEXTOR PX-891SAF Adapter: 1 ID: 0

Read mode : Secure
Utilize accurate stream : Yes
Defeat audio cache : Yes
Make use of C2 pointers : No

Read offset correction : 6
Overread into Lead-In and Lead-Out : No
Fill up missing offset samples with silence : Yes
Delete leading and trailing silent blocks : No
Null samples used in CRC calculations : Yes
Used interface : Native Win32 interface for Win NT & 2000
Gap handling : Appended to previous track

Used output format : User Defined Encoder
Selected bitrate : 1024 kBit/s
Quality : High
Add ID3 tag : No
Command line compressor : C:\Program Files (x86)\Exact Audio Copy\Flac\flac.exe
Additional command line options : -8 -V -T "ARTIST=%artist%" -T "TITLE=%title%" -T "ALBUM=%albumtitle%" -T "DATE=%year%" -T "TRACKNUMBER=%tracknr%" -T "GENRE=%genre%" -T "PERFORMER=%albuminterpret%" -T "COMPOSER=%composer%" %haslyrics%–tag-from-file=LYRICS="%lyricsfile%"%haslyrics% -T "ALBUMARTIST=%albumartist%" -T "DISCNUMBER=%cdnumber%" -T "TOTALDISCS=%totalcds%" -T "TOTALTRACKS=%numtracks%" -T "COMMENT=%comment%" %source% -o %dest%


TOC of the extracted CD

Track | Start | Length | Start sector | End sector
––––––––––––––––––––––––––––-
1 | 0:00.00 | 2:33.06 | 0 | 11480
2 | 2:33.06 | 3:01.00 | 11481 | 25055
3 | 5:34.06 | 2:29.23 | 25056 | 36253
4 | 8:03.29 | 2:51.06 | 36254 | 49084
5 | 10:54.35 | 2:47.04 | 49085 | 61613
6 | 13:41.39 | 2:23.53 | 61614 | 72391
7 | 16:05.17 | 2:29.34 | 72392 | 83600
8 | 18:34.51 | 2:35.41 | 83601 | 95266
9 | 21:10.17 | 2:28.18 | 95267 | 106384
10 | 23:38.35 | 2:30.61 | 106385 | 117695
11 | 26:09.21 | 2:22.68 | 117696 | 128413
12 | 28:32.14 | 1:57.09 | 128414 | 137197
13 | 30:29.23 | 2:33.56 | 137198 | 148728
14 | 33:03.04 | 2:12.55 | 148729 | 158683
15 | 35:15.59 | 2:38.26 | 158684 | 170559


Track 1

Filename D:\#New wav + flac (flac)\VA - In Belgium They Call It Popcorn !\cd 1\01. Timi Yuro - I Ain't Gonna Cry No More.wav

Pre-gap length 0:00:02.00

Peak level 98.7 %
Extraction speed 3.8 X
Track quality 99.9 %
Test CRC 431E4819
Copy CRC 431E4819
Accurately ripped (confidence 1) [DF7C4AED] (AR v2)
Copy OK

Track 2

Filename D:\#New wav + flac (flac)\VA - In Belgium They Call It Popcorn !\cd 1\02. Ben E. King - Fever.wav

Pre-gap length 0:00:01.77

Peak level 98.3 %
Extraction speed 5.3 X
Track quality 100.0 %
Test CRC F68ADDEC
Copy CRC F68ADDEC
Accurately ripped (confidence 1) [6510A24B] (AR v2)
Copy OK

Track 3

Filename D:\#New wav + flac (flac)\VA - In Belgium They Call It Popcorn !\cd 1\03. Birdie Green - Tremblin'.wav

Pre-gap length 0:00:01.77

Peak level 98.2 %
Extraction speed 5.5 X
Track quality 100.0 %
Test CRC 5E7704DC
Copy CRC 5E7704DC
Accurately ripped (confidence 1) [E579C3EB] (AR v2)
Copy OK

Track 4

Filename D:\#New wav + flac (flac)\VA - In Belgium They Call It Popcorn !\cd 1\04. Dee Clark - Drums In My Heart.wav

Pre-gap length 0:00:01.77

Peak level 98.5 %
Extraction speed 6.0 X
Track quality 100.0 %
Test CRC B0210AF8
Copy CRC B0210AF8
Accurately ripped (confidence 1) [36B123A5] (AR v2)
Copy OK

Track 5

Filename D:\#New wav + flac (flac)\VA - In Belgium They Call It Popcorn !\cd 1\05. Irma Thomas - Two Winters Long.wav

Pre-gap length 0:00:01.77

Peak level 98.4 %
Extraction speed 6.2 X
Track quality 100.0 %
Test CRC 2287A3AF
Copy CRC 2287A3AF
Accurately ripped (confidence 1) [E186438C] (AR v2)
Copy OK

Track 6

Filename D:\#New wav + flac (flac)\VA - In Belgium They Call It Popcorn !\cd 1\06. The Cleftones - There She Goes.wav

Pre-gap length 0:00:01.77

Peak level 98.8 %
Extraction speed 6.3 X
Track quality 100.0 %
Test CRC 4CDEB339
Copy CRC 4CDEB339
Accurately ripped (confidence 1) [FECB0413] (AR v2)
Copy OK

Track 7

Filename D:\#New wav + flac (flac)\VA - In Belgium They Call It Popcorn !\cd 1\07. Cicero Blake - See What Tomorrow Brings.wav

Pre-gap length 0:00:01.77

Peak level 98.3 %
Extraction speed 6.6 X
Track quality 100.0 %
Test CRC BC5648F1
Copy CRC BC5648F1
Accurately ripped (confidence 1) [61725584] (AR v2)
Copy OK

Track 8

Filename D:\#New wav + flac (flac)\VA - In Belgium They Call It Popcorn !\cd 1\08. Gene Chandler - You Threw A Lucky Punch.wav

Pre-gap length 0:00:01.77

Peak level 98.3 %
Extraction speed 6.9 X
Track quality 100.0 %
Test CRC BBB6501B
Copy CRC BBB6501B
Accurately ripped (confidence 1) [7AC541D7] (AR v2)
Copy OK

Track 9

Filename D:\#New wav + flac (flac)\VA - In Belgium They Call It Popcorn !\cd 1\09. Chuck Jackson - Getting Ready For The Heartbreak.wav

Pre-gap length 0:00:01.77

Peak level 98.3 %
Extraction speed 7.0 X
Track quality 100.0 %
Test CRC 9B89ADBA
Copy CRC 9B89ADBA
Accurately ripped (confidence 1) [2D764E6B] (AR v2)
Copy OK

Track 10

Filename D:\#New wav + flac (flac)\VA - In Belgium They Call It Popcorn !\cd 1\10. Varetta - Fly By Night.wav

Pre-gap length 0:00:01.77

Peak level 98.3 %
Extraction speed 7.1 X
Track quality 100.0 %
Test CRC C4C6EF78
Copy CRC C4C6EF78
Accurately ripped (confidence 1) [2649F115] (AR v2)
Copy OK

Track 11

Filename D:\#New wav + flac (flac)\VA - In Belgium They Call It Popcorn !\cd 1\11. Marie Knight - To Be Loved By You.wav

Pre-gap length 0:00:01.77

Peak level 98.3 %
Extraction speed 7.3 X
Track quality 100.0 %
Test CRC BA86BB2A
Copy CRC BA86BB2A
Accurately ripped (confidence 1) [9886ECDA] (AR v2)
Copy OK

Track 12

Filename D:\#New wav + flac (flac)\VA - In Belgium They Call It Popcorn !\cd 1\12. Baby Washington - Let Love Go By.wav

Pre-gap length 0:00:01.77

Peak level 95.0 %
Extraction speed 7.2 X
Track quality 100.0 %
Test CRC 748CFA65
Copy CRC 748CFA65
Accurately ripped (confidence 1) [CB076FDF] (AR v2)
Copy OK

Track 13

Filename D:\#New wav + flac (flac)\VA - In Belgium They Call It Popcorn !\cd 1\13. Gene Stridel - Let Her Go.wav

Pre-gap length 0:00:01.77

Peak level 98.3 %
Extraction speed 7.8 X
Track quality 100.0 %
Test CRC F0F59E62
Copy CRC F0F59E62
Accurately ripped (confidence 1) [F12A48C9] (AR v2)
Copy OK

Track 14

Filename D:\#New wav + flac (flac)\VA - In Belgium They Call It Popcorn !\cd 1\14. The Lions - Girl Of The World.wav

Pre-gap length 0:00:01.77

Peak level 98.3 %
Extraction speed 7.8 X
Track quality 100.0 %
Test CRC 27990F26
Copy CRC 27990F26
Accurately ripped (confidence 1) [AE058ED6] (AR v2)
Copy OK

Track 15

Filename D:\#New wav + flac (flac)\VA - In Belgium They Call It Popcorn !\cd 1\15. McKinley Mitchell - No Love Like My Love.wav

Pre-gap length 0:00:01.77

Peak level 98.6 %
Extraction speed 6.1 X
Track quality 99.9 %
Test CRC 27ACC97D
Copy CRC 27ACC97D
Accurately ripped (confidence 1) [1F933E1B] (AR v2)
Copy OK


All tracks accurately ripped

No errors occurred

End of status report

–– CUETools DB Plugin V2.1.6

[CTDB TOCID: QvcBlYgsDC5kch.FicFQI0G9WkI-] found
Submit result: QvcBlYgsDC5kch.FicFQI0G9WkI- has been confirmed
Track | CTDB Status
1 | (2/2) Accurately ripped
2 | (2/2) Accurately ripped
3 | (2/2) Accurately ripped
4 | (2/2) Accurately ripped
5 | (2/2) Accurately ripped
6 | (2/2) Accurately ripped
7 | (2/2) Accurately ripped
8 | (2/2) Accurately ripped
9 | (2/2) Accurately ripped
10 | (2/2) Accurately ripped
11 | (2/2) Accurately ripped
12 | (2/2) Accurately ripped
13 | (2/2) Accurately ripped
14 | (2/2) Accurately ripped
15 | (2/2) Accurately ripped


==== Log checksum 329FEA127FE9EB849DF57E41981626F7956A3A1AA3CABD31CCB40C62E7DE9BFC ====

––––––––––––––––––––––––––––––

Exact Audio Copy V1.3 from 2. September 2016

EAC extraction logfile from 2. May 2019, 20:39

Various Artists / In Belgium They Call It Popcorn!

Used drive : PLEXTOR PX-891SAF Adapter: 1 ID: 0

Read mode : Secure
Utilize accurate stream : Yes
Defeat audio cache : Yes
Make use of C2 pointers : No

Read offset correction : 6
Overread into Lead-In and Lead-Out : No
Fill up missing offset samples with silence : Yes
Delete leading and trailing silent blocks : No
Null samples used in CRC calculations : Yes
Used interface : Native Win32 interface for Win NT & 2000
Gap handling : Appended to previous track

Used output format : User Defined Encoder
Selected bitrate : 1024 kBit/s
Quality : High
Add ID3 tag : No
Command line compressor : C:\Program Files (x86)\Exact Audio Copy\Flac\flac.exe
Additional command line options : -8 -V -T "ARTIST=%artist%" -T "TITLE=%title%" -T "ALBUM=%albumtitle%" -T "DATE=%year%" -T "TRACKNUMBER=%tracknr%" -T "GENRE=%genre%" -T "PERFORMER=%albuminterpret%" -T "COMPOSER=%composer%" %haslyrics%–tag-from-file=LYRICS="%lyricsfile%"%haslyrics% -T "ALBUMARTIST=%albumartist%" -T "DISCNUMBER=%cdnumber%" -T "TOTALDISCS=%totalcds%" -T "TOTALTRACKS=%numtracks%" -T "COMMENT=%comment%" %source% -o %dest%


TOC of the extracted CD

Track | Start | Length | Start sector | End sector
––––––––––––––––––––––––––––-
1 | 0:00.00 | 2:33.06 | 0 | 11480
2 | 2:33.06 | 3:01.00 | 11481 | 25055
3 | 5:34.06 | 2:29.23 | 25056 | 36253
4 | 8:03.29 | 2:51.06 | 36254 | 49084
5 | 10:54.35 | 2:47.04 | 49085 | 61613
6 | 13:41.39 | 2:23.53 | 61614 | 72391
7 | 16:05.17 | 2:29.34 | 72392 | 83600
8 | 18:34.51 | 2:35.41 | 83601 | 95266
9 | 21:10.17 | 2:28.18 | 95267 | 106384
10 | 23:38.35 | 2:30.61 | 106385 | 117695
11 | 26:09.21 | 2:22.68 | 117696 | 128413
12 | 28:32.14 | 1:57.09 | 128414 | 137197
13 | 30:29.23 | 2:33.56 | 137198 | 148728
14 | 33:03.04 | 2:12.55 | 148729 | 158683
15 | 35:15.59 | 2:38.26 | 158684 | 170559


Track 1

Filename D:\#New wav + flac (flac)\VA - In Belgium They Call It Popcorn !\cd 1\01. Timi Yuro - I Ain't Gonna Cry No More.wav

Pre-gap length 0:00:02.00

Peak level 98.7 %
Extraction speed 3.8 X
Track quality 99.9 %
Test CRC 431E4819
Copy CRC 431E4819
Accurately ripped (confidence 1) [DF7C4AED] (AR v2)
Copy OK

Track 2

Filename D:\#New wav + flac (flac)\VA - In Belgium They Call It Popcorn !\cd 1\02. Ben E. King - Fever.wav

Pre-gap length 0:00:01.77

Peak level 98.3 %
Extraction speed 5.3 X
Track quality 100.0 %
Test CRC F68ADDEC
Copy CRC F68ADDEC
Accurately ripped (confidence 1) [6510A24B] (AR v2)
Copy OK

Track 3

Filename D:\#New wav + flac (flac)\VA - In Belgium They Call It Popcorn !\cd 1\03. Birdie Green - Tremblin'.wav

Pre-gap length 0:00:01.77

Peak level 98.2 %
Extraction speed 5.5 X
Track quality 100.0 %
Test CRC 5E7704DC
Copy CRC 5E7704DC
Accurately ripped (confidence 1) [E579C3EB] (AR v2)
Copy OK

Track 4

Filename D:\#New wav + flac (flac)\VA - In Belgium They Call It Popcorn !\cd 1\04. Dee Clark - Drums In My Heart.wav

Pre-gap length 0:00:01.77

Peak level 98.5 %
Extraction speed 6.0 X
Track quality 100.0 %
Test CRC B0210AF8
Copy CRC B0210AF8
Accurately ripped (confidence 1) [36B123A5] (AR v2)
Copy OK

Track 5

Filename D:\#New wav + flac (flac)\VA - In Belgium They Call It Popcorn !\cd 1\05. Irma Thomas - Two Winters Long.wav

Pre-gap length 0:00:01.77

Peak level 98.4 %
Extraction speed 6.2 X
Track quality 100.0 %
Test CRC 2287A3AF
Copy CRC 2287A3AF
Accurately ripped (confidence 1) [E186438C] (AR v2)
Copy OK

Track 6

Filename D:\#New wav + flac (flac)\VA - In Belgium They Call It Popcorn !\cd 1\06. The Cleftones - There She Goes.wav

Pre-gap length 0:00:01.77

Peak level 98.8 %
Extraction speed 6.3 X
Track quality 100.0 %
Test CRC 4CDEB339
Copy CRC 4CDEB339
Accurately ripped (confidence 1) [FECB0413] (AR v2)
Copy OK

Track 7

Filename D:\#New wav + flac (flac)\VA - In Belgium They Call It Popcorn !\cd 1\07. Cicero Blake - See What Tomorrow Brings.wav

Pre-gap length 0:00:01.77

Peak level 98.3 %
Extraction speed 6.6 X
Track quality 100.0 %
Test CRC BC5648F1
Copy CRC BC5648F1
Accurately ripped (confidence 1) [61725584] (AR v2)
Copy OK

Track 8

Filename D:\#New wav + flac (flac)\VA - In Belgium They Call It Popcorn !\cd 1\08. Gene Chandler - You Threw A Lucky Punch.wav

Pre-gap length 0:00:01.77

Peak level 98.3 %
Extraction speed 6.9 X
Track quality 100.0 %
Test CRC BBB6501B
Copy CRC BBB6501B
Accurately ripped (confidence 1) [7AC541D7] (AR v2)
Copy OK

Track 9

Filename D:\#New wav + flac (flac)\VA - In Belgium They Call It Popcorn !\cd 1\09. Chuck Jackson - Getting Ready For The Heartbreak.wav

Pre-gap length 0:00:01.77

Peak level 98.3 %
Extraction speed 7.0 X
Track quality 100.0 %
Test CRC 9B89ADBA
Copy CRC 9B89ADBA
Accurately ripped (confidence 1) [2D764E6B] (AR v2)
Copy OK

Track 10

Filename D:\#New wav + flac (flac)\VA - In Belgium They Call It Popcorn !\cd 1\10. Varetta - Fly By Night.wav

Pre-gap length 0:00:01.77

Peak level 98.3 %
Extraction speed 7.1 X
Track quality 100.0 %
Test CRC C4C6EF78
Copy CRC C4C6EF78
Accurately ripped (confidence 1) [2649F115] (AR v2)
Copy OK

Track 11

Filename D:\#New wav + flac (flac)\VA - In Belgium They Call It Popcorn !\cd 1\11. Marie Knight - To Be Loved By You.wav

Pre-gap length 0:00:01.77

Peak level 98.3 %
Extraction speed 7.3 X
Track quality 100.0 %
Test CRC BA86BB2A
Copy CRC BA86BB2A
Accurately ripped (confidence 1) [9886ECDA] (AR v2)
Copy OK

Track 12

Filename D:\#New wav + flac (flac)\VA - In Belgium They Call It Popcorn !\cd 1\12. Baby Washington - Let Love Go By.wav

Pre-gap length 0:00:01.77

Peak level 95.0 %
Extraction speed 7.2 X
Track quality 100.0 %
Test CRC 748CFA65
Copy CRC 748CFA65
Accurately ripped (confidence 1) [CB076FDF] (AR v2)
Copy OK

Track 13

Filename D:\#New wav + flac (flac)\VA - In Belgium They Call It Popcorn !\cd 1\13. Gene Stridel - Let Her Go.wav

Pre-gap length 0:00:01.77

Peak level 98.3 %
Extraction speed 7.8 X
Track quality 100.0 %
Test CRC F0F59E62
Copy CRC F0F59E62
Accurately ripped (confidence 1) [F12A48C9] (AR v2)
Copy OK

Track 14

Filename D:\#New wav + flac (flac)\VA - In Belgium They Call It Popcorn !\cd 1\14. The Lions - Girl Of The World.wav

Pre-gap length 0:00:01.77

Peak level 98.3 %
Extraction speed 7.8 X
Track quality 100.0 %
Test CRC 27990F26
Copy CRC 27990F26
Accurately ripped (confidence 1) [AE058ED6] (AR v2)
Copy OK

Track 15

Filename D:\#New wav + flac (flac)\VA - In Belgium They Call It Popcorn !\cd 1\15. McKinley Mitchell - No Love Like My Love.wav

Pre-gap length 0:00:01.77

Peak level 98.6 %
Extraction speed 6.1 X
Track quality 99.9 %
Test CRC 27ACC97D
Copy CRC 27ACC97D
Accurately ripped (confidence 1) [1F933E1B] (AR v2)
Copy OK


All tracks accurately ripped

No errors occurred

End of status report

–– CUETools DB Plugin V2.1.6

[CTDB TOCID: QvcBlYgsDC5kch.FicFQI0G9WkI-] found
Submit result: QvcBlYgsDC5kch.FicFQI0G9WkI- has been confirmed
Track | CTDB Status
1 | (2/2) Accurately ripped
2 | (2/2) Accurately ripped
3 | (2/2) Accurately ripped
4 | (2/2) Accurately ripped
5 | (2/2) Accurately ripped
6 | (2/2) Accurately ripped
7 | (2/2) Accurately ripped
8 | (2/2) Accurately ripped
9 | (2/2) Accurately ripped
10 | (2/2) Accurately ripped
11 | (2/2) Accurately ripped
12 | (2/2) Accurately ripped
13 | (2/2) Accurately ripped
14 | (2/2) Accurately ripped
15 | (2/2) Accurately ripped


==== Log checksum 329FEA127FE9EB849DF57E41981626F7956A3A1AA3CABD31CCB40C62E7DE9BFC ====


Exact Audio Copy V1.3 from 2. September 2016

EAC extraction logfile from 2. May 2019, 21:01

Various Artists / In Belgium They Call It Popcorn!

Used drive : PLEXTOR PX-891SAF Adapter: 1 ID: 0

Read mode : Secure
Utilize accurate stream : Yes
Defeat audio cache : Yes
Make use of C2 pointers : No

Read offset correction : 6
Overread into Lead-In and Lead-Out : No
Fill up missing offset samples with silence : Yes
Delete leading and trailing silent blocks : No
Null samples used in CRC calculations : Yes
Used interface : Native Win32 interface for Win NT & 2000
Gap handling : Appended to previous track

Used output format : User Defined Encoder
Selected bitrate : 1024 kBit/s
Quality : High
Add ID3 tag : No
Command line compressor : C:\Program Files (x86)\Exact Audio Copy\Flac\flac.exe
Additional command line options : -8 -V -T "ARTIST=%artist%" -T "TITLE=%title%" -T "ALBUM=%albumtitle%" -T "DATE=%year%" -T "TRACKNUMBER=%tracknr%" -T "GENRE=%genre%" -T "PERFORMER=%albuminterpret%" -T "COMPOSER=%composer%" %haslyrics%–tag-from-file=LYRICS="%lyricsfile%"%haslyrics% -T "ALBUMARTIST=%albumartist%" -T "DISCNUMBER=%cdnumber%" -T "TOTALDISCS=%totalcds%" -T "TOTALTRACKS=%numtracks%" -T "COMMENT=%comment%" %source% -o %dest%


TOC of the extracted CD

Track | Start | Length | Start sector | End sector
––––––––––––––––––––––––––––-
1 | 0:00.00 | 2:27.22 | 0 | 11046
2 | 2:27.22 | 2:22.30 | 11047 | 21726
3 | 4:49.52 | 2:17.16 | 21727 | 32017
4 | 7:06.68 | 1:58.73 | 32018 | 40940
5 | 9:05.66 | 2:44.17 | 40941 | 53257
6 | 11:50.08 | 2:11.59 | 53258 | 63141
7 | 14:01.67 | 2:23.41 | 63142 | 73907
8 | 16:25.33 | 2:51.24 | 73908 | 86756
9 | 19:16.57 | 2:10.45 | 86757 | 96551
10 | 21:27.27 | 2:27.11 | 96552 | 107587
11 | 23:54.38 | 2:46.17 | 107588 | 120054
12 | 26:40.55 | 2:09.06 | 120055 | 129735
13 | 28:49.61 | 2:45.48 | 129736 | 142158
14 | 31:35.34 | 2:47.74 | 142159 | 154757
15 | 34:23.33 | 1:58.12 | 154758 | 163619


Track 1

Filename D:\#New wav + flac (flac)\VA - In Belgium They Call It Popcorn !\cd 2\01. The Pentagons - I Wonder.wav

Pre-gap length 0:00:02.00

Peak level 98.4 %
Extraction speed 4.8 X
Track quality 100.0 %
Test CRC A11C0B28
Copy CRC A11C0B28
Accurately ripped (confidence 1) [2DC80DF3] (AR v2)
Copy OK

Track 2

Filename D:\#New wav + flac (flac)\VA - In Belgium They Call It Popcorn !\cd 2\02. Chuck Jackson - In Between Tears.wav

Pre-gap length 0:00:01.77

Peak level 89.0 %
Extraction speed 3.9 X
Track quality 99.9 %
Test CRC 2ADBD9DA
Copy CRC 2ADBD9DA
Accurately ripped (confidence 1) [DEEAA7D2] (AR v2)
Copy OK

Track 3

Filename D:\#New wav + flac (flac)\VA - In Belgium They Call It Popcorn !\cd 2\03. Carrie Grant - Take All Of My Life.wav

Pre-gap length 0:00:01.77

Peak level 98.4 %
Extraction speed 5.3 X
Track quality 100.0 %
Test CRC 3B197CFF
Copy CRC 3B197CFF
Accurately ripped (confidence 1) [A40BD32E] (AR v2)
Copy OK

Track 4

Filename D:\#New wav + flac (flac)\VA - In Belgium They Call It Popcorn !\cd 2\04. Cicero Blake - Don't Do This To Me.wav

Pre-gap length 0:00:01.77

Peak level 98.3 %
Extraction speed 5.4 X
Track quality 100.0 %
Test CRC CB153757
Copy CRC CB153757
Accurately ripped (confidence 1) [3D1B154A] (AR v2)
Copy OK

Track 5

Filename D:\#New wav + flac (flac)\VA - In Belgium They Call It Popcorn !\cd 2\05. Mary Wells - You Beat Me To The Punch.wav

Pre-gap length 0:00:01.77

Peak level 98.4 %
Extraction speed 6.0 X
Track quality 100.0 %
Test CRC A7385EAB
Copy CRC A7385EAB
Accurately ripped (confidence 1) [66FE245C] (AR v2)
Copy OK

Track 6

Filename D:\#New wav + flac (flac)\VA - In Belgium They Call It Popcorn !\cd 2\06. Tommy Hunt - Poor Millionaire.wav

Pre-gap length 0:00:01.77

Peak level 98.4 %
Extraction speed 4.5 X
Track quality 99.9 %
Test CRC D3E31014
Copy CRC D3E31014
Accurately ripped (confidence 1) [02EE34B8] (AR v2)
Copy OK

Track 7

Filename D:\#New wav + flac (flac)\VA - In Belgium They Call It Popcorn !\cd 2\07. Clyde McPhatter - I'll Love You Till The Cows Come Home.wav

Pre-gap length 0:00:01.77

Peak level 98.3 %
Extraction speed 6.3 X
Track quality 100.0 %
Test CRC CC6FC066
Copy CRC CC6FC066
Accurately ripped (confidence 1) [271171C6] (AR v2)
Copy OK

Track 8

Filename D:\#New wav + flac (flac)\VA - In Belgium They Call It Popcorn !\cd 2\08. The Neville Brothers - How Could I Help But Love You.wav

Pre-gap length 0:00:01.77

Peak level 98.3 %
Extraction speed 5.4 X
Track quality 99.9 %
Test CRC 46ECE0CC
Copy CRC 46ECE0CC
Accurately ripped (confidence 1) [B20FFDF6] (AR v2)
Copy OK

Track 9

Filename D:\#New wav + flac (flac)\VA - In Belgium They Call It Popcorn !\cd 2\09. Geraldine Hunt - I Let Myself Go.wav

Pre-gap length 0:00:01.77

Peak level 98.3 %
Extraction speed 6.6 X
Track quality 100.0 %
Test CRC FDBEE28F
Copy CRC FDBEE28F
Accurately ripped (confidence 1) [D0DBD9FF] (AR v2)
Copy OK

Track 10

Filename D:\#New wav + flac (flac)\VA - In Belgium They Call It Popcorn !\cd 2\10. Johnny Love - Chills And Fever.wav

Pre-gap length 0:00:01.77

Peak level 98.3 %
Extraction speed 7.0 X
Track quality 100.0 %
Test CRC 9241D8E3
Copy CRC 9241D8E3
Accurately ripped (confidence 1) [A8B34B3A] (AR v2)
Copy OK

Track 11

Filename D:\#New wav + flac (flac)\VA - In Belgium They Call It Popcorn !\cd 2\11. Harvey - Any Way You Wanta.wav

Pre-gap length 0:00:01.77

Peak level 98.3 %
Extraction speed 7.4 X
Track quality 100.0 %
Test CRC 6A9BDD43
Copy CRC 6A9BDD43
Accurately ripped (confidence 1) [6087BD3B] (AR v2)
Copy OK

Track 12

Filename D:\#New wav + flac (flac)\VA - In Belgium They Call It Popcorn !\cd 2\12. Lean Calhoun - First Love Baby.wav

Pre-gap length 0:00:01.77

Peak level 98.3 %
Extraction speed 7.2 X
Track quality 100.0 %
Test CRC CB5BD56C
Copy CRC CB5BD56C
Accurately ripped (confidence 1) [28EA88B3] (AR v2)
Copy OK

Track 13

Filename D:\#New wav + flac (flac)\VA - In Belgium They Call It Popcorn !\cd 2\13. Herb Hardesty - Just A Little Bit Of Everything.wav

Pre-gap length 0:00:01.77

Peak level 98.3 %
Extraction speed 6.1 X
Track quality 99.9 %
Test CRC 2C246C2A
Copy CRC 2C246C2A
Accurately ripped (confidence 1) [FB02ADD3] (AR v2)
Copy OK

Track 14

Filename D:\#New wav + flac (flac)\VA - In Belgium They Call It Popcorn !\cd 2\14. Wilson Pickett - Let Me Be Your Boy.wav

Pre-gap length 0:00:01.77

Peak level 98.3 %
Extraction speed 6.2 X
Track quality 99.9 %
Test CRC 32796D93
Copy CRC 32796D93
Accurately ripped (confidence 1) [A527D847] (AR v2)
Copy OK

Track 15

Filename D:\#New wav + flac (flac)\VA - In Belgium They Call It Popcorn !\cd 2\15. LaVern Baker - Love Me Right.wav

Pre-gap length 0:00:01.77

Peak level 98.3 %
Extraction speed 7.5 X
Track quality 100.0 %
Test CRC 325E2261
Copy CRC 325E2261
Accurately ripped (confidence 1) [9BA8B1F1] (AR v2)
Copy OK


All tracks accurately ripped

No errors occurred

End of status report

–– CUETools DB Plugin V2.1.6

[CTDB TOCID: UbEgzwiuXN1eW9pptCApQG5eXNw-] found
Submit result: UbEgzwiuXN1eW9pptCApQG5eXNw- has been confirmed
Track | CTDB Status
1 | (2/2) Accurately ripped
2 | (2/2) Accurately ripped
3 | (2/2) Accurately ripped
4 | (2/2) Accurately ripped
5 | (2/2) Accurately ripped
6 | (2/2) Accurately ripped
7 | (2/2) Accurately ripped
8 | (2/2) Accurately ripped
9 | (2/2) Accurately ripped
10 | (2/2) Accurately ripped
11 | (2/2) Accurately ripped
12 | (2/2) Accurately ripped
13 | (2/2) Accurately ripped
14 | (2/2) Accurately ripped
15 | (2/2) Accurately ripped


==== Log checksum 1CC74EDFA8E75AA3CB31B279B5BF7295CBF1CEB5DC0478167E315C6F905BAA4E ====

––––––––––––––––––––––––––––––

Exact Audio Copy V1.3 from 2. September 2016

EAC extraction logfile from 2. May 2019, 21:01

Various Artists / In Belgium They Call It Popcorn!

Used drive : PLEXTOR PX-891SAF Adapter: 1 ID: 0

Read mode : Secure
Utilize accurate stream : Yes
Defeat audio cache : Yes
Make use of C2 pointers : No

Read offset correction : 6
Overread into Lead-In and Lead-Out : No
Fill up missing offset samples with silence : Yes
Delete leading and trailing silent blocks : No
Null samples used in CRC calculations : Yes
Used interface : Native Win32 interface for Win NT & 2000
Gap handling : Appended to previous track

Used output format : User Defined Encoder
Selected bitrate : 1024 kBit/s
Quality : High
Add ID3 tag : No
Command line compressor : C:\Program Files (x86)\Exact Audio Copy\Flac\flac.exe
Additional command line options : -8 -V -T "ARTIST=%artist%" -T "TITLE=%title%" -T "ALBUM=%albumtitle%" -T "DATE=%year%" -T "TRACKNUMBER=%tracknr%" -T "GENRE=%genre%" -T "PERFORMER=%albuminterpret%" -T "COMPOSER=%composer%" %haslyrics%–tag-from-file=LYRICS="%lyricsfile%"%haslyrics% -T "ALBUMARTIST=%albumartist%" -T "DISCNUMBER=%cdnumber%" -T "TOTALDISCS=%totalcds%" -T "TOTALTRACKS=%numtracks%" -T "COMMENT=%comment%" %source% -o %dest%


TOC of the extracted CD

Track | Start | Length | Start sector | End sector
––––––––––––––––––––––––––––-
1 | 0:00.00 | 2:27.22 | 0 | 11046
2 | 2:27.22 | 2:22.30 | 11047 | 21726
3 | 4:49.52 | 2:17.16 | 21727 | 32017
4 | 7:06.68 | 1:58.73 | 32018 | 40940
5 | 9:05.66 | 2:44.17 | 40941 | 53257
6 | 11:50.08 | 2:11.59 | 53258 | 63141
7 | 14:01.67 | 2:23.41 | 63142 | 73907
8 | 16:25.33 | 2:51.24 | 73908 | 86756
9 | 19:16.57 | 2:10.45 | 86757 | 96551
10 | 21:27.27 | 2:27.11 | 96552 | 107587
11 | 23:54.38 | 2:46.17 | 107588 | 120054
12 | 26:40.55 | 2:09.06 | 120055 | 129735
13 | 28:49.61 | 2:45.48 | 129736 | 142158
14 | 31:35.34 | 2:47.74 | 142159 | 154757
15 | 34:23.33 | 1:58.12 | 154758 | 163619


Track 1

Filename D:\#New wav + flac (flac)\VA - In Belgium They Call It Popcorn !\cd 2\01. The Pentagons - I Wonder.wav

Pre-gap length 0:00:02.00

Peak level 98.4 %
Extraction speed 4.8 X
Track quality 100.0 %
Test CRC A11C0B28
Copy CRC A11C0B28
Accurately ripped (confidence 1) [2DC80DF3] (AR v2)
Copy OK

Track 2

Filename D:\#New wav + flac (flac)\VA - In Belgium They Call It Popcorn !\cd 2\02. Chuck Jackson - In Between Tears.wav

Pre-gap length 0:00:01.77

Peak level 89.0 %
Extraction speed 3.9 X
Track quality 99.9 %
Test CRC 2ADBD9DA
Copy CRC 2ADBD9DA
Accurately ripped (confidence 1) [DEEAA7D2] (AR v2)
Copy OK

Track 3

Filename D:\#New wav + flac (flac)\VA - In Belgium They Call It Popcorn !\cd 2\03. Carrie Grant - Take All Of My Life.wav

Pre-gap length 0:00:01.77

Peak level 98.4 %
Extraction speed 5.3 X
Track quality 100.0 %
Test CRC 3B197CFF
Copy CRC 3B197CFF
Accurately ripped (confidence 1) [A40BD32E] (AR v2)
Copy OK

Track 4

Filename D:\#New wav + flac (flac)\VA - In Belgium They Call It Popcorn !\cd 2\04. Cicero Blake - Don't Do This To Me.wav

Pre-gap length 0:00:01.77

Peak level 98.3 %
Extraction speed 5.4 X
Track quality 100.0 %
Test CRC CB153757
Copy CRC CB153757
Accurately ripped (confidence 1) [3D1B154A] (AR v2)
Copy OK

Track 5

Filename D:\#New wav + flac (flac)\VA - In Belgium They Call It Popcorn !\cd 2\05. Mary Wells - You Beat Me To The Punch.wav

Pre-gap length 0:00:01.77

Peak level 98.4 %
Extraction speed 6.0 X
Track quality 100.0 %
Test CRC A7385EAB
Copy CRC A7385EAB
Accurately ripped (confidence 1) [66FE245C] (AR v2)
Copy OK

Track 6

Filename D:\#New wav + flac (flac)\VA - In Belgium They Call It Popcorn !\cd 2\06. Tommy Hunt - Poor Millionaire.wav

Pre-gap length 0:00:01.77

Peak level 98.4 %
Extraction speed 4.5 X
Track quality 99.9 %
Test CRC D3E31014
Copy CRC D3E31014
Accurately ripped (confidence 1) [02EE34B8] (AR v2)
Copy OK

Track 7

Filename D:\#New wav + flac (flac)\VA - In Belgium They Call It Popcorn !\cd 2\07. Clyde McPhatter - I'll Love You Till The Cows Come Home.wav

Pre-gap length 0:00:01.77

Peak level 98.3 %
Extraction speed 6.3 X
Track quality 100.0 %
Test CRC CC6FC066
Copy CRC CC6FC066
Accurately ripped (confidence 1) [271171C6] (AR v2)
Copy OK

Track 8

Filename D:\#New wav + flac (flac)\VA - In Belgium They Call It Popcorn !\cd 2\08. The Neville Brothers - How Could I Help But Love You.wav

Pre-gap length 0:00:01.77

Peak level 98.3 %
Extraction speed 5.4 X
Track quality 99.9 %
Test CRC 46ECE0CC
Copy CRC 46ECE0CC
Accurately ripped (confidence 1) [B20FFDF6] (AR v2)
Copy OK

Track 9

Filename D:\#New wav + flac (flac)\VA - In Belgium They Call It Popcorn !\cd 2\09. Geraldine Hunt - I Let Myself Go.wav

Pre-gap length 0:00:01.77

Peak level 98.3 %
Extraction speed 6.6 X
Track quality 100.0 %
Test CRC FDBEE28F
Copy CRC FDBEE28F
Accurately ripped (confidence 1) [D0DBD9FF] (AR v2)
Copy OK

Track 10

Filename D:\#New wav + flac (flac)\VA - In Belgium They Call It Popcorn !\cd 2\10. Johnny Love - Chills And Fever.wav

Pre-gap length 0:00:01.77

Peak level 98.3 %
Extraction speed 7.0 X
Track quality 100.0 %
Test CRC 9241D8E3
Copy CRC 9241D8E3
Accurately ripped (confidence 1) [A8B34B3A] (AR v2)
Copy OK

Track 11

Filename D:\#New wav + flac (flac)\VA - In Belgium They Call It Popcorn !\cd 2\11. Harvey - Any Way You Wanta.wav

Pre-gap length 0:00:01.77

Peak level 98.3 %
Extraction speed 7.4 X
Track quality 100.0 %
Test CRC 6A9BDD43
Copy CRC 6A9BDD43
Accurately ripped (confidence 1) [6087BD3B] (AR v2)
Copy OK

Track 12

Filename D:\#New wav + flac (flac)\VA - In Belgium They Call It Popcorn !\cd 2\12. Lean Calhoun - First Love Baby.wav

Pre-gap length 0:00:01.77

Peak level 98.3 %
Extraction speed 7.2 X
Track quality 100.0 %
Test CRC CB5BD56C
Copy CRC CB5BD56C
Accurately ripped (confidence 1) [28EA88B3] (AR v2)
Copy OK

Track 13

Filename D:\#New wav + flac (flac)\VA - In Belgium They Call It Popcorn !\cd 2\13. Herb Hardesty - Just A Little Bit Of Everything.wav

Pre-gap length 0:00:01.77

Peak level 98.3 %
Extraction speed 6.1 X
Track quality 99.9 %
Test CRC 2C246C2A
Copy CRC 2C246C2A
Accurately ripped (confidence 1) [FB02ADD3] (AR v2)
Copy OK

Track 14

Filename D:\#New wav + flac (flac)\VA - In Belgium They Call It Popcorn !\cd 2\14. Wilson Pickett - Let Me Be Your Boy.wav

Pre-gap length 0:00:01.77

Peak level 98.3 %
Extraction speed 6.2 X
Track quality 99.9 %
Test CRC 32796D93
Copy CRC 32796D93
Accurately ripped (confidence 1) [A527D847] (AR v2)
Copy OK

Track 15

Filename D:\#New wav + flac (flac)\VA - In Belgium They Call It Popcorn !\cd 2\15. LaVern Baker - Love Me Right.wav

Pre-gap length 0:00:01.77

Peak level 98.3 %
Extraction speed 7.5 X
Track quality 100.0 %
Test CRC 325E2261
Copy CRC 325E2261
Accurately ripped (confidence 1) [9BA8B1F1] (AR v2)
Copy OK


All tracks accurately ripped

No errors occurred

End of status report

–– CUETools DB Plugin V2.1.6

[CTDB TOCID: UbEgzwiuXN1eW9pptCApQG5eXNw-] found
Submit result: UbEgzwiuXN1eW9pptCApQG5eXNw- has been confirmed
Track | CTDB Status
1 | (2/2) Accurately ripped
2 | (2/2) Accurately ripped
3 | (2/2) Accurately ripped
4 | (2/2) Accurately ripped
5 | (2/2) Accurately ripped
6 | (2/2) Accurately ripped
7 | (2/2) Accurately ripped
8 | (2/2) Accurately ripped
9 | (2/2) Accurately ripped
10 | (2/2) Accurately ripped
11 | (2/2) Accurately ripped
12 | (2/2) Accurately ripped
13 | (2/2) Accurately ripped
14 | (2/2) Accurately ripped
15 | (2/2) Accurately ripped


==== Log checksum 1CC74EDFA8E75AA3CB31B279B5BF7295CBF1CEB5DC0478167E315C6F905BAA4E ====