Tags
Language
Tags

Hugh Cornwell - The Fall And Rise Of Hugh Cornwell (2015)

Posted By: popsakov
Hugh Cornwell - The Fall And Rise Of Hugh Cornwell (2015)

Hugh Cornwell - The Fall And Rise Of Hugh Cornwell (2015)
EAC Rip | FLAC (Img) + Cue + Log ~ 416 Mb | MP3 CBR320 ~ 151 Mb
Full Scans | 00:53:51 | RAR 5% Recovery
Alternative Rock, Indie Rock, Post-Punk | Invisible Hands Music #IHCD61

Like most compilations from his old group the Stranglers, Hugh Cornwell's first solo collection subscribes to the "leave them wanting more" theory, as it whets the appetite instead of fully satisfying. If this was the be-all, end-all when it comes to Hugh's first six solo albums, then cuts like "Picked Up by the Wind" and "Black Hair Black Eyes Black Suit" would be included, but brevity is the thing here, and this tight, no-filler track list packs quite the punch, and that's hard to argue against. New song "Live It and Breathe It" lives up to the other numbers here – as opposed to when the Stranglers would screw up comps with throwaways like a cover of "96 Tears" – and the black humor of the old days is back with the cover art that features Hugh's well-done plus well-revered solo albums, along with a sledgehammer that says "F*ck it all!"

~ David Jeffries, All Music

***************

Hugh Cornwell - The Fall And Rise Of Hugh Cornwell (2015)

Track List:

01. Leave Me Alone [3:30]
02. Beat of My Heart [3:40]
03. Hot Cat On A Tin Roof [4:10]
04. Break Of Dawn [4:28]
05. Under Her Spell [3:15]
06. First Bus To Babylon [4:00]
07. Please Don't Put Me On A Slow Boat to Trowbridge [3:16]
08. Lay Back on Me Pal [3:37]
09. One Burning Desire [4:43]
10. Cadiz [4:13]
11. Long Dead Train [5:11]
12. Getting Involved [5:22]
13. Live It and Breathe It [4:26]

Tracks 4 and 12 taken from the album 'Wolf' 1988
Tracks 3 and 6 taken from the album 'Wired' 1993
Tracks 9 and 11 taken from the album 'Guilty' 1997
Tracks 1 and 8 taken from the album 'HiFi' 2000
Tracks 5 and 10 taken from the album 'Beyond Elisian Fields' 2004
Tracks 4 and 12 taken from the album 'Hooverdam' 2008
Track 13 - new studio recording 2015


Exact Audio Copy V1.0 beta 6 from 9. April 2015

EAC extraction logfile from 14. September 2018, 13:38

Hugh Cornwell / The Fall and Rise of Hugh Cornwell

Used drive : ATAPI iHAS122 C Adapter: 1 ID: 0

Read mode : Secure
Utilize accurate stream : Yes
Defeat audio cache : Yes
Make use of C2 pointers : No

Read offset correction : 6
Overread into Lead-In and Lead-Out : No
Fill up missing offset samples with silence : Yes
Delete leading and trailing silent blocks : No
Null samples used in CRC calculations : Yes
Used interface : Native Win32 interface for Win NT & 2000

Used output format : Internal WAV Routines
Sample format : 44.100 Hz; 16 Bit; Stereo


TOC of the extracted CD

Track | Start | Length | Start sector | End sector
––––––––––––––––––––––––––––-
1 | 0:00.00 | 3:29.71 | 0 | 15745
2 | 3:29.71 | 3:40.20 | 15746 | 32265
3 | 7:10.16 | 4:10.14 | 32266 | 51029
4 | 11:20.30 | 4:28.11 | 51030 | 71140
5 | 15:48.41 | 3:14.46 | 71141 | 85736
6 | 19:03.12 | 3:59.71 | 85737 | 103732
7 | 23:03.08 | 3:15.51 | 103733 | 118408
8 | 26:18.59 | 3:37.06 | 118409 | 134689
9 | 29:55.65 | 4:42.68 | 134690 | 155907
10 | 34:38.58 | 4:13.18 | 155908 | 174900
11 | 38:52.01 | 5:10.52 | 174901 | 198202
12 | 44:02.53 | 5:22.12 | 198203 | 222364
13 | 49:24.65 | 4:25.62 | 222365 | 242301


Range status and errors

Selected range

Filename C:\Users\London\Desktop\Hugh Cornwell - The Fall and Rise of Hugh Cornwell.wav

Peak level 100.0 %
Extraction speed 3.1 X
Range quality 99.9 %
Test CRC B974F744
Copy CRC B974F744
Copy OK

No errors occurred


AccurateRip summary

Track 1 accurately ripped (confidence 2) [DAFBC243] (AR v2)
Track 2 accurately ripped (confidence 2) [B4BB26E9] (AR v2)
Track 3 accurately ripped (confidence 2) [99B16AD4] (AR v2)
Track 4 accurately ripped (confidence 2) [5EA1CE30] (AR v2)
Track 5 accurately ripped (confidence 2) [47FF5CEC] (AR v2)
Track 6 accurately ripped (confidence 2) [C6AD80D5] (AR v2)
Track 7 accurately ripped (confidence 2) [E2143110] (AR v2)
Track 8 accurately ripped (confidence 2) [B64AD5AC] (AR v2)
Track 9 accurately ripped (confidence 2) [A82F747A] (AR v2)
Track 10 accurately ripped (confidence 2) [EA731039] (AR v2)
Track 11 accurately ripped (confidence 2) [1BA63CD2] (AR v2)
Track 12 accurately ripped (confidence 2) [DC4EA83F] (AR v2)
Track 13 accurately ripped (confidence 2) [6A7DE685] (AR v2)

All tracks accurately ripped

End of status report

–– CUETools DB Plugin V2.1.6

[CTDB TOCID: S65huG9qprP5Kf03yPh8rVxTy0w-] found
Submit result: already submitted
Track | CTDB Status
1 | (6/6) Accurately ripped
2 | (6/6) Accurately ripped
3 | (6/6) Accurately ripped
4 | (6/6) Accurately ripped
5 | (6/6) Accurately ripped
6 | (6/6) Accurately ripped
7 | (6/6) Accurately ripped
8 | (6/6) Accurately ripped
9 | (6/6) Accurately ripped
10 | (6/6) Accurately ripped
11 | (6/6) Accurately ripped
12 | (6/6) Accurately ripped
13 | (6/6) Accurately ripped


==== Log checksum 768BF6729F69D455932BC68D845FD9AF5A30BAD10A7E8F7D5C6853112FB48868 ====

Hugh Cornwell - The Fall And Rise Of Hugh Cornwell (2015)


All thanks go to London

>>> My Blog <<<

DOWNLOAD: