Tags
Language
Tags

Donna Summer: Encore (2020) [33CD Box Set]

Posted By: v3122
Donna Summer: Encore (2020) [33CD Box Set]

Anna Domino - Anna Domino (1986)
EAC | Flac(Image) + Cue + Log & MP3 CBR 320Kbps
2013 | Les Disques Du Crepuscule/Hayabusa Landings, HYSA-3037 | Japan | ~ 441 or 157 Mb | Artwork(png) -> 154 Mb
Electronic, Rock, Art Rock, Pop Rock, Synth-Pop

Limited 33 CD box set. For the first time in history, Donna Summer's iconic studio albums are presented in one box set. This exquisitely packaged box set features 329 tracks and collates all of Donna Summer's 17 studio albums, from her debut Lady Of The Night Up to 2008's Crayons. Also included are 1978's Live And More, 1980's On The Radio And 1999's Live & More Encore!, along with four bonus double CDs of 7" single versions, 12" single versions, remixes and non-studio album singles and extended mixes, that include one-off recordings, which have been considered rarities over the years. The box set includes the debut official commercial release of 'My Life' [Junior Vasquez private collection mix]. The individual remastered albums are packaged in mini replica sleeves, with inner wallets. A 40-page 12" x 12" hardback book, includes the album label copy Information, as well as a newly commissioned 25, 000+ word essay by noted us writer, Christian John Wikane, which starts with a foreword by long-term friend, collaborator and producer Giorgio Moroder.
Donna Summer: Encore (2020):

Donna Summer: Encore (2020) [33CD Box Set]

Tracklist CD01. 1974 - Lady Of The Night:

01 Lady Of The Night
02 Born To Die
03 Friends
04 Domino
05 The Hostage
06 Wounded
07 Little Miss Fit
08 Let’s Work Together Now
09 Sing Along (Sad Song)

Exact Audio Copy V1.3 from 2. September 2016

EAC extraction logfile from 12. April 2020, 22:39

Donna Summer / Lady Of The Night

Used drive : PLEXTOR BD-R PX-B950SA Adapter: 1 ID: 1

Read mode : Secure
Utilize accurate stream : Yes
Defeat audio cache : Yes
Make use of C2 pointers : No

Read offset correction : 6
Overread into Lead-In and Lead-Out : No
Fill up missing offset samples with silence : Yes
Delete leading and trailing silent blocks : No
Null samples used in CRC calculations : Yes
Used interface : Native Win32 interface for Win NT & 2000

Used output format : Internal WAV Routines
Sample format : 44.100 Hz; 16 Bit; Stereo


TOC of the extracted CD

Track | Start | Length | Start sector | End sector
––––––––––––––––––––––––––––-
1 | 0:00.00 | 3:58.29 | 0 | 17878
2 | 3:58.29 | 3:22.22 | 17879 | 33050
3 | 7:20.51 | 3:28.61 | 33051 | 48711
4 | 10:49.37 | 3:14.00 | 48712 | 63261
5 | 14:03.37 | 4:18.13 | 63262 | 82624
6 | 18:21.50 | 2:43.01 | 82625 | 94850
7 | 21:04.51 | 3:05.01 | 94851 | 108726
8 | 24:09.52 | 3:55.46 | 108727 | 126397
9 | 28:05.23 | 3:16.36 | 126398 | 141133


Range status and errors

Selected range

Filename C:\Users\Alex\Desktop\ALLexxess\Donna Summer\2020 Encore (33CD Box Set Driven By The Music)\1974 Lady Of The Night\Donna Summer - Lady Of The Night.wav

Peak level 85.1 %
Extraction speed 6.1 X
Range quality 99.9 %
Test CRC CAD2D891
Copy CRC CAD2D891
Copy OK

No errors occurred


AccurateRip summary

Track 1 not present in database
Track 2 not present in database
Track 3 not present in database
Track 4 not present in database
Track 5 not present in database
Track 6 not present in database
Track 7 not present in database
Track 8 not present in database
Track 9 not present in database

None of the tracks are present in the AccurateRip database

End of status report

–– CUETools DB Plugin V2.1.6

[CTDB TOCID: mdE96gBYfIRuMM4htJQGB_Goelk-] found
Submit result: mdE96gBYfIRuMM4htJQGB_Goelk- has been confirmed
Track | CTDB Status
1 | (7/7) Accurately ripped
2 | (7/7) Accurately ripped
3 | (7/7) Accurately ripped
4 | (7/7) Accurately ripped
5 | (7/7) Accurately ripped
6 | (7/7) Accurately ripped
7 | (7/7) Accurately ripped
8 | (7/7) Accurately ripped
9 | (7/7) Accurately ripped


==== Log checksum 4C223D7796E3148F763E664992C08597D157FD0127A22E656D2480DEB887E689 ====


Tracklist CD02. 1975 - Love To Love You Baby:

01 Love To Love You Baby
02 Full Of Emptiness
03 Need-A-Man Blues
04 Whispering Waves
05 Pandora’s Box
06 Full Of Emptiness (Reprise)

Exact Audio Copy V1.3 from 2. September 2016

EAC extraction logfile from 12. April 2020, 22:20

Donna Summer / Love To Love You Baby

Used drive : PLEXTOR BD-R PX-B950SA Adapter: 1 ID: 1

Read mode : Secure
Utilize accurate stream : Yes
Defeat audio cache : Yes
Make use of C2 pointers : No

Read offset correction : 6
Overread into Lead-In and Lead-Out : No
Fill up missing offset samples with silence : Yes
Delete leading and trailing silent blocks : No
Null samples used in CRC calculations : Yes
Used interface : Native Win32 interface for Win NT & 2000

Used output format : Internal WAV Routines
Sample format : 44.100 Hz; 16 Bit; Stereo


TOC of the extracted CD

Track | Start | Length | Start sector | End sector
––––––––––––––––––––––––––––-
1 | 0:00.00 | 16:48.40 | 0 | 75639
2 | 16:48.40 | 2:27.48 | 75640 | 86712
3 | 19:16.13 | 4:42.60 | 86713 | 107922
4 | 23:58.73 | 4:57.70 | 107923 | 130267
5 | 28:56.68 | 4:59.64 | 130268 | 152756
6 | 33:56.57 | 2:22.67 | 152757 | 163473


Range status and errors

Selected range

Filename C:\Users\Alex\Desktop\Galaxy ALLexxess\Donna Summer\2020 Encore (33CD Box Set Driven By The Music)\1975 Love To Love You Baby\Donna Summer - Love To Love You Baby.wav

Peak level 100.0 %
Extraction speed 6.5 X
Range quality 100.0 %
Test CRC 6E3B001F
Copy CRC 6E3B001F
Copy OK

No errors occurred


AccurateRip summary

Track 1 not present in database
Track 2 not present in database
Track 3 not present in database
Track 4 not present in database
Track 5 not present in database
Track 6 not present in database

None of the tracks are present in the AccurateRip database

End of status report

–– CUETools DB Plugin V2.1.6

[CTDB TOCID: 8IkN5nGgUXP.osG4rl5o89ZfTT8-] found
Submit result: 8IkN5nGgUXP.osG4rl5o89ZfTT8- has been confirmed
Track | CTDB Status
1 | (8/8) Accurately ripped
2 | (8/8) Accurately ripped
3 | (8/8) Accurately ripped
4 | (8/8) Accurately ripped
5 | (8/8) Accurately ripped
6 | (8/8) Accurately ripped


==== Log checksum C369495DD6F955160F179749BD5C710105244156A834C65DFD5BEF54740B7A11 ====


Tracklist CD03. 1976 - A Love Trilogy:

01 Try Me, I Know We Can Make It
02 Prelude To Love
03 Could It Be Magic
04 Wasted
05 Come With Me

Exact Audio Copy V1.3 from 2. September 2016

EAC extraction logfile from 12. April 2020, 21:52

Donna Summer / A Love Trilogy

Used drive : PLEXTOR BD-R PX-B950SA Adapter: 1 ID: 1

Read mode : Secure
Utilize accurate stream : Yes
Defeat audio cache : Yes
Make use of C2 pointers : No

Read offset correction : 6
Overread into Lead-In and Lead-Out : No
Fill up missing offset samples with silence : Yes
Delete leading and trailing silent blocks : No
Null samples used in CRC calculations : Yes
Used interface : Native Win32 interface for Win NT & 2000

Used output format : Internal WAV Routines
Sample format : 44.100 Hz; 16 Bit; Stereo


TOC of the extracted CD

Track | Start | Length | Start sector | End sector
––––––––––––––––––––––––––––-
1 | 0:00.00 | 17:57.10 | 0 | 80784
2 | 17:57.10 | 1:06.58 | 80785 | 85792
3 | 19:03.68 | 5:15.64 | 85793 | 109481
4 | 24:19.57 | 5:09.60 | 109482 | 132716
5 | 29:29.42 | 4:22.11 | 132717 | 152377


Range status and errors

Selected range

Filename C:\Users\Alex\Desktop\ALLexxess\Donna Summer\2020 Encore (33CD Box Set Driven By The Music)\1976 A Love Trilogy\Donna Summer - A Love Trilogy.wav

Peak level 94.3 %
Extraction speed 6.4 X
Range quality 100.0 %
Test CRC BC51937B
Copy CRC BC51937B
Copy OK

No errors occurred


AccurateRip summary

Track 1 not present in database
Track 2 not present in database
Track 3 not present in database
Track 4 not present in database
Track 5 not present in database

None of the tracks are present in the AccurateRip database

End of status report

–– CUETools DB Plugin V2.1.6

[CTDB TOCID: eKRhXzd7JPBB7gM6ni41.7mlgNw-] found
Submit result: eKRhXzd7JPBB7gM6ni41.7mlgNw- has been confirmed
Track | CTDB Status
1 | (8/8) Accurately ripped
2 | (8/8) Accurately ripped
3 | (8/8) Accurately ripped
4 | (8/8) Accurately ripped
5 | (8/8) Accurately ripped


==== Log checksum 6F08AC645ED800914B0A29C9B2241059AF89B19C72867E6BB9E0FA1193D28A11 ====


Tracklist CD04. 1976 - Four Seasons Of Love:

01 Spring Affair
02 Summer Fever
03 Autumn Changes
04 Winter Melody
05 Spring Reprise

Exact Audio Copy V1.3 from 2. September 2016

EAC extraction logfile from 12. April 2020, 21:12

Donna Summer / Four Seasons Of Love

Used drive : PLEXTOR BD-R PX-B950SA Adapter: 1 ID: 1

Read mode : Secure
Utilize accurate stream : Yes
Defeat audio cache : Yes
Make use of C2 pointers : No

Read offset correction : 6
Overread into Lead-In and Lead-Out : No
Fill up missing offset samples with silence : Yes
Delete leading and trailing silent blocks : No
Null samples used in CRC calculations : Yes
Used interface : Native Win32 interface for Win NT & 2000

Used output format : Internal WAV Routines
Sample format : 44.100 Hz; 16 Bit; Stereo


TOC of the extracted CD

Track | Start | Length | Start sector | End sector
––––––––––––––––––––––––––––-
1 | 0:00.00 | 8:30.50 | 0 | 38299
2 | 8:30.50 | 8:04.40 | 38300 | 74639
3 | 16:35.15 | 5:29.08 | 74640 | 99322
4 | 22:04.23 | 6:28.35 | 99323 | 128457
5 | 28:32.58 | 3:50.30 | 128458 | 145737


Range status and errors

Selected range

Filename C:\Users\Alex\Desktop\ALLexxess\Donna Summer\2020 Encore (33CD Box Set Driven By The Music)\1976 Four Seasons Of Love\Donna Summer - Four Seasons Of Love.wav

Peak level 94.3 %
Extraction speed 6.3 X
Range quality 99.9 %
Test CRC 58CE3F41
Copy CRC 58CE3F41
Copy OK

No errors occurred


AccurateRip summary

Track 1 not present in database
Track 2 not present in database
Track 3 not present in database
Track 4 not present in database
Track 5 not present in database

None of the tracks are present in the AccurateRip database

End of status report

–– CUETools DB Plugin V2.1.6

[CTDB TOCID: 3HyQRien1dWtIs.bYxepGY9VChA-] found
Submit result: 3HyQRien1dWtIs.bYxepGY9VChA- has been confirmed
Track | CTDB Status
1 | (8/8) Accurately ripped
2 | (8/8) Accurately ripped
3 | (8/8) Accurately ripped
4 | (8/8) Accurately ripped
5 | (8/8) Accurately ripped


==== Log checksum E23660CC5CE1539D2AC124DFD38D86405C2A55C9893336FD6AA1F04F36986D57 ====


Tracklist CD05. 1977 - I Remember Yesterday:

01 I Remember Yesterday
02 Love’s Unkind
03 Back In Love Again
04 I Remember Yesterday (Reprise)
05 Black Lady
06 Take Me
07 Can’t We Just Sit Down (And Talk It Over)
08 I Feel Love

Exact Audio Copy V1.3 from 2. September 2016

EAC extraction logfile from 12. April 2020, 20:12

Donna Summer / I Remember Yesterday

Used drive : PLEXTOR BD-R PX-B950SA Adapter: 1 ID: 1

Read mode : Secure
Utilize accurate stream : Yes
Defeat audio cache : Yes
Make use of C2 pointers : No

Read offset correction : 6
Overread into Lead-In and Lead-Out : No
Fill up missing offset samples with silence : Yes
Delete leading and trailing silent blocks : No
Null samples used in CRC calculations : Yes
Used interface : Native Win32 interface for Win NT & 2000

Used output format : Internal WAV Routines
Sample format : 44.100 Hz; 16 Bit; Stereo


TOC of the extracted CD

Track | Start | Length | Start sector | End sector
––––––––––––––––––––––––––––-
1 | 0:00.00 | 4:45.23 | 0 | 21397
2 | 4:45.23 | 4:26.05 | 21398 | 41352
3 | 9:11.28 | 3:55.52 | 41353 | 59029
4 | 13:07.05 | 3:04.30 | 59030 | 72859
5 | 16:11.35 | 3:49.00 | 72860 | 90034
6 | 20:00.35 | 5:03.35 | 90035 | 112794
7 | 25:03.70 | 4:25.55 | 112795 | 132724
8 | 29:29.50 | 5:55.16 | 132725 | 159365


Range status and errors

Selected range

Filename C:\Users\Alex\Desktop\ALLexxess\Donna Summer\2020 Encore (33CD Box Set Driven By The Music)\1977 I Remember Yesterday\Donna Summer - I Remember Yesterday.wav

Peak level 94.3 %
Extraction speed 3.0 X
Range quality 100.0 %
Test CRC 6FDB164F
Copy CRC 6FDB164F
Copy OK

No errors occurred


AccurateRip summary

Track 1 not present in database
Track 2 not present in database
Track 3 not present in database
Track 4 not present in database
Track 5 not present in database
Track 6 not present in database
Track 7 not present in database
Track 8 not present in database

None of the tracks are present in the AccurateRip database

End of status report

–– CUETools DB Plugin V2.1.6

[CTDB TOCID: hJj80RPDD0TD.aJ_kD.3ZD9L1Qg-] found
Submit result: hJj80RPDD0TD.aJ_kD.3ZD9L1Qg- has been confirmed
Track | CTDB Status
1 | (8/8) Accurately ripped
2 | (8/8) Accurately ripped
3 | (8/8) Accurately ripped
4 | (8/8) Accurately ripped
5 | (8/8) Accurately ripped
6 | (8/8) Accurately ripped
7 | (8/8) Accurately ripped
8 | (8/8) Accurately ripped


==== Log checksum 5EDC83B8B6BA8B91B21FC5A73F745CBCA4BA8DCD0CEB43B251798D44057E5C92 ====


Tracklist CD06. 1977 - Once Upon A Time… CD1:

01 Once Upon A Time
02 Faster And Faster To Nowhere
03 Fairy Tale High
04 Say Something Nice
05 Now I Need You
06 Working The Midnight Shift
07 Queen For A Day

Exact Audio Copy V1.3 from 2. September 2016

EAC extraction logfile from 12. April 2020, 10:58

Donna Summer / Once Upon A Time… CD1

Used drive : PLEXTOR BD-R PX-B950SA Adapter: 1 ID: 1

Read mode : Secure
Utilize accurate stream : Yes
Defeat audio cache : Yes
Make use of C2 pointers : No

Read offset correction : 6
Overread into Lead-In and Lead-Out : No
Fill up missing offset samples with silence : Yes
Delete leading and trailing silent blocks : No
Null samples used in CRC calculations : Yes
Used interface : Native Win32 interface for Win NT & 2000

Used output format : Internal WAV Routines
Sample format : 44.100 Hz; 16 Bit; Stereo


TOC of the extracted CD

Track | Start | Length | Start sector | End sector
––––––––––––––––––––––––––––-
1 | 0:00.00 | 4:00.19 | 0 | 18018
2 | 4:00.19 | 3:35.48 | 18019 | 34191
3 | 7:35.67 | 4:24.36 | 34192 | 54027
4 | 12:00.28 | 4:47.32 | 54028 | 75584
5 | 16:47.60 | 6:07.58 | 75585 | 103167
6 | 22:55.43 | 5:07.28 | 103168 | 126220
7 | 28:02.71 | 6:00.25 | 126221 | 153245


Range status and errors

Selected range

Filename C:\Users\Alex\Desktop\ALLexxess\Donna Summer\2020 Encore (33CD Box Set Driven By The Music)\1977 Once Upon A Time… 2CD\CD1\Donna Summer - Once Upon A Time… CD1.wav

Peak level 94.4 %
Extraction speed 6.4 X
Range quality 100.0 %
Test CRC 27E68752
Copy CRC 27E68752
Copy OK

No errors occurred


AccurateRip summary

Track 1 not present in database
Track 2 not present in database
Track 3 not present in database
Track 4 not present in database
Track 5 not present in database
Track 6 not present in database
Track 7 not present in database

None of the tracks are present in the AccurateRip database

End of status report

–– CUETools DB Plugin V2.1.6

[CTDB TOCID: vqilzUtju__rXohhuFU9xnIhrko-] found
Submit result: vqilzUtju__rXohhuFU9xnIhrko- has been confirmed
Track | CTDB Status
1 | (8/8) Accurately ripped
2 | (8/8) Accurately ripped
3 | (8/8) Accurately ripped
4 | (8/8) Accurately ripped
5 | (8/8) Accurately ripped
6 | (8/8) Accurately ripped
7 | (8/8) Accurately ripped


==== Log checksum FBBB898E85F965F17F5E16F63C256D6DCA9ACB4A8B2D81E63BBB8888229D1943 ====


Tracklist CD07. 1977 - Once Upon A Time… CD2:

01 If You Got It Flaunt It
02 A Man Like You
03 Sweet Romance
04 (Theme) Once Upon A Time
05 Dance Into My Life
06 Rumour Has It
07 I Love You
08 Happily Ever After
09 (Theme) Once Upon A Time

Exact Audio Copy V1.3 from 2. September 2016

EAC extraction logfile from 12. April 2020, 10:29

Donna Summer / Once Upon A Time… CD2

Used drive : PLEXTOR BD-R PX-B950SA Adapter: 1 ID: 1

Read mode : Secure
Utilize accurate stream : Yes
Defeat audio cache : Yes
Make use of C2 pointers : No

Read offset correction : 6
Overread into Lead-In and Lead-Out : No
Fill up missing offset samples with silence : Yes
Delete leading and trailing silent blocks : No
Null samples used in CRC calculations : Yes
Used interface : Native Win32 interface for Win NT & 2000

Used output format : Internal WAV Routines
Sample format : 44.100 Hz; 16 Bit; Stereo


TOC of the extracted CD

Track | Start | Length | Start sector | End sector
––––––––––––––––––––––––––––-
1 | 0:00.00 | 4:46.22 | 0 | 21471
2 | 4:46.22 | 3:36.60 | 21472 | 37731
3 | 8:23.07 | 4:30.51 | 37732 | 58032
4 | 12:53.58 | 0:51.45 | 58033 | 61902
5 | 13:45.28 | 4:13.27 | 61903 | 80904
6 | 17:58.55 | 4:54.14 | 80905 | 102968
7 | 22:52.69 | 4:43.11 | 102969 | 124204
8 | 27:36.05 | 3:52.31 | 124205 | 141635
9 | 31:28.36 | 4:00.10 | 141636 | 159645


Range status and errors

Selected range

Filename C:\Users\Alex\Desktop\ALLexxess\Donna Summer\2020 Encore (33CD Box Set Driven By The Music)\1977 Once Upon A Time… 2CD\CD2\Donna Summer - Once Upon A Time… CD2.wav

Peak level 94.3 %
Extraction speed 6.5 X
Range quality 100.0 %
Test CRC 054961B6
Copy CRC 054961B6
Copy OK

No errors occurred


AccurateRip summary

Track 1 not present in database
Track 2 not present in database
Track 3 not present in database
Track 4 not present in database
Track 5 not present in database
Track 6 not present in database
Track 7 not present in database
Track 8 not present in database
Track 9 not present in database

None of the tracks are present in the AccurateRip database

End of status report

–– CUETools DB Plugin V2.1.6

[CTDB TOCID: AapVohhw66OeMQT8.vxJEA1umwM-] found
Submit result: AapVohhw66OeMQT8.vxJEA1umwM- has been confirmed
Track | CTDB Status
1 | (8/8) Accurately ripped
2 | (8/8) Accurately ripped
3 | (8/8) Accurately ripped
4 | (8/8) Accurately ripped
5 | (8/8) Accurately ripped
6 | (8/8) Accurately ripped
7 | (8/8) Accurately ripped
8 | (8/8) Accurately ripped
9 | (8/8) Accurately ripped


==== Log checksum C2FDE53AE9C932512DCB3F575CED2F1C7E80C97CAC1C7CE984746043B720710D ====


Tracklist CD08. 1978 - Live And More CD1:

01 Once Upon A Time
02 Fairy Tale High
03 Faster And Faster To Nowhere
04 Spring Affair
05 Rumour Has It
06 I Love You
07 Only One Man
08 I Remember Yesterday
09 Love’s Unkind
10 My Man Medley:
The Man I Love / I Got It Bad And That Ain’t Good / Some Of These Days
11 The Way We Were
12 Mimi’s Song

Exact Audio Copy V1.3 from 2. September 2016

EAC extraction logfile from 12. April 2020, 10:05

Donna Summer / Live And More CD1

Used drive : PLEXTOR BD-R PX-B950SA Adapter: 1 ID: 1

Read mode : Secure
Utilize accurate stream : Yes
Defeat audio cache : Yes
Make use of C2 pointers : No

Read offset correction : 6
Overread into Lead-In and Lead-Out : No
Fill up missing offset samples with silence : Yes
Delete leading and trailing silent blocks : No
Null samples used in CRC calculations : Yes
Used interface : Native Win32 interface for Win NT & 2000

Used output format : Internal WAV Routines
Sample format : 44.100 Hz; 16 Bit; Stereo


TOC of the extracted CD

Track | Start | Length | Start sector | End sector
––––––––––––––––––––––––––––-
1 | 0:00.00 | 3:03.69 | 0 | 13793
2 | 3:03.69 | 2:20.29 | 13794 | 24322
3 | 5:24.23 | 2:09.49 | 24323 | 34046
4 | 7:33.72 | 2:34.63 | 34047 | 45659
5 | 10:08.60 | 2:34.29 | 45660 | 57238
6 | 12:43.14 | 3:40.31 | 57239 | 73769
7 | 16:23.45 | 2:06.59 | 73770 | 83278
8 | 18:30.29 | 3:53.02 | 83279 | 100755
9 | 22:23.31 | 2:37.53 | 100756 | 112583
10 | 25:01.09 | 6:25.35 | 112584 | 141493
11 | 31:26.44 | 3:22.67 | 141494 | 156710
12 | 34:49.36 | 4:33.64 | 156711 | 177249


Range status and errors

Selected range

Filename C:\Users\Alex\Desktop\ALLexxess\Donna Summer\2020 Encore (33CD Box Set Driven By The Music)\1978 Live And More 2CD\CD1\Donna Summer - Live And More CD1.wav

Peak level 94.6 %
Extraction speed 6.7 X
Range quality 100.0 %
Test CRC 8DB5B440
Copy CRC 8DB5B440
Copy OK

No errors occurred


AccurateRip summary

Track 1 not present in database
Track 2 not present in database
Track 3 not present in database
Track 4 not present in database
Track 5 not present in database
Track 6 not present in database
Track 7 not present in database
Track 8 not present in database
Track 9 not present in database
Track 10 not present in database
Track 11 not present in database
Track 12 not present in database

None of the tracks are present in the AccurateRip database

End of status report

–– CUETools DB Plugin V2.1.6

[CTDB TOCID: 4zX8glYUIn6PQPWVKXWDa0UNnys-] found
Submit result: 4zX8glYUIn6PQPWVKXWDa0UNnys- has been confirmed
Track | CTDB Status
1 | (7/7) Accurately ripped
2 | (7/7) Accurately ripped
3 | (7/7) Accurately ripped
4 | (7/7) Accurately ripped
5 | (7/7) Accurately ripped
6 | (7/7) Accurately ripped
7 | (7/7) Accurately ripped
8 | (7/7) Accurately ripped
9 | (7/7) Accurately ripped
10 | (7/7) Accurately ripped
11 | (7/7) Accurately ripped
12 | (7/7) Accurately ripped


==== Log checksum 1158D1DDFE8DD588989CD498BFA9F1552CB76B7CB08E023D105D7C62DD82F23D ====


Tracklist CD09. 1978 - Live And More CD2:

01 Try Me, I Know We Can Make It
02 Love To Love You Baby
03 Feel Love
04 Last Dance
05 MacArthur Park Suite:
MacArthur Park / One Of A Kind
Heaven Knows (With Brooklyn Dreams) / MacArthur Park (Reprise)

Exact Audio Copy V1.3 from 2. September 2016

EAC extraction logfile from 12. April 2020, 9:40

Donna Summer / Live And More CD2

Used drive : PLEXTOR BD-R PX-B950SA Adapter: 1 ID: 1

Read mode : Secure
Utilize accurate stream : Yes
Defeat audio cache : Yes
Make use of C2 pointers : No

Read offset correction : 6
Overread into Lead-In and Lead-Out : No
Fill up missing offset samples with silence : Yes
Delete leading and trailing silent blocks : No
Null samples used in CRC calculations : Yes
Used interface : Native Win32 interface for Win NT & 2000

Used output format : Internal WAV Routines
Sample format : 44.100 Hz; 16 Bit; Stereo


TOC of the extracted CD

Track | Start | Length | Start sector | End sector
––––––––––––––––––––––––––––-
1 | 0:00.00 | 4:24.45 | 0 | 19844
2 | 4:24.45 | 3:23.45 | 19845 | 35114
3 | 7:48.15 | 6:54.52 | 35115 | 66216
4 | 14:42.67 | 5:53.62 | 66217 | 92753
5 | 20:36.54 | 17:47.39 | 92754 | 172817


Range status and errors

Selected range

Filename C:\Users\Alex\Desktop\ALLexxess\Donna Summer\2020 Encore (33CD Box Set Driven By The Music)\1978 Live And More 2CD\CD2\Donna Summer - Live And More CD2.wav

Peak level 100.0 %
Extraction speed 6.6 X
Range quality 100.0 %
Test CRC 9C03FDA1
Copy CRC 9C03FDA1
Copy OK

No errors occurred


AccurateRip summary

Track 1 not present in database
Track 2 not present in database
Track 3 not present in database
Track 4 not present in database
Track 5 not present in database

None of the tracks are present in the AccurateRip database

End of status report

–– CUETools DB Plugin V2.1.6

[CTDB TOCID: wJXjPStAEHx3YWDHQyIJKAm0HHw-] found
Submit result: wJXjPStAEHx3YWDHQyIJKAm0HHw- has been confirmed
Track | CTDB Status
1 | (7/7) Accurately ripped
2 | (7/7) Accurately ripped
3 | (7/7) Accurately ripped
4 | (7/7) Accurately ripped
5 | (7/7) Accurately ripped


==== Log checksum 1FD4D41F6C9C69B787065EF40D5BD96EEBC65982063CD067C578DCC3317E028F ====


Tracklist CD10. 1979 - Bad Girls CD1:

01 Hot Stuff
02 Bad Girls
03 Love Will Always Find You
04 Walk Away
05 Dim All The Lights
06 Journey To The Centre Of Your Heart
07 One Night In A Lifetime
08 Can’t Get To Sleep At Night

Exact Audio Copy V1.3 from 2. September 2016

EAC extraction logfile from 11. April 2020, 20:53

Donna Summer / Bad Girls CD1

Used drive : PLEXTOR BD-R PX-B950SA Adapter: 1 ID: 1

Read mode : Secure
Utilize accurate stream : Yes
Defeat audio cache : Yes
Make use of C2 pointers : No

Read offset correction : 6
Overread into Lead-In and Lead-Out : No
Fill up missing offset samples with silence : Yes
Delete leading and trailing silent blocks : No
Null samples used in CRC calculations : Yes
Used interface : Native Win32 interface for Win NT & 2000

Used output format : Internal WAV Routines
Sample format : 44.100 Hz; 16 Bit; Stereo


TOC of the extracted CD

Track | Start | Length | Start sector | End sector
––––––––––––––––––––––––––––-
1 | 0:00.00 | 5:15.01 | 0 | 23625
2 | 5:15.01 | 4:55.04 | 23626 | 45754
3 | 10:10.05 | 3:59.02 | 45755 | 63681
4 | 14:09.07 | 4:29.23 | 63682 | 83879
5 | 18:38.30 | 4:40.60 | 83880 | 104939
6 | 23:19.15 | 4:36.51 | 104940 | 125690
7 | 27:55.66 | 4:12.22 | 125691 | 144612
8 | 32:08.13 | 4:41.02 | 144613 | 165689


Range status and errors

Selected range

Filename C:\Users\Alex\Desktop\ALLexxess\Donna Summer\2020 Encore (33CD Box Set Driven By The Music)\1979 Bad Girls 2CD\CD1\Donna Summer - Bad Girls CD1.wav

Peak level 96.0 %
Extraction speed 6.5 X
Range quality 100.0 %
Test CRC 37CD27B7
Copy CRC 37CD27B7
Copy OK

No errors occurred


AccurateRip summary

Track 1 not present in database
Track 2 not present in database
Track 3 not present in database
Track 4 not present in database
Track 5 not present in database
Track 6 not present in database
Track 7 not present in database
Track 8 not present in database

None of the tracks are present in the AccurateRip database

End of status report

–– CUETools DB Plugin V2.1.6

[CTDB TOCID: Ll.nBSNyUjoBuDtcFchqUbyeRjM-] found
Submit result: Ll.nBSNyUjoBuDtcFchqUbyeRjM- has been confirmed
Track | CTDB Status
1 | (8/8) Accurately ripped
2 | (8/8) Accurately ripped
3 | (8/8) Accurately ripped
4 | (8/8) Accurately ripped
5 | (8/8) Accurately ripped
6 | (8/8) Accurately ripped
7 | (8/8) Accurately ripped
8 | (8/8) Accurately ripped


==== Log checksum 1E5B98C4E8CB95474E77C6A3EC75BCFED76641DE998164A98E80CBF7BA549D2B ====


Tracklist CD11. 1979 - Bad Girls CD2:

01 On My Honor
02 There Will Always Be A You
03 All Through The Night
04 My Baby Understands
05 Our Love
06 Lucky
07 Sunset People

Exact Audio Copy V1.3 from 2. September 2016

EAC extraction logfile from 11. April 2020, 20:27

Donna Summer / Bad Girls CD2

Used drive : PLEXTOR BD-R PX-B950SA Adapter: 1 ID: 1

Read mode : Secure
Utilize accurate stream : Yes
Defeat audio cache : Yes
Make use of C2 pointers : No

Read offset correction : 6
Overread into Lead-In and Lead-Out : No
Fill up missing offset samples with silence : Yes
Delete leading and trailing silent blocks : No
Null samples used in CRC calculations : Yes
Used interface : Native Win32 interface for Win NT & 2000

Used output format : Internal WAV Routines
Sample format : 44.100 Hz; 16 Bit; Stereo


TOC of the extracted CD

Track | Start | Length | Start sector | End sector
––––––––––––––––––––––––––––-
1 | 0:00.00 | 3:32.57 | 0 | 15956
2 | 3:32.57 | 5:03.50 | 15957 | 38731
3 | 8:36.32 | 5:58.27 | 38732 | 65608
4 | 14:34.59 | 3:58.43 | 65609 | 83501
5 | 18:33.27 | 4:52.55 | 83502 | 105456
6 | 23:26.07 | 4:37.37 | 105457 | 126268
7 | 28:03.44 | 6:29.70 | 126269 | 155513


Range status and errors

Selected range

Filename C:\Users\Alex\Desktop\ALLexxess\Donna Summer\2020 Encore (33CD Box Set Driven By The Music)\1979 Bad Girls 2CD\CD2\Donna Summer - Bad Girls CD2.wav

Peak level 94.3 %
Extraction speed 6.4 X
Range quality 100.0 %
Test CRC DF99C6F9
Copy CRC DF99C6F9
Copy OK

No errors occurred


AccurateRip summary

Track 1 not present in database
Track 2 not present in database
Track 3 not present in database
Track 4 not present in database
Track 5 not present in database
Track 6 not present in database
Track 7 not present in database

None of the tracks are present in the AccurateRip database

End of status report

–– CUETools DB Plugin V2.1.6

[CTDB TOCID: Z36YiLwhqAOwNrWZXS08dGajIuc-] found
Submit result: Z36YiLwhqAOwNrWZXS08dGajIuc- has been confirmed
Track | CTDB Status
1 | (8/8) Accurately ripped
2 | (8/8) Accurately ripped
3 | (8/8) Accurately ripped
4 | (8/8) Accurately ripped
5 | (8/8) Accurately ripped
6 | (8/8) Accurately ripped
7 | (8/8) Accurately ripped


==== Log checksum 2A1EC231C93507266E6440564C136A0E636E714A91C90AC79806BDD92EBBE123 ====


Tracklist CD12. 1979 - On The Radio CD1:

01 On The Radio (Written And Recorded For The Motion Picture 'Foxes')
02 Love To Love You Baby
03 Try Me, I Know We Can Make It
04 Feel Love
05 Our Love
06 I Remember Yesterday
07 I Love You
08 Heaven Knows
09 Last Dance

Exact Audio Copy V1.3 from 2. September 2016

EAC extraction logfile from 11. April 2020, 12:33

Donna Summer / On The Radio CD1

Used drive : PLEXTOR BD-R PX-B950SA Adapter: 1 ID: 1

Read mode : Secure
Utilize accurate stream : Yes
Defeat audio cache : Yes
Make use of C2 pointers : No

Read offset correction : 6
Overread into Lead-In and Lead-Out : No
Fill up missing offset samples with silence : Yes
Delete leading and trailing silent blocks : No
Null samples used in CRC calculations : Yes
Used interface : Native Win32 interface for Win NT & 2000

Used output format : Internal WAV Routines
Sample format : 44.100 Hz; 16 Bit; Stereo


TOC of the extracted CD

Track | Start | Length | Start sector | End sector
––––––––––––––––––––––––––––-
1 | 0:00.00 | 4:01.38 | 0 | 18112
2 | 4:01.38 | 4:15.10 | 18113 | 37247
3 | 8:16.48 | 3:18.02 | 37248 | 52099
4 | 11:34.50 | 3:22.02 | 52100 | 67251
5 | 14:56.52 | 3:44.41 | 67252 | 84092
6 | 18:41.18 | 4:45.58 | 84093 | 105525
7 | 23:27.01 | 3:11.59 | 105526 | 119909
8 | 26:38.60 | 3:30.69 | 119910 | 135728
9 | 30:09.54 | 4:56.29 | 135729 | 157957


Range status and errors

Selected range

Filename C:\Users\Alex\Desktop\ALLexxess\Donna Summer\2020 Encore (33CD Box Set Driven By The Music)\1979 On The Radio 2CD\CD1\Donna Summer - On The Radio CD1.wav

Peak level 94.3 %
Extraction speed 6.5 X
Range quality 100.0 %
Test CRC AD683CB7
Copy CRC AD683CB7
Copy OK

No errors occurred


AccurateRip summary

Track 1 not present in database
Track 2 not present in database
Track 3 not present in database
Track 4 not present in database
Track 5 not present in database
Track 6 not present in database
Track 7 not present in database
Track 8 not present in database
Track 9 not present in database

None of the tracks are present in the AccurateRip database

End of status report

–– CUETools DB Plugin V2.1.6

[CTDB TOCID: qPUBKGmzknPJVLsjIO.4dFycnFA-] found
Submit result: qPUBKGmzknPJVLsjIO.4dFycnFA- has been confirmed
Track | CTDB Status
1 | (8/8) Accurately ripped
2 | (8/8) Accurately ripped
3 | (8/8) Accurately ripped
4 | (8/8) Accurately ripped
5 | (8/8) Accurately ripped
6 | (8/8) Accurately ripped
7 | (8/8) Accurately ripped
8 | (8/8) Accurately ripped
9 | (7/8) Accurately ripped


==== Log checksum B85F0788F35E324A26294E425D96AC1FC9CF5CB8BAE2DB7D8085E95A995FC6B0 ====


Tracklist CD13. 1979 - On The Radio CD2:

01 MacArthur Park
02 Hot Stuff
03 Bad Girls
04 Dim All The Lights
05 Sunset People
06 No More Tears (Enough Is Enough) / Duet With Barbra Streisand
07 On The Radio (Long Version)

Exact Audio Copy V1.3 from 2. September 2016

EAC extraction logfile from 11. April 2020, 12:05

Donna Summer / On The Radio CD2

Used drive : PLEXTOR BD-R PX-B950SA Adapter: 1 ID: 1

Read mode : Secure
Utilize accurate stream : Yes
Defeat audio cache : Yes
Make use of C2 pointers : No

Read offset correction : 6
Overread into Lead-In and Lead-Out : No
Fill up missing offset samples with silence : Yes
Delete leading and trailing silent blocks : No
Null samples used in CRC calculations : Yes
Used interface : Native Win32 interface for Win NT & 2000

Used output format : Internal WAV Routines
Sample format : 44.100 Hz; 16 Bit; Stereo


TOC of the extracted CD

Track | Start | Length | Start sector | End sector
––––––––––––––––––––––––––––-
1 | 0:00.00 | 3:55.30 | 0 | 17654
2 | 3:55.30 | 2:55.27 | 17655 | 30806
3 | 6:50.57 | 3:05.22 | 30807 | 44703
4 | 9:56.04 | 4:11.06 | 44704 | 63534
5 | 14:07.10 | 4:32.35 | 63535 | 83969
6 | 18:39.45 | 11:42.36 | 83970 | 136655
7 | 30:22.06 | 5:51.65 | 136656 | 163045


Range status and errors

Selected range

Filename C:\Users\Alex\Desktop\ALLexxess\Donna Summer\2020 Encore (33CD Box Set Driven By The Music)\1979 On The Radio 2CD\CD2\Donna Summer - On The Radio CD2.wav

Peak level 94.3 %
Extraction speed 6.4 X
Range quality 99.9 %
Test CRC D44FC893
Copy CRC D44FC893
Copy OK

No errors occurred


AccurateRip summary

Track 1 not present in database
Track 2 not present in database
Track 3 not present in database
Track 4 not present in database
Track 5 not present in database
Track 6 not present in database
Track 7 not present in database

None of the tracks are present in the AccurateRip database

End of status report

–– CUETools DB Plugin V2.1.6

[CTDB TOCID: ZCMDeFNG5.bL9MrnizQck_kdvL4-] found
Submit result: ZCMDeFNG5.bL9MrnizQck_kdvL4- has been confirmed
Track | CTDB Status
1 | (8/8) Accurately ripped
2 | (8/8) Accurately ripped
3 | (8/8) Accurately ripped
4 | (8/8) Accurately ripped
5 | (8/8) Accurately ripped
6 | (8/8) Accurately ripped
7 | (8/8) Accurately ripped


==== Log checksum DB18B29C1721244DD372A35827ABBECB8C12093D9B2AC44F3B9F7349526D4E0A ====


Tracklist CD14. 1980 - The Wanderer:

01 The Wanderer
02 Looking Up
03 Breakdown
04 Grand Illusion
05 Running For Cover
06 Cold Love
07 Who Do You Think You're Foolin'
08 Nightlife
09 Stop Me
10 I Believe In Jesus

Exact Audio Copy V1.3 from 2. September 2016

EAC extraction logfile from 11. April 2020, 11:32

Donna Summer / The Wanderer

Used drive : PLEXTOR BD-R PX-B950SA Adapter: 1 ID: 1

Read mode : Secure
Utilize accurate stream : Yes
Defeat audio cache : Yes
Make use of C2 pointers : No

Read offset correction : 6
Overread into Lead-In and Lead-Out : No
Fill up missing offset samples with silence : Yes
Delete leading and trailing silent blocks : No
Null samples used in CRC calculations : Yes
Used interface : Native Win32 interface for Win NT & 2000

Used output format : Internal WAV Routines
Sample format : 44.100 Hz; 16 Bit; Stereo


TOC of the extracted CD

Track | Start | Length | Start sector | End sector
––––––––––––––––––––––––––––-
1 | 0:00.00 | 3:47.20 | 0 | 17044
2 | 3:47.20 | 3:58.55 | 17045 | 34949
3 | 7:46.00 | 4:09.36 | 34950 | 53660
4 | 11:55.36 | 3:55.16 | 53661 | 71301
5 | 15:50.52 | 4:00.45 | 71302 | 89346
6 | 19:51.22 | 3:40.27 | 89347 | 105873
7 | 23:31.49 | 4:19.32 | 105874 | 125330
8 | 27:51.06 | 3:59.59 | 125331 | 143314
9 | 31:50.65 | 3:45.31 | 143315 | 160220
10 | 35:36.21 | 3:38.71 | 160221 | 176641


Range status and errors

Selected range

Filename C:\Users\Alex\Desktop\ALLexxess\Donna Summer\2020 Encore (33CD Box Set Driven By The Music)\1980 The Wanderer\Donna Summer - The Wanderer.wav

Peak level 94.3 %
Extraction speed 6.6 X
Range quality 99.9 %
Test CRC C2F4D484
Copy CRC C2F4D484
Copy OK

No errors occurred


AccurateRip summary

Track 1 not present in database
Track 2 not present in database
Track 3 not present in database
Track 4 not present in database
Track 5 not present in database
Track 6 not present in database
Track 7 not present in database
Track 8 not present in database
Track 9 not present in database
Track 10 not present in database

None of the tracks are present in the AccurateRip database

End of status report

–– CUETools DB Plugin V2.1.6

[CTDB TOCID: 5sFNmtY1al0QEqg8F3fJ56GYjx8-] found
Submit result: 5sFNmtY1al0QEqg8F3fJ56GYjx8- has been confirmed
Track | CTDB Status
1 | (7/7) Accurately ripped
2 | (7/7) Accurately ripped
3 | (7/7) Accurately ripped
4 | (7/7) Accurately ripped
5 | (7/7) Accurately ripped
6 | (7/7) Accurately ripped
7 | (7/7) Accurately ripped
8 | (7/7) Accurately ripped
9 | (7/7) Accurately ripped
10 | (7/7) Accurately ripped


==== Log checksum 86AF29570E457182831A364FEB1D78B4FE514BEFB8989ABDAB5FA9F2737CC755 ====


Tracklist CD15. 1982 - Donna Summer:

01 Love Is In Control (Finger On The Trigger)
02 Mystery Of Love
03 The Woman In Me
04 State Of Independence
05 Livin' In America
06 Protection
07 (If It) Hurts Just A Little
08 Love Is Just A Breath Away
09 Lush Life

Exact Audio Copy V1.3 from 2. September 2016

EAC extraction logfile from 11. April 2020, 11:07

Donna Summer / Donna Summer

Used drive : PLEXTOR BD-R PX-B950SA Adapter: 1 ID: 1

Read mode : Secure
Utilize accurate stream : Yes
Defeat audio cache : Yes
Make use of C2 pointers : No

Read offset correction : 6
Overread into Lead-In and Lead-Out : No
Fill up missing offset samples with silence : Yes
Delete leading and trailing silent blocks : No
Null samples used in CRC calculations : Yes
Used interface : Native Win32 interface for Win NT & 2000

Used output format : Internal WAV Routines
Sample format : 44.100 Hz; 16 Bit; Stereo


TOC of the extracted CD

Track | Start | Length | Start sector | End sector
––––––––––––––––––––––––––––-
1 | 0:00.00 | 4:21.18 | 0 | 19592
2 | 4:21.18 | 4:27.16 | 19593 | 39633
3 | 8:48.34 | 3:56.25 | 39634 | 57358
4 | 12:44.59 | 5:51.01 | 57359 | 83684
5 | 18:35.60 | 4:43.16 | 83685 | 104925
6 | 23:19.01 | 3:37.40 | 104926 | 121240
7 | 26:56.41 | 3:54.44 | 121241 | 138834
8 | 30:51.10 | 3:54.63 | 138835 | 156447
9 | 34:45.73 | 6:27.53 | 156448 | 185525


Range status and errors

Selected range

Filename C:\Users\Alex\Desktop\ALLexxess\Donna Summer\2020 Encore (33CD Box Set Driven By The Music)\1982 Donna Summer\Donna Summer - Donna Summer.wav

Peak level 99.4 %
Extraction speed 6.8 X
Range quality 100.0 %
Test CRC 092CFB3E
Copy CRC 092CFB3E
Copy OK

No errors occurred


AccurateRip summary

Track 1 not present in database
Track 2 not present in database
Track 3 not present in database
Track 4 not present in database
Track 5 not present in database
Track 6 not present in database
Track 7 not present in database
Track 8 not present in database
Track 9 not present in database

None of the tracks are present in the AccurateRip database

End of status report

–– CUETools DB Plugin V2.1.6

[CTDB TOCID: 7kCekFwl.oTYi.FIOeYfA5YtoUg-] found
Submit result: 7kCekFwl.oTYi.FIOeYfA5YtoUg- has been confirmed
Track | CTDB Status
1 | (7/7) Accurately ripped
2 | (7/7) Accurately ripped
3 | (7/7) Accurately ripped
4 | (7/7) Accurately ripped
5 | (7/7) Accurately ripped
6 | (7/7) Accurately ripped
7 | (7/7) Accurately ripped
8 | (7/7) Accurately ripped
9 | (7/7) Accurately ripped


==== Log checksum 798D8F20F6E1031A73258253FCFD2BFDEF187C0AAAC8F744FB67490AA7166045 ====


Tracklist CD16. 1983 - She Works Hard For The Money:

01 She Works Hard For The Money
02 Stop Look And Listen
03 He's A Rebel
04 Woman
05 Unconditional Love
06 Love Has A Mind Of Its Own
07 Tokyo
08 People, People
09 (I Do Believe) I Fell In Love

Exact Audio Copy V1.3 from 2. September 2016

EAC extraction logfile from 11. April 2020, 10:45

Donna Summer / She Works Hard For The Money

Used drive : PLEXTOR BD-R PX-B950SA Adapter: 1 ID: 1

Read mode : Secure
Utilize accurate stream : Yes
Defeat audio cache : Yes
Make use of C2 pointers : No

Read offset correction : 6
Overread into Lead-In and Lead-Out : No
Fill up missing offset samples with silence : Yes
Delete leading and trailing silent blocks : No
Null samples used in CRC calculations : Yes
Used interface : Native Win32 interface for Win NT & 2000

Used output format : Internal WAV Routines
Sample format : 44.100 Hz; 16 Bit; Stereo


TOC of the extracted CD

Track | Start | Length | Start sector | End sector
––––––––––––––––––––––––––––-
1 | 0:00.00 | 5:19.57 | 0 | 23981
2 | 5:19.57 | 5:53.47 | 23982 | 50503
3 | 11:13.29 | 4:24.28 | 50504 | 70331
4 | 15:37.57 | 4:21.00 | 70332 | 89906
5 | 19:58.57 | 4:44.00 | 89907 | 111206
6 | 24:42.57 | 4:18.12 | 111207 | 130568
7 | 29:00.69 | 4:20.63 | 130569 | 150131
8 | 33:21.57 | 4:08.62 | 150132 | 168793
9 | 37:30.44 | 4:35.11 | 168794 | 189429


Range status and errors

Selected range

Filename C:\Users\Alex\Desktop\ALLexxess\Donna Summer\2020 Encore (33CD Box Set Driven By The Music)\1983 She Works Hard For The Money\Donna Summer - She Works Hard For The Money.wav

Peak level 94.3 %
Extraction speed 6.8 X
Range quality 100.0 %
Test CRC 89B5FD79
Copy CRC 89B5FD79
Copy OK

No errors occurred


AccurateRip summary

Track 1 not present in database
Track 2 not present in database
Track 3 not present in database
Track 4 not present in database
Track 5 not present in database
Track 6 not present in database
Track 7 not present in database
Track 8 not present in database
Track 9 not present in database

None of the tracks are present in the AccurateRip database

End of status report

–– CUETools DB Plugin V2.1.6

[CTDB TOCID: 2aBi63a1SREaPwQn5KjwZhySj3c-] found
Submit result: 2aBi63a1SREaPwQn5KjwZhySj3c- has been confirmed
Track | CTDB Status
1 | (7/7) Accurately ripped
2 | (7/7) Accurately ripped
3 | (7/7) Accurately ripped
4 | (7/7) Accurately ripped
5 | (7/7) Accurately ripped
6 | (7/7) Accurately ripped
7 | (7/7) Accurately ripped
8 | (7/7) Accurately ripped
9 | (7/7) Accurately ripped


==== Log checksum 41E91ABF21B5161BCBD45CF172E4C9302F367E018B6AF4907BF03FA8F1986085 ====


Tracklist CD17. 1984 - Cats Without Claws:

01 Supernatural Love
02 It's Not The Way
03 There Goes My Baby
04 Suzanna
05 Cats Without Claws
06 Oh Billy, Please
07 Eyes
08 Maybe It's Over
09 I'm Free
10 Forgive Me

Exact Audio Copy V1.3 from 2. September 2016

EAC extraction logfile from 11. April 2020, 10:23

Donna Summer / Cats Without Claws

Used drive : PLEXTOR BD-R PX-B950SA Adapter: 1 ID: 1

Read mode : Secure
Utilize accurate stream : Yes
Defeat audio cache : Yes
Make use of C2 pointers : No

Read offset correction : 6
Overread into Lead-In and Lead-Out : No
Fill up missing offset samples with silence : Yes
Delete leading and trailing silent blocks : No
Null samples used in CRC calculations : Yes
Used interface : Native Win32 interface for Win NT & 2000

Used output format : Internal WAV Routines
Sample format : 44.100 Hz; 16 Bit; Stereo


TOC of the extracted CD

Track | Start | Length | Start sector | End sector
––––––––––––––––––––––––––––-
1 | 0:00.00 | 3:34.62 | 0 | 16111
2 | 3:34.62 | 4:24.54 | 16112 | 35965
3 | 7:59.41 | 4:07.71 | 35966 | 54561
4 | 12:07.37 | 4:30.65 | 54562 | 74876
5 | 16:38.27 | 4:24.35 | 74877 | 94711
6 | 21:02.62 | 4:56.56 | 94712 | 116967
7 | 25:59.43 | 4:47.04 | 116968 | 138496
8 | 30:46.47 | 4:44.27 | 138497 | 159823
9 | 35:30.74 | 4:29.65 | 159824 | 180063
10 | 40:00.64 | 4:30.24 | 180064 | 200337


Range status and errors

Selected range

Filename C:\Users\Alex\Desktop\ALLexxess\Donna Summer\2020 Encore (33CD Box Set Driven By The Music)\1984 Cats Without Claws\Donna Summer - Cats Without Claws.wav

Peak level 100.0 %
Extraction speed 6.9 X
Range quality 100.0 %
Test CRC 65DD95A3
Copy CRC 65DD95A3
Copy OK

No errors occurred


AccurateRip summary

Track 1 not present in database
Track 2 not present in database
Track 3 not present in database
Track 4 not present in database
Track 5 not present in database
Track 6 not present in database
Track 7 not present in database
Track 8 not present in database
Track 9 not present in database
Track 10 not present in database

None of the tracks are present in the AccurateRip database

End of status report

–– CUETools DB Plugin V2.1.6

[CTDB TOCID: r6740tD.QPX3w7nqQBCnEBqHW4I-] found
Submit result: r6740tD.QPX3w7nqQBCnEBqHW4I- has been confirmed
Track | CTDB Status
1 | (6/6) Accurately ripped
2 | (6/6) Accurately ripped
3 | (6/6) Accurately ripped
4 | (6/6) Accurately ripped
5 | (6/6) Accurately ripped
6 | (6/6) Accurately ripped
7 | (6/6) Accurately ripped
8 | (6/6) Accurately ripped
9 | (6/6) Accurately ripped
10 | (6/6) Accurately ripped


==== Log checksum AF19FFA1891F4B547D9CBADC84CF7236B6E67D45ED503FC7AC75DC2DFE576478 ====


Tracklist CD18. 1987 - All Systems Go:

01 All Systems Go
02 Bad Reputation
03 Love Shock
04 Jeremy
05 Only The Fool Survives / Duet With Mickey Thomas
06 Dinner With Gershwin
07 Fascination
08 Voices Cryin' Out
09 Thinkin' Bout My Baby

Exact Audio Copy V1.3 from 2. September 2016

EAC extraction logfile from 11. April 2020, 9:56

Donna Summer / All Systems Go

Used drive : PLEXTOR BD-R PX-B950SA Adapter: 1 ID: 1

Read mode : Secure
Utilize accurate stream : Yes
Defeat audio cache : Yes
Make use of C2 pointers : No

Read offset correction : 6
Overread into Lead-In and Lead-Out : No
Fill up missing offset samples with silence : Yes
Delete leading and trailing silent blocks : No
Null samples used in CRC calculations : Yes
Used interface : Native Win32 interface for Win NT & 2000

Used output format : Internal WAV Routines
Sample format : 44.100 Hz; 16 Bit; Stereo


TOC of the extracted CD

Track | Start | Length | Start sector | End sector
––––––––––––––––––––––––––––-
1 | 0:00.00 | 4:13.10 | 0 | 18984
2 | 4:13.10 | 4:15.63 | 18985 | 38172
3 | 8:28.73 | 4:17.48 | 38173 | 57495
4 | 12:46.46 | 4:41.02 | 57496 | 78572
5 | 17:27.48 | 4:42.50 | 78573 | 99772
6 | 22:10.23 | 4:39.05 | 99773 | 120702
7 | 26:49.28 | 4:31.25 | 120703 | 141052
8 | 31:20.53 | 5:21.64 | 141053 | 165191
9 | 36:42.42 | 6:21.07 | 165192 | 193773


Range status and errors

Selected range

Filename C:\Users\Alex\Desktop\ALLexxess\Donna Summer\2020 Encore (33CD Box Set Driven By The Music)\1987 All Systems Go\Donna Summer - All Systems Go.wav

Peak level 100.0 %
Extraction speed 6.8 X
Range quality 100.0 %
Test CRC DB9937F2
Copy CRC DB9937F2
Copy OK

No errors occurred


AccurateRip summary

Track 1 not present in database
Track 2 not present in database
Track 3 not present in database
Track 4 not present in database
Track 5 not present in database
Track 6 not present in database
Track 7 not present in database
Track 8 not present in database
Track 9 not present in database

None of the tracks are present in the AccurateRip database

End of status report

–– CUETools DB Plugin V2.1.6

[CTDB TOCID: wxT6aI418avU8.rTV5Vng.f1xVA-] found
Submit result: wxT6aI418avU8.rTV5Vng.f1xVA- has been confirmed
Track | CTDB Status
1 | (7/7) Accurately ripped
2 | (7/7) Accurately ripped
3 | (7/7) Accurately ripped
4 | (7/7) Accurately ripped
5 | (7/7) Accurately ripped
6 | (7/7) Accurately ripped
7 | (7/7) Accurately ripped
8 | (7/7) Accurately ripped
9 | (7/7) Accurately ripped


==== Log checksum 14567506B01EB909DB067EFD3314F6043D3FE2650CDB0495E148F609FB6EB802 ====


Tracklist CD19. 1989 - Another Place And Time:

01 I Don't Wanna Get Hurt
02 When Love Takes Over You
03 This Time I Know It's For Real
04 The Only One
05 In Another Place And Time
06 Sentimental
07 Whatever Your Heart Desires
08 Breakaway
09 If It Makes You Feel Good
10 Love's About To Change My Heart

Exact Audio Copy V1.3 from 2. September 2016

EAC extraction logfile from 11. April 2020, 9:30

Donna Summer / Another Place And Time

Used drive : PLEXTOR BD-R PX-B950SA Adapter: 1 ID: 1

Read mode : Secure
Utilize accurate stream : Yes
Defeat audio cache : Yes
Make use of C2 pointers : No

Read offset correction : 6
Overread into Lead-In and Lead-Out : No
Fill up missing offset samples with silence : Yes
Delete leading and trailing silent blocks : No
Null samples used in CRC calculations : Yes
Used interface : Native Win32 interface for Win NT & 2000

Used output format : Internal WAV Routines
Sample format : 44.100 Hz; 16 Bit; Stereo


TOC of the extracted CD

Track | Start | Length | Start sector | End sector
––––––––––––––––––––––––––––-
1 | 0:00.00 | 3:28.50 | 0 | 15649
2 | 3:28.50 | 4:14.06 | 15650 | 34705
3 | 7:42.56 | 3:38.53 | 34706 | 51108
4 | 11:21.34 | 3:55.55 | 51109 | 68788
5 | 15:17.14 | 3:22.42 | 68789 | 83980
6 | 18:39.56 | 3:11.24 | 83981 | 98329
7 | 21:51.05 | 3:53.26 | 98330 | 115830
8 | 25:44.31 | 4:03.66 | 115831 | 134121
9 | 29:48.22 | 3:46.32 | 134122 | 151103
10 | 33:34.54 | 4:04.14 | 151104 | 169417


Range status and errors

Selected range

Filename C:\Users\Alex\Desktop\ALLexxess\Donna Summer\2020 Encore (33CD Box Set Driven By The Music)\1989 Another Place And Time\Donna Summer - Another Place And Time.wav

Peak level 94.3 %
Extraction speed 6.4 X
Range quality 99.9 %
Test CRC 85F0CF0C
Copy CRC 85F0CF0C
Copy OK

No errors occurred


AccurateRip summary

Track 1 not present in database
Track 2 not present in database
Track 3 not present in database
Track 4 not present in database
Track 5 not present in database
Track 6 not present in database
Track 7 not present in database
Track 8 not present in database
Track 9 not present in database
Track 10 not present in database

None of the tracks are present in the AccurateRip database

End of status report

–– CUETools DB Plugin V2.1.6

[CTDB TOCID: 9WPUxxP1GicD6Jj_294Wrzk9DY4-] found
Submit result: 9WPUxxP1GicD6Jj_294Wrzk9DY4- has been confirmed
Track | CTDB Status
1 | (7/7) Accurately ripped
2 | (7/7) Accurately ripped
3 | (7/7) Accurately ripped
4 | (7/7) Accurately ripped
5 | (7/7) Accurately ripped
6 | (7/7) Accurately ripped
7 | (7/7) Accurately ripped
8 | (7/7) Accurately ripped
9 | (7/7) Accurately ripped
10 | (7/7) Accurately ripped


==== Log checksum 9C20B8FA80FE60FC3BAD3CA1248292BC9FC27D0E57A61028F81D0B99CDDAC9B9 ====


Tracklist CD20. 1991 - Mistaken Identity:

01 Get Ethnic
02 Body Talk
03 Work That Magic
04 When Love Cries
05 Heaven's Just A Whisper Away
06 Cry Of A Waking Heart
07 Friends Unknown
08 Fred Astaire
09 Say A Little Prayer
10 Mistaken Identity
11 What Is It You Want
12 Let There Be Peace

Exact Audio Copy V1.3 from 2. September 2016

EAC extraction logfile from 11. April 2020, 9:04

Donna Summer / Mistaken Identity

Used drive : PLEXTOR BD-R PX-B950SA Adapter: 1 ID: 1

Read mode : Secure
Utilize accurate stream : Yes
Defeat audio cache : Yes
Make use of C2 pointers : No

Read offset correction : 6
Overread into Lead-In and Lead-Out : No
Fill up missing offset samples with silence : Yes
Delete leading and trailing silent blocks : No
Null samples used in CRC calculations : Yes
Used interface : Native Win32 interface for Win NT & 2000

Used output format : Internal WAV Routines
Sample format : 44.100 Hz; 16 Bit; Stereo


TOC of the extracted CD

Track | Start | Length | Start sector | End sector
––––––––––––––––––––––––––––-
1 | 0:00.00 | 5:23.04 | 0 | 24228
2 | 5:23.04 | 5:01.17 | 24229 | 46820
3 | 10:24.21 | 4:59.38 | 46821 | 69283
4 | 15:23.59 | 5:16.67 | 69284 | 93050
5 | 20:40.51 | 4:08.49 | 93051 | 111699
6 | 24:49.25 | 4:37.67 | 111700 | 132541
7 | 29:27.17 | 3:45.45 | 132542 | 149461
8 | 33:12.62 | 4:41.58 | 149462 | 170594
9 | 37:54.45 | 4:09.33 | 170595 | 189302
10 | 42:04.03 | 4:10.42 | 189303 | 208094
11 | 46:14.45 | 4:42.71 | 208095 | 229315
12 | 50:57.41 | 4:00.06 | 229316 | 247321


Range status and errors

Selected range

Filename C:\Users\Alex\Desktop\ALLexxess\Donna Summer\2020 Encore (33CD Box Set Driven By The Music)\1991 Mistaken Identity\Donna Summer - Mistaken Identity.wav

Peak level 94.3 %
Extraction speed 7.2 X
Range quality 100.0 %
Test CRC 4EA26F46
Copy CRC 4EA26F46
Copy OK

No errors occurred


AccurateRip summary

Track 1 not present in database
Track 2 not present in database
Track 3 not present in database
Track 4 not present in database
Track 5 not present in database
Track 6 not present in database
Track 7 not present in database
Track 8 not present in database
Track 9 not present in database
Track 10 not present in database
Track 11 not present in database
Track 12 not present in database

None of the tracks are present in the AccurateRip database

End of status report

–– CUETools DB Plugin V2.1.6

[CTDB TOCID: emvew0IbWfkA2jEVdWzwvCZSgeQ-] found
Submit result: emvew0IbWfkA2jEVdWzwvCZSgeQ- has been confirmed
Track | CTDB Status
1 | (6/6) Accurately ripped
2 | (6/6) Accurately ripped
3 | (6/6) Accurately ripped
4 | (6/6) Accurately ripped
5 | (6/6) Accurately ripped
6 | (6/6) Accurately ripped
7 | (6/6) Accurately ripped
8 | (6/6) Accurately ripped
9 | (6/6) Accurately ripped
10 | (6/6) Accurately ripped
11 | (6/6) Accurately ripped
12 | (6/6) Accurately ripped


==== Log checksum E4B53C22B67F42D001B0C23716E1055A50AFB1CFE9EAABD5C6DD78C753B7294B ====


Tracklist CD21. 1994 - Christmas Spirit:

01 White Christmas
02 The Christmas Song
03 O Come All Ye Faithful
04 Christmas Is Here
05 Christmas Medley:
What Child Is This / Do You Hear What I Hear / Joy To The World
06 I'll Be Home For Christmas
07 Christmas Spirit
08 Breath Of Heaven
09 O Holy Night
10 Lamb Of God

Exact Audio Copy V1.3 from 2. September 2016

EAC extraction logfile from 10. April 2020, 20:24

Donna Summer / Christmas Spirit

Used drive : PLEXTOR BD-R PX-B950SA Adapter: 1 ID: 1

Read mode : Secure
Utilize accurate stream : Yes
Defeat audio cache : Yes
Make use of C2 pointers : No

Read offset correction : 6
Overread into Lead-In and Lead-Out : No
Fill up missing offset samples with silence : Yes
Delete leading and trailing silent blocks : No
Null samples used in CRC calculations : Yes
Used interface : Native Win32 interface for Win NT & 2000

Used output format : Internal WAV Routines
Sample format : 44.100 Hz; 16 Bit; Stereo


TOC of the extracted CD

Track | Start | Length | Start sector | End sector
––––––––––––––––––––––––––––-
1 | 0:00.00 | 2:56.03 | 0 | 13202
2 | 2:56.03 | 4:11.55 | 13203 | 32082
3 | 7:07.58 | 4:41.55 | 32083 | 53212
4 | 11:49.38 | 3:23.42 | 53213 | 68479
5 | 15:13.05 | 5:17.60 | 68480 | 92314
6 | 20:30.65 | 3:31.13 | 92315 | 108152
7 | 24:02.03 | 4:34.55 | 108153 | 128757
8 | 28:36.58 | 6:13.37 | 128758 | 156769
9 | 34:50.20 | 4:00.33 | 156770 | 174802
10 | 38:50.53 | 7:24.63 | 174803 | 208165


Range status and errors

Selected range

Filename C:\Users\Alex\Desktop\ALLexxess\Donna Summer\2020 Encore (33CD Box Set Driven By The Music)\1994 Christmas Spirit\Donna Summer - Christmas Spirit.wav

Peak level 94.3 %
Extraction speed 6.8 X
Range quality 99.9 %
Test CRC 9ADFE2E9
Copy CRC 9ADFE2E9
Copy OK

No errors occurred


AccurateRip summary

Track 1 not present in database
Track 2 not present in database
Track 3 not present in database
Track 4 not present in database
Track 5 not present in database
Track 6 not present in database
Track 7 not present in database
Track 8 not present in database
Track 9 not present in database
Track 10 not present in database

None of the tracks are present in the AccurateRip database

End of status report

–– CUETools DB Plugin V2.1.6

[CTDB TOCID: rKbx81ma.eusvZY5dg51ublyia8-] found
Submit result: rKbx81ma.eusvZY5dg51ublyia8- has been confirmed
Track | CTDB Status
1 | (5/5) Accurately ripped
2 | (5/5) Accurately ripped
3 | (5/5) Accurately ripped
4 | (5/5) Accurately ripped
5 | (5/5) Accurately ripped
6 | (5/5) Accurately ripped
7 | (5/5) Accurately ripped
8 | (5/5) Accurately ripped
9 | (5/5) Accurately ripped
10 | (5/5) Accurately ripped


==== Log checksum 52AB8A7A0CE516D29F8B7C2F2EE3E2F05D27B57F3AC3F873C59867F276DE8D79 ====


Tracklist CD22. 1996 - I'm A Rainbow CD1:

01 I Believe (In You) / Duet With Joe 'Bean' Esposito
02 True Love Survives
03 You To Me
04 Sweet Emotion
05 Leave Me Alone
06 Melanie
07 Back Where You Belong
08 People Talk
09 To Turn The Stone

Exact Audio Copy V1.3 from 2. September 2016

EAC extraction logfile from 10. April 2020, 19:55

Donna Summer / I'm A Rainbow CD1

Used drive : PLEXTOR BD-R PX-B950SA Adapter: 1 ID: 1

Read mode : Secure
Utilize accurate stream : Yes
Defeat audio cache : Yes
Make use of C2 pointers : No

Read offset correction : 6
Overread into Lead-In and Lead-Out : No
Fill up missing offset samples with silence : Yes
Delete leading and trailing silent blocks : No
Null samples used in CRC calculations : Yes
Used interface : Native Win32 interface for Win NT & 2000

Used output format : Internal WAV Routines
Sample format : 44.100 Hz; 16 Bit; Stereo


TOC of the extracted CD

Track | Start | Length | Start sector | End sector
––––––––––––––––––––––––––––-
1 | 0:00.00 | 4:31.50 | 0 | 20374
2 | 4:31.50 | 3:37.11 | 20375 | 36660
3 | 8:08.61 | 4:40.19 | 36661 | 57679
4 | 12:49.05 | 3:45.17 | 57680 | 74571
5 | 16:34.22 | 4:04.63 | 74572 | 92934
6 | 20:39.10 | 3:38.58 | 92935 | 109342
7 | 24:17.68 | 3:53.11 | 109343 | 126828
8 | 28:11.04 | 4:15.56 | 126829 | 146009
9 | 32:26.60 | 4:21.25 | 146010 | 165609


Range status and errors

Selected range

Filename C:\Users\Alex\Desktop\ALLexxess\Donna Summer\2020 Encore (33CD Box Set Driven By The Music)\1996 I'm A Rainbow 2CD\CD1\Donna Summer - I'm A Rainbow CD1.wav

Peak level 91.1 %
Extraction speed 6.5 X
Range quality 99.9 %
Test CRC D24940DF
Copy CRC D24940DF
Copy OK

No errors occurred


AccurateRip summary

Track 1 not present in database
Track 2 not present in database
Track 3 not present in database
Track 4 not present in database
Track 5 not present in database
Track 6 not present in database
Track 7 not present in database
Track 8 not present in database
Track 9 not present in database

None of the tracks are present in the AccurateRip database

End of status report

–– CUETools DB Plugin V2.1.6

[CTDB TOCID: SoxbY1jWW9K4aoYp3M1zs0WOW54-] found
Submit result: SoxbY1jWW9K4aoYp3M1zs0WOW54- has been confirmed
Track | CTDB Status
1 | (7/7) Accurately ripped
2 | (7/7) Accurately ripped
3 | (7/7) Accurately ripped
4 | (7/7) Accurately ripped
5 | (7/7) Accurately ripped
6 | (7/7) Accurately ripped
7 | (7/7) Accurately ripped
8 | (7/7) Accurately ripped
9 | (7/7) Accurately ripped


==== Log checksum CC163715A51A4B805F40DFC55889F1FD4F09DFF48D5A74CFA554C942DACEDECC ====


Tracklist CD23. 1996 - I'm A Rainbow CD2:

01 Brooklyn
02 I'm A Rainbow
03 Donna Walk On (Keep On Movin')
04 Don't Cry For Me Argentina
05 A Runner With The Pack
06 Highway Runner
07 Romeo
08 End Of The Week
09 I Need Time

Exact Audio Copy V1.3 from 2. September 2016

EAC extraction logfile from 10. April 2020, 19:30

Donna Summer / I'm A Rainbow CD2

Used drive : PLEXTOR BD-R PX-B950SA Adapter: 1 ID: 1

Read mode : Secure
Utilize accurate stream : Yes
Defeat audio cache : Yes
Make use of C2 pointers : No

Read offset correction : 6
Overread into Lead-In and Lead-Out : No
Fill up missing offset samples with silence : Yes
Delete leading and trailing silent blocks : No
Null samples used in CRC calculations : Yes
Used interface : Native Win32 interface for Win NT & 2000

Used output format : Internal WAV Routines
Sample format : 44.100 Hz; 16 Bit; Stereo


TOC of the extracted CD

Track | Start | Length | Start sector | End sector
––––––––––––––––––––––––––––-
1 | 0:00.00 | 4:35.56 | 0 | 20680
2 | 4:35.56 | 4:05.57 | 20681 | 39112
3 | 8:41.38 | 3:50.52 | 39113 | 56414
4 | 12:32.15 | 4:28.08 | 56415 | 76522
5 | 17:00.23 | 4:07.55 | 76523 | 95102
6 | 21:08.03 | 3:28.17 | 95103 | 110719
7 | 24:36.20 | 3:18.68 | 110720 | 125637
8 | 27:55.13 | 3:39.11 | 125638 | 142073
9 | 31:34.24 | 4:25.25 | 142074 | 161973


Range status and errors

Selected range

Filename C:\Users\Alex\Desktop\ALLexxess\Donna Summer\2020 Encore (33CD Box Set Driven By The Music)\1996 I'm A Rainbow 2CD\CD2\Donna Summer - I'm A Rainbow CD2.wav

Peak level 94.3 %
Extraction speed 6.4 X
Range quality 99.9 %
Test CRC FFA4C0C9
Copy CRC FFA4C0C9
Copy OK

No errors occurred


AccurateRip summary

Track 1 not present in database
Track 2 not present in database
Track 3 not present in database
Track 4 not present in database
Track 5 not present in database
Track 6 not present in database
Track 7 not present in database
Track 8 not present in database
Track 9 not present in database

None of the tracks are present in the AccurateRip database

End of status report

–– CUETools DB Plugin V2.1.6

[CTDB TOCID: M7Vjpx9eSLjowmN5tF.qgnIBe90-] found
Submit result: M7Vjpx9eSLjowmN5tF.qgnIBe90- has been confirmed
Track | CTDB Status
1 | (7/7) Accurately ripped
2 | (7/7) Accurately ripped
3 | (7/7) Accurately ripped
4 | (7/7) Accurately ripped
5 | (7/7) Accurately ripped
6 | (7/7) Accurately ripped
7 | (7/7) Accurately ripped
8 | (7/7) Accurately ripped
9 | (7/7) Accurately ripped


==== Log checksum 0C5C8AD39465847E9A95C12D39D804776596FC6090D0FB071E912EA004FC7ED5 ====


Tracklist CD24. 1999 - VH1 Presents Live & More Encore!:

01 MacArthur Park
02 This Time I Know It's For Real
03 I Feel Love
04 On The Radio
05 No More Tears (Enough Is Enough) / With Tina Arena
06 Dim All The Lights
07 She Works Hard For The Money
08 Bad Girls
09 Hot Stuff
10 My Life
11 Last Dance
12 Love Is The Healer (Album Version)
13 I Will Go WIth You (Con Te Partiró) (Radio Edit)

Exact Audio Copy V1.3 from 2. September 2016

EAC extraction logfile from 10. April 2020, 19:04

Donna Summer / VH1 Presents Live & More Encore!

Used drive : PLEXTOR BD-R PX-B950SA Adapter: 1 ID: 1

Read mode : Secure
Utilize accurate stream : Yes
Defeat audio cache : Yes
Make use of C2 pointers : No

Read offset correction : 6
Overread into Lead-In and Lead-Out : No
Fill up missing offset samples with silence : Yes
Delete leading and trailing silent blocks : No
Null samples used in CRC calculations : Yes
Used interface : Native Win32 interface for Win NT & 2000

Used output format : Internal WAV Routines
Sample format : 44.100 Hz; 16 Bit; Stereo


TOC of the extracted CD

Track | Start | Length | Start sector | End sector
––––––––––––––––––––––––––––-
1 | 0:00.00 | 6:38.22 | 0 | 29871
2 | 6:38.22 | 3:11.40 | 29872 | 44236
3 | 9:49.62 | 3:50.35 | 44237 | 61521
4 | 13:40.22 | 4:29.03 | 61522 | 81699
5 | 18:09.25 | 4:21.05 | 81700 | 101279
6 | 22:30.30 | 6:02.37 | 101280 | 128466
7 | 28:32.67 | 4:34.07 | 128467 | 149023
8 | 33:06.74 | 3:03.11 | 149024 | 162759
9 | 36:10.10 | 4:18.70 | 162760 | 182179
10 | 40:29.05 | 5:57.60 | 182180 | 209014
11 | 46:26.65 | 7:07.57 | 209015 | 241096
12 | 53:34.47 | 3:22.50 | 241097 | 256296
13 | 56:57.22 | 4:07.72 | 256297 | 274893


Range status and errors

Selected range

Filename C:\Users\Alex\Desktop\ALLexxess\Donna Summer\2020 Encore (33CD Box Set Driven By The Music)\1999 VH1 Presents Live & More Encore!\Donna Summer - VH1 Presents Live & More Encore!.wav

Peak level 97.7 %
Extraction speed 7.6 X
Range quality 100.0 %
Test CRC B65BFDA1
Copy CRC B65BFDA1
Copy OK

No errors occurred


AccurateRip summary

Track 1 not present in database
Track 2 not present in database
Track 3 not present in database
Track 4 not present in database
Track 5 not present in database
Track 6 not present in database
Track 7 not present in database
Track 8 not present in database
Track 9 not present in database
Track 10 not present in database
Track 11 not present in database
Track 12 not present in database
Track 13 not present in database

None of the tracks are present in the AccurateRip database

End of status report

–– CUETools DB Plugin V2.1.6

[CTDB TOCID: QBLTGQGNljUawuhK33lR.D4skDw-] found
Submit result: QBLTGQGNljUawuhK33lR.D4skDw- has been confirmed
Track | CTDB Status
1 | (6/6) Accurately ripped
2 | (6/6) Accurately ripped
3 | (6/6) Accurately ripped
4 | (6/6) Accurately ripped
5 | (6/6) Accurately ripped
6 | (6/6) Accurately ripped
7 | (6/6) Accurately ripped
8 | (6/6) Accurately ripped
9 | (6/6) Accurately ripped
10 | (6/6) Accurately ripped
11 | (6/6) Accurately ripped
12 | (6/6) Accurately ripped
13 | (5/6) Accurately ripped


==== Log checksum 062A0CB07BF9E3DE8347C27CEC17C060AF75E851BA0337B4A5C7B080E1A423AF ====


Tracklist CD25. 2008 - Crayons:

01 Stamp Your Feet
02 Mr. Music
03 Crayons / Featuring Ziggy Marley
04 The Queen Is Back
05 Fame (The Game)
06 Sand On My Feet
07 Drivin' Down Brazil
08 I'm A Fire
09 Slide Over Backwards
10 Science Of Love
11 Be Myself Again
12 Bring Down The Reign
13 It's Only Love

Exact Audio Copy V1.3 from 2. September 2016

EAC extraction logfile from 10. April 2020, 18:33

Donna Summer / Crayons

Used drive : PLEXTOR BD-R PX-B950SA Adapter: 1 ID: 1

Read mode : Secure
Utilize accurate stream : Yes
Defeat audio cache : Yes
Make use of C2 pointers : No

Read offset correction : 6
Overread into Lead-In and Lead-Out : No
Fill up missing offset samples with silence : Yes
Delete leading and trailing silent blocks : No
Null samples used in CRC calculations : Yes
Used interface : Native Win32 interface for Win NT & 2000

Used output format : Internal WAV Routines
Sample format : 44.100 Hz; 16 Bit; Stereo


TOC of the extracted CD

Track | Start | Length | Start sector | End sector
––––––––––––––––––––––––––––-
1 | 0:00.00 | 3:37.53 | 0 | 16327
2 | 3:37.53 | 3:14.23 | 16328 | 30900
3 | 6:52.01 | 3:20.65 | 30901 | 45965
4 | 10:12.66 | 3:30.34 | 45966 | 61749
5 | 13:43.25 | 4:03.41 | 61750 | 80015
6 | 17:46.66 | 3:51.34 | 80016 | 97374
7 | 21:38.25 | 4:43.00 | 97375 | 118599
8 | 26:21.25 | 7:10.61 | 118600 | 150910
9 | 33:32.11 | 4:10.74 | 150911 | 169734
10 | 37:43.10 | 3:48.23 | 169735 | 186857
11 | 41:31.33 | 4:19.40 | 186858 | 206322
12 | 45:50.73 | 4:33.74 | 206323 | 226871
13 | 50:24.72 | 6:58.52 | 226872 | 258273


Range status and errors

Selected range

Filename C:\Users\Alex\Desktop\ALLexxess\Donna Summer\2020 Encore (33CD Box Set Driven By The Music)\2008 Crayons\Donna Summer - Crayons.wav

Peak level 94.3 %
Extraction speed 7.4 X
Range quality 100.0 %
Test CRC 2761652F
Copy CRC 2761652F
Copy OK

No errors occurred


AccurateRip summary

Track 1 not present in database
Track 2 not present in database
Track 3 not present in database
Track 4 not present in database
Track 5 not present in database
Track 6 not present in database
Track 7 not present in database
Track 8 not present in database
Track 9 not present in database
Track 10 not present in database
Track 11 not present in database
Track 12 not present in database
Track 13 not present in database

None of the tracks are present in the AccurateRip database

End of status report

–– CUETools DB Plugin V2.1.6

[CTDB TOCID: eEt.uHjZDGvp11RelMWLAYZ1s7Y-] found
Submit result: eEt.uHjZDGvp11RelMWLAYZ1s7Y- has been confirmed
Track | CTDB Status
1 | (8/8) Accurately ripped
2 | (8/8) Accurately ripped
3 | (8/8) Accurately ripped
4 | (8/8) Accurately ripped
5 | (8/8) Accurately ripped
6 | (8/8) Accurately ripped
7 | (8/8) Accurately ripped
8 | (8/8) Accurately ripped
9 | (8/8) Accurately ripped
10 | (8/8) Accurately ripped
11 | (8/8) Accurately ripped
12 | (8/8) Accurately ripped
13 | (8/8) Accurately ripped


==== Log checksum 842D43CAFDF94E2C91AD42173E179366E50F8094583A0AFD8FA1B63B9513E055 ====


Tracklist CD26. 2020 - 7'' Single Versions CD1:

01 Denver Dream
02 Something's In The Wind
03 Love To Love You Baby (Single Edit)
04 Winter Melody (Single Version)
05 I Feel Love (Edit)
06 Theme From 'The Deep' (Down, Deep Inside) (Album Version)
07 Rumour Has It (Single Version)
08 I Love You (Single Version)
09 Once Upon A Time (7'' Single Version)
10 Heaven Knows / With Brooklyn Dreams
11 MacArthur Park (Single Version)
12 Hot Stuff (Single Version)
13 Bad Girls (Single Version / Edited)
14 Dim All The Lights (7'' Single Version)
15 Walk Away (Single Version)
16 Sunset People
17 Who Do You Think You're Foolin' (Edit)
18 Cold Love (Edit)
19 Love Is In Control (Finger On The Trigger) (7'' Version)
20 State Of Independence (7'' Version)

Exact Audio Copy V1.3 from 2. September 2016

EAC extraction logfile from 10. April 2020, 17:57

Donna Summer / 7'' Single Versions CD1

Used drive : PLEXTOR BD-R PX-B950SA Adapter: 1 ID: 1

Read mode : Secure
Utilize accurate stream : Yes
Defeat audio cache : Yes
Make use of C2 pointers : No

Read offset correction : 6
Overread into Lead-In and Lead-Out : No
Fill up missing offset samples with silence : Yes
Delete leading and trailing silent blocks : No
Null samples used in CRC calculations : Yes
Used interface : Native Win32 interface for Win NT & 2000

Used output format : Internal WAV Routines
Sample format : 44.100 Hz; 16 Bit; Stereo


TOC of the extracted CD

Track | Start | Length | Start sector | End sector
––––––––––––––––––––––––––––-
1 | 0:00.00 | 3:29.10 | 0 | 15684
2 | 3:29.10 | 3:24.23 | 15685 | 31007
3 | 6:53.33 | 3:23.05 | 31008 | 46237
4 | 10:16.38 | 4:03.48 | 46238 | 64510
5 | 14:20.11 | 3:48.08 | 64511 | 81618
6 | 18:08.19 | 4:24.23 | 81619 | 101441
7 | 22:32.42 | 3:51.40 | 101442 | 118806
8 | 26:24.07 | 3:20.61 | 118807 | 133867
9 | 29:44.68 | 4:17.35 | 133868 | 153177
10 | 34:02.28 | 3:39.55 | 153178 | 169657
11 | 37:42.08 | 3:57.31 | 169658 | 187463
12 | 41:39.39 | 3:49.10 | 187464 | 204648
13 | 45:28.49 | 3:53.72 | 204649 | 222195
14 | 49:22.46 | 3:59.02 | 222196 | 240122
15 | 53:21.48 | 3:42.14 | 240123 | 256786
16 | 57:03.62 | 3:58.14 | 256787 | 274650
17 | 61:02.01 | 4:00.24 | 274651 | 292674
18 | 65:02.25 | 3:17.58 | 292675 | 307507
19 | 68:20.08 | 3:43.49 | 307508 | 324281
20 | 72:03.57 | 4:25.41 | 324282 | 344197


Range status and errors

Selected range

Filename C:\Users\Alex\Desktop\ALLexxess\Donna Summer\2020 Encore (33CD Box Set Driven By The Music)\2020 7'' Single Versions 2CD\CD1\Donna Summer - 7'' Single Versions CD1.wav

Peak level 99.9 %
Extraction speed 8.5 X
Range quality 100.0 %
Test CRC CD3F1A85
Copy CRC CD3F1A85
Copy OK

No errors occurred


AccurateRip summary

Track 1 not present in database
Track 2 not present in database
Track 3 not present in database
Track 4 not present in database
Track 5 not present in database
Track 6 not present in database
Track 7 not present in database
Track 8 not present in database
Track 9 not present in database
Track 10 not present in database
Track 11 not present in database
Track 12 not present in database
Track 13 not present in database
Track 14 not present in database
Track 15 not present in database
Track 16 not present in database
Track 17 not present in database
Track 18 not present in database
Track 19 not present in database
Track 20 not present in database

None of the tracks are present in the AccurateRip database

End of status report

–– CUETools DB Plugin V2.1.6

[CTDB TOCID: zKnFNbWviHn7Q.RGUaGuU5fA1H0-] found
Submit result: zKnFNbWviHn7Q.RGUaGuU5fA1H0- has been confirmed
Track | CTDB Status
1 | (7/7) Accurately ripped
2 | (7/7) Accurately ripped
3 | (7/7) Accurately ripped
4 | (7/7) Accurately ripped
5 | (7/7) Accurately ripped
6 | (7/7) Accurately ripped
7 | (7/7) Accurately ripped
8 | (7/7) Accurately ripped
9 | (7/7) Accurately ripped
10 | (7/7) Accurately ripped
11 | (7/7) Accurately ripped
12 | (7/7) Accurately ripped
13 | (7/7) Accurately ripped
14 | (7/7) Accurately ripped
15 | (7/7) Accurately ripped
16 | (7/7) Accurately ripped
17 | (7/7) Accurately ripped
18 | (7/7) Accurately ripped
19 | (7/7) Accurately ripped
20 | (7/7) Accurately ripped


==== Log checksum EC3F00501649E846FFF963B6B4BEF12A614B27C6DFCD81B965B3ED68159E6254 ====


Tracklist CD27. 2020 - 7'' Single Versions CD2 :

01 She Works Hard For The Money (Edited Single Version)
02 Unconditional Love (Edit) / Featuring Musical Youth
03 Stop, Look & Listen (7'' Single Version]
04 Love Has A Mind Of Its Own (7'' Single Version)
05 Eyes (7'' Remix Edit)
06 All Systems Go (Edit)
07 Dinner With Gershwin (Edit)
08 Only The Fool Survives (Edit) / Duet With Mickey Thomas
09 This Time I Know It's For Real (7'' Mix)
10 I Don't Wanna Get Hurt (7'' Remix)
11 Love's About To Change My Heart (PWL 7'' Mix)
12 Breakaway (Power Radio Mix)
13 When Love Takes Over You (Dave Ford 7'')
14 State Of Independence (New Bass Mix Edit)
15 Breakaway (Remix Edit)
16 When Love Cries (Single Version Remix)
17 Stamp Your Feet (Jason Nevins Radio Mix)
18 Fame (The Game) (Dave Audé Radio)
19 I Feel Love (Almighty Radio Edit)

Exact Audio Copy V1.3 from 2. September 2016

EAC extraction logfile from 10. April 2020, 12:14

Donna Summer / 7'' Single Versions CD2

Used drive : PLEXTOR BD-R PX-B950SA Adapter: 1 ID: 1

Read mode : Secure
Utilize accurate stream : Yes
Defeat audio cache : Yes
Make use of C2 pointers : No

Read offset correction : 6
Overread into Lead-In and Lead-Out : No
Fill up missing offset samples with silence : Yes
Delete leading and trailing silent blocks : No
Null samples used in CRC calculations : Yes
Used interface : Native Win32 interface for Win NT & 2000

Used output format : Internal WAV Routines
Sample format : 44.100 Hz; 16 Bit; Stereo


TOC of the extracted CD

Track | Start | Length | Start sector | End sector
––––––––––––––––––––––––––––-
1 | 0:00.00 | 4:11.51 | 0 | 18875
2 | 4:11.51 | 3:58.18 | 18876 | 36743
3 | 8:09.69 | 4:25.54 | 36744 | 56672
4 | 12:35.48 | 3:50.03 | 56673 | 73925
5 | 16:25.51 | 3:49.07 | 73926 | 91107
6 | 20:14.58 | 3:59.15 | 91108 | 109047
7 | 24:13.73 | 4:11.60 | 109048 | 127932
8 | 28:25.58 | 4:03.52 | 127933 | 146209
9 | 32:29.35 | 3:37.64 | 146210 | 162548
10 | 36:07.24 | 3:33.63 | 162549 | 178586
11 | 39:41.12 | 3:46.66 | 178587 | 195602
12 | 43:28.03 | 4:04.59 | 195603 | 213961
13 | 47:32.62 | 3:38.23 | 213962 | 230334
14 | 51:11.10 | 4:11.40 | 230335 | 249199
15 | 55:22.50 | 3:36.56 | 249200 | 265455
16 | 58:59.31 | 4:10.72 | 265456 | 284277
17 | 63:10.28 | 3:46.61 | 284278 | 301288
18 | 66:57.14 | 3:48.39 | 301289 | 318427
19 | 70:45.53 | 4:00.38 | 318428 | 336465


Range status and errors

Selected range

Filename C:\Users\Alex\Desktop\ALLexxess\Donna Summer\2020 Encore (33CD Box Set Driven By The Music)\2020 7'' Single Versions 2CD\CD2\Donna Summer - 7'' Single Versions CD2.wav

Peak level 94.9 %
Extraction speed 8.2 X
Range quality 100.0 %
Test CRC DC4FC702
Copy CRC DC4FC702
Copy OK

No errors occurred


AccurateRip summary

Track 1 not present in database
Track 2 not present in database
Track 3 not present in database
Track 4 not present in database
Track 5 not present in database
Track 6 not present in database
Track 7 not present in database
Track 8 not present in database
Track 9 not present in database
Track 10 not present in database
Track 11 not present in database
Track 12 not present in database
Track 13 not present in database
Track 14 not present in database
Track 15 not present in database
Track 16 not present in database
Track 17 not present in database
Track 18 not present in database
Track 19 not present in database

None of the tracks are present in the AccurateRip database

End of status report

–– CUETools DB Plugin V2.1.6

[CTDB TOCID: KuRDQ46QAoshleFU6nZ0AbbF_I0-] found
Submit result: KuRDQ46QAoshleFU6nZ0AbbF_I0- has been confirmed
Track | CTDB Status
1 | (7/7) Accurately ripped
2 | (7/7) Accurately ripped
3 | (7/7) Accurately ripped
4 | (7/7) Accurately ripped
5 | (7/7) Accurately ripped
6 | (7/7) Accurately ripped
7 | (7/7) Accurately ripped
8 | (7/7) Accurately ripped
9 | (7/7) Accurately ripped
10 | (7/7) Accurately ripped
11 | (7/7) Accurately ripped
12 | (7/7) Accurately ripped
13 | (7/7) Accurately ripped
14 | (7/7) Accurately ripped
15 | (7/7) Accurately ripped
16 | (7/7) Accurately ripped
17 | (7/7) Accurately ripped
18 | (7/7) Accurately ripped
19 | (7/7) Accurately ripped


==== Log checksum 0554747E87C7F28B24DAB2400E5043A2B10DE29C56E4FDA323CD233D1E34209F ====


Tracklist CD28. 2020 - 12'' Single Versions CD1:

01 Love To Love You Baby (Come Dancing Version)
02 Could It Be Magic (12'' Single Version)
03 I Feel Love (Special Disco Version)
04 Theme From The Deep (Down, Deep Inside) (12'' Disco Version)
05 Hot Stuff (12'' Version)
06 Dim All The Lights (12″ Version)
07 On The Radio (Long Version)
08 Love Is In Control (Finger On The Trigger) (Dance Remix)
09 She Works Hard For The Money (12'' Single Remix)
10 Eyes (Extended Mix)
11 I'm Free (Extended Mix)

Exact Audio Copy V1.3 from 2. September 2016

EAC extraction logfile from 10. April 2020, 11:32

Donna Summer / 12'' Single Versions CD1

Used drive : PLEXTOR BD-R PX-B950SA Adapter: 1 ID: 1

Read mode : Secure
Utilize accurate stream : Yes
Defeat audio cache : Yes
Make use of C2 pointers : No

Read offset correction : 6
Overread into Lead-In and Lead-Out : No
Fill up missing offset samples with silence : Yes
Delete leading and trailing silent blocks : No
Null samples used in CRC calculations : Yes
Used interface : Native Win32 interface for Win NT & 2000

Used output format : Internal WAV Routines
Sample format : 44.100 Hz; 16 Bit; Stereo


TOC of the extracted CD

Track | Start | Length | Start sector | End sector
––––––––––––––––––––––––––––-
1 | 0:00.00 | 8:49.13 | 0 | 39687
2 | 8:49.13 | 6:18.22 | 39688 | 68059
3 | 15:07.35 | 8:15.18 | 68060 | 105202
4 | 23:22.53 | 6:11.59 | 105203 | 133086
5 | 29:34.37 | 6:41.68 | 133087 | 163229
6 | 36:16.30 | 7:13.69 | 163230 | 195773
7 | 43:30.24 | 7:36.09 | 195774 | 229982
8 | 51:06.33 | 7:08.10 | 229983 | 262092
9 | 58:14.43 | 6:01.54 | 262093 | 289221
10 | 64:16.22 | 6:58.19 | 289222 | 320590
11 | 71:14.41 | 6:19.18 | 320591 | 349033


Range status and errors

Selected range

Filename C:\Users\Alex\Desktop\ALLexxess\Donna Summer\2020 Encore (33CD Box Set Driven By The Music)\2020 12'' Single Versions 2CD\CD1\Donna Summer - 12'' Single Versions CD1.wav

Peak level 94.3 %
Extraction speed 8.6 X
Range quality 100.0 %
Test CRC 1C39F918
Copy CRC 1C39F918
Copy OK

No errors occurred


AccurateRip summary

Track 1 not present in database
Track 2 not present in database
Track 3 not present in database
Track 4 not present in database
Track 5 not present in database
Track 6 not present in database
Track 7 not present in database
Track 8 not present in database
Track 9 not present in database
Track 10 not present in database
Track 11 not present in database

None of the tracks are present in the AccurateRip database

End of status report

–– CUETools DB Plugin V2.1.6

[CTDB TOCID: Xi1wZ3C9BAHAZ2_40Jxq15pmTlQ-] found
Submit result: Xi1wZ3C9BAHAZ2_40Jxq15pmTlQ- has been confirmed
Track | CTDB Status
1 | (9/9) Accurately ripped
2 | (9/9) Accurately ripped
3 | (9/9) Accurately ripped
4 | (9/9) Accurately ripped
5 | (9/9) Accurately ripped
6 | (9/9) Accurately ripped
7 | (9/9) Accurately ripped
8 | (9/9) Accurately ripped
9 | (9/9) Accurately ripped
10 | (9/9) Accurately ripped
11 | (9/9) Accurately ripped


==== Log checksum FB6DA21CBE7212E2526BE0590C664A6DABE9237C175B70A7A2BEEFF90A3C6308 ====


Tracklist CD29. 2020 - 12'' Single Versions CD2:

01 All Systems Go (Extended Remix)
02 Dinner With Gershwin (Extended Version)
03 This Time I Know It's For Real (Extended Remix)
04 I Don't Wanna Get Hurt (Phil Harding 12'' Version)
05 Love's About To Change My Heart (Extended Remix)
06 When Love Takes Over You (Pete Hammond Original 12'' Mix)
07 Work That Magic (Extended ISA Remix)
08 I’m A Fire (Craig C's Burning Club Mix)
09 Stamp Your Feet (Jason Nevins Extended Mix)
10 Fame (The Game) (Dave Audé Club)

Exact Audio Copy V1.3 from 2. September 2016

EAC extraction logfile from 10. April 2020, 9:54

Donna Summer / 12'' Single Versions CD2

Used drive : PLEXTOR BD-R PX-B950SA Adapter: 1 ID: 1

Read mode : Secure
Utilize accurate stream : Yes
Defeat audio cache : Yes
Make use of C2 pointers : No

Read offset correction : 6
Overread into Lead-In and Lead-Out : No
Fill up missing offset samples with silence : Yes
Delete leading and trailing silent blocks : No
Null samples used in CRC calculations : Yes
Used interface : Native Win32 interface for Win NT & 2000

Used output format : Internal WAV Routines
Sample format : 44.100 Hz; 16 Bit; Stereo


TOC of the extracted CD

Track | Start | Length | Start sector | End sector
––––––––––––––––––––––––––––-
1 | 0:00.00 | 7:57.23 | 0 | 35797
2 | 7:57.23 | 7:47.43 | 35798 | 70865
3 | 15:44.66 | 7:23.70 | 70866 | 104160
4 | 23:08.61 | 7:01.47 | 104161 | 135782
5 | 30:10.33 | 6:20.50 | 135783 | 164332
6 | 36:31.08 | 7:05.02 | 164333 | 196209
7 | 43:36.10 | 6:18.49 | 196210 | 224608
8 | 49:54.59 | 7:48.58 | 224609 | 259766
9 | 57:43.42 | 6:58.01 | 259767 | 291117
10 | 64:41.43 | 7:32.04 | 291118 | 325021


Range status and errors

Selected range

Filename C:\Users\Alex\Desktop\ALLexxess\Donna Summer\2020 Encore (33CD Box Set Driven By The Music)\2020 12'' Single Versions 2CD\CD2\Donna Summer - 12'' Single Versions CD2.wav

Peak level 94.3 %
Extraction speed 8.0 X
Range quality 99.9 %
Test CRC 9DB0799B
Copy CRC 9DB0799B
Copy OK

No errors occurred


AccurateRip summary

Track 1 not present in database
Track 2 not present in database
Track 3 not present in database
Track 4 not present in database
Track 5 not present in database
Track 6 not present in database
Track 7 not present in database
Track 8 not present in database
Track 9 not present in database
Track 10 not present in database

None of the tracks are present in the AccurateRip database

End of status report

–– CUETools DB Plugin V2.1.6

[CTDB TOCID: bkki44o6Ga3cj_yZyQqVAP76ikY-] found
Submit result: bkki44o6Ga3cj_yZyQqVAP76ikY- has been confirmed
Track | CTDB Status
1 | (9/9) Accurately ripped
2 | (9/9) Accurately ripped
3 | (9/9) Accurately ripped
4 | (9/9) Accurately ripped
5 | (9/9) Accurately ripped
6 | (9/9) Accurately ripped
7 | (9/9) Accurately ripped
8 | (9/9) Accurately ripped
9 | (9/9) Accurately ripped
10 | (9/9) Accurately ripped


==== Log checksum 741557A0DF3E1D2560CA4150CE8E83FDB8B7EB48317753F46EF0DDDC1FF6A4A7 ====


Tracklist CD30. 2020 - Remixes CD1:

01 I Feel Love (Patrick Cowley Mega Mix)
02 Love's About To Change My Heart (Clivillés & Cole 12'' Mix)
03 I Don’t Wanna Get Hurt (Pete Hammond Original 12'' Version)
04 When Love Takes Over You (Dave Ford Extended Remix)
05 Breakaway (Extended Power Mix)
06 State Of Independence (12'' Millennium Mix With Martin Luther King)
07 Breakaway (Remix / Full Version)
08 Work That Magic (ISA Full Length Remix)
09 I Feel Love (Masters At Work 86th Street Mix)

Exact Audio Copy V1.3 from 2. September 2016

EAC extraction logfile from 10. April 2020, 9:18

Donna Summer / Remixes CD1

Used drive : PLEXTOR BD-R PX-B950SA Adapter: 1 ID: 1

Read mode : Secure
Utilize accurate stream : Yes
Defeat audio cache : Yes
Make use of C2 pointers : No

Read offset correction : 6
Overread into Lead-In and Lead-Out : No
Fill up missing offset samples with silence : Yes
Delete leading and trailing silent blocks : No
Null samples used in CRC calculations : Yes
Used interface : Native Win32 interface for Win NT & 2000

Used output format : Internal WAV Routines
Sample format : 44.100 Hz; 16 Bit; Stereo


TOC of the extracted CD

Track | Start | Length | Start sector | End sector
––––––––––––––––––––––––––––-
1 | 0:00.00 | 15:52.47 | 0 | 71446
2 | 15:52.47 | 7:48.54 | 71447 | 106600
3 | 23:41.26 | 7:24.22 | 106601 | 139922
4 | 31:05.48 | 6:14.64 | 139923 | 168036
5 | 37:20.37 | 6:09.67 | 168037 | 195778
6 | 43:30.29 | 6:41.36 | 195779 | 225889
7 | 50:11.65 | 6:45.67 | 225890 | 256331
8 | 56:57.57 | 4:59.01 | 256332 | 278757
9 | 61:56.58 | 6:10.10 | 278758 | 306517


Range status and errors

Selected range

Filename C:\Users\Alex\Desktop\ALLexxess\Donna Summer\2020 Encore (33CD Box Set Driven By The Music)\2020 Remixes 2CD\CD1\Donna Summer - Remixes CD1.wav

Peak level 94.3 %
Extraction speed 7.5 X
Range quality 99.9 %
Test CRC 77D0E8FF
Copy CRC 77D0E8FF
Copy OK

No errors occurred


AccurateRip summary

Track 1 not present in database
Track 2 not present in database
Track 3 not present in database
Track 4 not present in database
Track 5 not present in database
Track 6 not present in database
Track 7 not present in database
Track 8 not present in database
Track 9 not present in database

None of the tracks are present in the AccurateRip database

End of status report

–– CUETools DB Plugin V2.1.6

[CTDB TOCID: oY1I7215u.z8BKdP6rT7ffb_1SM-] found
Submit result: oY1I7215u.z8BKdP6rT7ffb_1SM- has been confirmed
Track | CTDB Status
1 | (7/7) Accurately ripped
2 | (7/7) Accurately ripped
3 | (6/7) Accurately ripped, or (1/7) differs in 180 samples @06:48:27
4 | (7/7) Accurately ripped
5 | (7/7) Accurately ripped
6 | (7/7) Accurately ripped
7 | (7/7) Accurately ripped
8 | (7/7) Accurately ripped
9 | (7/7) Accurately ripped


==== Log checksum ADBE1E3ACC8E7C1FC67D21FFB98D88508938C7A31BA4BCF3747C0ED94A2C4AD3 ====


Tracklist CD31. 2020 - Remixes CD2:

01 I Feel Love (Rollo & Sister Bliss Monster Mix)
02 State Of Independence (Creation Mix / Edit)
03 Love Is The Healer (Eric Kupper's I Feel Healed 7'' Mix)
04 I Feel Love (Qattara 2004 Remix)
05 Working The Midnight Shift (Holy Ghost! Remix)
06 MacArthur Park (Laidback Luke Remix)
07 Hot Stuff (Frankie Knuckles & Eric Kupper As Director's Cut Signature Mix)
08 Bad Girls (Gigamesh Remix)
09 Dim All The Lights (Duke Dumont Remix)
10 Love To Love You Baby (Giorgio Moroder Feat. Chris Cox Remix)
11 I Feel Love (Almighty Mix)
12 Sunset People (Hot Chip Dub Edit)

Exact Audio Copy V1.3 from 2. September 2016

EAC extraction logfile from 10. April 2020, 8:39

Donna Summer / Remixes CD2

Used drive : PLEXTOR BD-R PX-B950SA Adapter: 1 ID: 1

Read mode : Secure
Utilize accurate stream : Yes
Defeat audio cache : Yes
Make use of C2 pointers : No

Read offset correction : 6
Overread into Lead-In and Lead-Out : No
Fill up missing offset samples with silence : Yes
Delete leading and trailing silent blocks : No
Null samples used in CRC calculations : Yes
Used interface : Native Win32 interface for Win NT & 2000

Used output format : Internal WAV Routines
Sample format : 44.100 Hz; 16 Bit; Stereo


TOC of the extracted CD

Track | Start | Length | Start sector | End sector
––––––––––––––––––––––––––––-
1 | 0:00.00 | 6:32.11 | 0 | 29410
2 | 6:32.11 | 4:21.04 | 29411 | 48989
3 | 10:53.15 | 3:58.08 | 48990 | 66847
4 | 14:51.23 | 7:01.18 | 66848 | 98440
5 | 21:52.41 | 5:30.45 | 98441 | 123235
6 | 27:23.11 | 5:41.18 | 123236 | 148828
7 | 33:04.29 | 6:00.66 | 148829 | 175894
8 | 39:05.20 | 5:21.36 | 175895 | 200005
9 | 44:26.56 | 6:01.73 | 200006 | 227153
10 | 50:28.54 | 4:20.66 | 227154 | 246719
11 | 54:49.45 | 8:44.10 | 246720 | 286029
12 | 63:33.55 | 7:38.02 | 286030 | 320381


Range status and errors

Selected range

Filename C:\Users\Alex\Desktop\ ALLexxess\Donna Summer\2020 Encore (33CD Box Set Driven By The Music)\2020 Remixes 2CD\CD2\Donna Summer - Remixes CD2.wav

Peak level 94.3 %
Extraction speed 7.9 X
Range quality 100.0 %
Test CRC 09F71745
Copy CRC 09F71745
Copy OK

No errors occurred


AccurateRip summary

Track 1 not present in database
Track 2 not present in database
Track 3 not present in database
Track 4 not present in database
Track 5 not present in database
Track 6 not present in database
Track 7 not present in database
Track 8 not present in database
Track 9 not present in database
Track 10 not present in database
Track 11 not present in database
Track 12 not present in database

None of the tracks are present in the AccurateRip database

End of status report

–– CUETools DB Plugin V2.1.6

[CTDB TOCID: r1UmdEbUS2XaFD_eoLzZOk98_Vo-] found
Submit result: r1UmdEbUS2XaFD_eoLzZOk98_Vo- has been confirmed
Track | CTDB Status
1 | (7/7) Accurately ripped
2 | (7/7) Accurately ripped
3 | (7/7) Accurately ripped
4 | (7/7) Accurately ripped
5 | (7/7) Accurately ripped
6 | (7/7) Accurately ripped
7 | (7/7) Accurately ripped
8 | (7/7) Accurately ripped
9 | (7/7) Accurately ripped
10 | (7/7) Accurately ripped
11 | (7/7) Accurately ripped
12 | (7/7) Accurately ripped


==== Log checksum FD94524C8E182F3C1687742082C2C77B4F95E549DD1B9487795FF103109C0969 ====


Tracklist CD32. 2020 - Non-Studio Album Singles CD1:

01 Wasserman (Aquarius) (From 'Haare' 1968 German Cast Version)
02 Oh, Segne Gott Mein' Seel / Bless The Lord (From German Cast Recording Of 'Godspell')
03 Virgin Mary
04 Theme From 'The Deep' (Down, Deep Inside) (A Love Song)
05 With Your Love
06 Sometimes Like Butterflies
07 Face The Music
08 Tearin' Down The Walls
09 La Vie En Rose (Album Version)
10 Any Way At All
11 Melody Of Love (Wanna Be Loved) (West End 7'' Radio Mix)
12 Does He Love You? / Liza Minnelli And Donna Summer
13 Whenever There Is Love (From 'Daylight' / Single Version) / Bruce Roberts And Donna Summer
14 I Will Go With You (Con Te Partiró) (Radio Edit)
15 You're So Beautiful (Tony Moran Radio Edit)
16 I Got Your Love (Radio Edit)
17 To Paris With Love (Mendy Radio Edit)
18 La Dolce Vita / Donna Summer & Giorgio Moroder

Exact Audio Copy V1.3 from 2. September 2016

EAC extraction logfile from 9. April 2020, 20:31

Donna Summer / Non-Studio Album Singles CD1

Used drive : PLEXTOR BD-R PX-B950SA Adapter: 1 ID: 1

Read mode : Secure
Utilize accurate stream : Yes
Defeat audio cache : Yes
Make use of C2 pointers : No

Read offset correction : 6
Overread into Lead-In and Lead-Out : No
Fill up missing offset samples with silence : Yes
Delete leading and trailing silent blocks : No
Null samples used in CRC calculations : Yes
Used interface : Native Win32 interface for Win NT & 2000

Used output format : Internal WAV Routines
Sample format : 44.100 Hz; 16 Bit; Stereo


TOC of the extracted CD

Track | Start | Length | Start sector | End sector
––––––––––––––––––––––––––––-
1 | 0:00.00 | 3:12.53 | 0 | 14452
2 | 3:12.53 | 2:45.35 | 14453 | 26862
3 | 5:58.13 | 5:03.62 | 26863 | 49649
4 | 11:02.00 | 4:01.59 | 49650 | 67783
5 | 15:03.59 | 4:08.68 | 67784 | 86451
6 | 19:12.52 | 4:29.70 | 86452 | 106696
7 | 23:42.47 | 4:16.74 | 106697 | 125970
8 | 27:59.46 | 3:59.58 | 125971 | 143953
9 | 31:59.29 | 4:58.71 | 143954 | 166374
10 | 36:58.25 | 4:16.31 | 166375 | 185605
11 | 41:14.56 | 4:08.39 | 185606 | 204244
12 | 45:23.20 | 4:54.36 | 204245 | 226330
13 | 50:17.56 | 4:33.57 | 226331 | 246862
14 | 54:51.38 | 4:05.08 | 246863 | 265245
15 | 58:56.46 | 4:07.65 | 265246 | 283835
16 | 63:04.36 | 3:58.40 | 283836 | 301725
17 | 67:03.01 | 4:02.47 | 301726 | 319922
18 | 71:05.48 | 4:14.17 | 319923 | 338989


Range status and errors

Selected range

Filename C:\Users\Alex\Desktop\ALLexxess\Donna Summer\2020 Encore (33CD Box Set Driven By The Music)\2020 Non-Studio Album Singles 2CD\CD1\Donna Summer - Non-Studio Album Singles CD1.wav

Peak level 94.3 %
Extraction speed 8.3 X
Range quality 99.9 %
Test CRC 31F96C0E
Copy CRC 31F96C0E
Copy OK

No errors occurred


AccurateRip summary

Track 1 not present in database
Track 2 not present in database
Track 3 not present in database
Track 4 not present in database
Track 5 not present in database
Track 6 not present in database
Track 7 not present in database
Track 8 not present in database
Track 9 not present in database
Track 10 not present in database
Track 11 not present in database
Track 12 not present in database
Track 13 not present in database
Track 14 not present in database
Track 15 not present in database
Track 16 not present in database
Track 17 not present in database
Track 18 not present in database

None of the tracks are present in the AccurateRip database

End of status report

–– CUETools DB Plugin V2.1.6

[CTDB TOCID: g55Og3595ig0EgeZpxPyr_KNpoY-] found
Submit result: g55Og3595ig0EgeZpxPyr_KNpoY- has been confirmed
Track | CTDB Status
1 | (9/9) Accurately ripped
2 | (9/9) Accurately ripped
3 | (9/9) Accurately ripped
4 | (9/9) Accurately ripped
5 | (9/9) Accurately ripped
6 | (9/9) Accurately ripped
7 | (9/9) Accurately ripped
8 | (9/9) Accurately ripped
9 | (9/9) Accurately ripped
10 | (9/9) Accurately ripped
11 | (9/9) Accurately ripped
12 | (9/9) Accurately ripped
13 | (9/9) Accurately ripped
14 | (9/9) Accurately ripped
15 | (9/9) Accurately ripped
16 | (9/9) Accurately ripped
17 | (9/9) Accurately ripped
18 | (9/9) Accurately ripped


==== Log checksum D1DB9AA55D80676D5CB07BFE93B2F06339A6F1EE923EADBFCFC77A297EC58DE8 ====


Tracklist CD33. 2020 - Non-Studio Album Singles CD2:

01 Je T'Aime (Moi Non Plus)
02 Something's Missing (In My Life) / Paul Jabara feat Special Guest Donna Summer
03 With Your Love (Extended Version)
04 Last Dance (12'' Version)
05 Carry On (Outta Control Extended)
06 That's The Way (Almighty Radio Edit)
07 Dream-A-Lot's Theme (I Will Live For Love) (12'' Extended Remix)
08 Power Of Love (Hani's Mixshow Edit)
09 Last Dance (Masters At Work Remix-Short Version)
10 My Life (Junior Vasquez Private Collection Mix-Long Edit)

Exact Audio Copy V1.3 from 2. September 2016

EAC extraction logfile from 9. April 2020, 19:51

Donna Summer / Non-Studio Album Singles CD2

Used drive : PLEXTOR BD-R PX-B950SA Adapter: 1 ID: 1

Read mode : Secure
Utilize accurate stream : Yes
Defeat audio cache : Yes
Make use of C2 pointers : No

Read offset correction : 6
Overread into Lead-In and Lead-Out : No
Fill up missing offset samples with silence : Yes
Delete leading and trailing silent blocks : No
Null samples used in CRC calculations : Yes
Used interface : Native Win32 interface for Win NT & 2000

Used output format : Internal WAV Routines
Sample format : 44.100 Hz; 16 Bit; Stereo


TOC of the extracted CD

Track | Start | Length | Start sector | End sector
––––––––––––––––––––––––––––-
1 | 0:00.00 | 15:47.54 | 0 | 71078
2 | 15:47.54 | 5:40.58 | 71079 | 96636
3 | 21:28.37 | 7:33.63 | 96637 | 130674
4 | 29:02.25 | 8:12.34 | 130675 | 167608
5 | 37:14.59 | 6:42.58 | 167609 | 197816
6 | 43:57.42 | 4:09.34 | 197817 | 216525
7 | 48:07.01 | 9:15.13 | 216526 | 258163
8 | 57:22.14 | 5:46.00 | 258164 | 284113
9 | 63:08.14 | 6:24.34 | 284114 | 312947
10 | 69:32.48 | 6:16.14 | 312948 | 341161


Range status and errors

Selected range

Filename C:\Users\Alex\Desktop\ALLexxess\Donna Summer\2020 Encore (33CD Box Set Driven By The Music)\2020 Non-Studio Album Singles 2CD\CD2\Donna Summer - Non-Studio Album Singles CD2.wav

Peak level 94.3 %
Extraction speed 8.4 X
Range quality 100.0 %
Test CRC D537257B
Copy CRC D537257B
Copy OK

No errors occurred


AccurateRip summary

Track 1 not present in database
Track 2 not present in database
Track 3 not present in database
Track 4 not present in database
Track 5 not present in database
Track 6 not present in database
Track 7 not present in database
Track 8 not present in database
Track 9 not present in database
Track 10 not present in database

None of the tracks are present in the AccurateRip database

End of status report

–– CUETools DB Plugin V2.1.6

[CTDB TOCID: veEGkWTctQlN5VMFkoZTaySAKm0-] found
Submit result: veEGkWTctQlN5VMFkoZTaySAKm0- has been confirmed
Track | CTDB Status
1 | (8/8) Accurately ripped
2 | (8/8) Accurately ripped
3 | (8/8) Accurately ripped
4 | (8/8) Accurately ripped
5 | (8/8) Accurately ripped
6 | (8/8) Accurately ripped
7 | (8/8) Accurately ripped
8 | (8/8) Accurately ripped
9 | (8/8) Accurately ripped
10 | (8/8) Accurately ripped


==== Log checksum 50D9E03DE76C4E532730FAFFCAA4E9E6FE2B085B770F6FA05ED3FFECF4A738CF ====


Donna Summer: Encore (2020) [33CD Box Set]

All thanks go to ALLexxess

Donna Summer in my Blog

Download Donna Summer: Encore (2020):