Tags
Language
Tags
December 2022
Su Mo Tu We Th Fr Sa
27 28 29 30 1 2 3
4 5 6 7 8 9 10
11 12 13 14 15 16 17
18 19 20 21 22 23 24
25 26 27 28 29 30 31

Caravan - Blind Dog At St. Dunstans (1976) {2022, Japanese Limited Edition, Remastered}

Posted By: popsakov
Caravan - Blind Dog At St. Dunstans (1976) {2022, Japanese Limited Edition, Remastered}

Caravan - Blind Dog At St. Dunstans (1976) {2022, Japanese Limited Edition, Remastered}
EAC Rip | FLAC (Img) + Cue + Log ~ 315 Mb | MP3 CBR320 ~ 117 Mb
Covers Included | 00:46:11 | RAR 5% Recovery
Progressive Rock, Canterbury Scene | Belle Antique #BELLE 223707

Blind Dog at St. Dunstans is the seventh studio album by Canterbury Scene rock band Caravan. It was released in 1976. This album has a lighter feel than Caravan's previous releases, shifting toward shorter, "poppier" songs. The lighter feel is due in part to the prominence of Pye Hastings on the album. He wrote and sang eight of nine songs. Moreover, Jan Schelhaas had replaced Dave Sinclair on keyboards, moving away from lengthy organ-based instrumentals toward piano and synthesizer.

***************

Track List:

01. Here Am I [0:06:18.72]
02. Chiefs and Indians [0:05:15.24]
03. A Very Smelly, Grubby Little Oik [0:04:11.72]
04. Bobbing Wide [0:02:30.50]
05. Come on Back [0:03:55.70]
06. Oik (reprise) [0:02:26.33]
07. Jack and Jill [0:06:29.33]
08. Can You Hear Me? [0:06:22.05]
09. All the Way (with John Wayne’s Single-Handed Liberation of Paris) [0:08:40.24]

Exact Audio Copy V1.5 from 20. February 2020

EAC extraction logfile from 3. October 2022, 18:33

Caravan / Blind Dog At St. Dunstans [BELLE 223707]

Used drive : HL-DT-STBD-RE BH10LS38 Adapter: 1 ID: 0

Read mode : Secure
Utilize accurate stream : Yes
Defeat audio cache : Yes
Make use of C2 pointers : No

Read offset correction : 667
Overread into Lead-In and Lead-Out : No
Fill up missing offset samples with silence : Yes
Delete leading and trailing silent blocks : No
Null samples used in CRC calculations : Yes
Used interface : Native Win32 interface for Win NT & 2000

Used output format : User Defined Encoder
Selected bitrate : 128 kBit/s
Quality : High
Add ID3 tag : No
Command line compressor : C:\Program Files (x86)\Exact Audio Copy\Flac\flac.exe
Additional command line options : -V -8 -T "Date=%year%" -T "Genre=%genre%" %source%


TOC of the extracted CD

Track | Start | Length | Start sector | End sector
––––––––––––––––––––––––––––-
1 | 0:00.00 | 6:18.72 | 0 | 28421
2 | 6:18.72 | 5:15.24 | 28422 | 52070
3 | 11:34.21 | 4:11.72 | 52071 | 70967
4 | 15:46.18 | 2:30.50 | 70968 | 82267
5 | 18:16.68 | 3:55.70 | 82268 | 99962
6 | 22:12.63 | 2:26.33 | 99963 | 110945
7 | 24:39.21 | 6:29.33 | 110946 | 140153
8 | 31:08.54 | 6:22.05 | 140154 | 168808
9 | 37:30.59 | 8:40.24 | 168809 | 207832


Range status and errors

Selected range

Filename D:\Rips by Alder\Caravan - Blind Dog At St. Dunstans [BELLE 223707].wav

Peak level 97.6 %
Extraction speed 7.5 X
Range quality 100.0 %
Test CRC 88E9F756
Copy CRC 88E9F756
Copy OK

No errors occurred


AccurateRip summary

Track 1 not present in database
Track 2 not present in database
Track 3 not present in database
Track 4 not present in database
Track 5 not present in database
Track 6 not present in database
Track 7 not present in database
Track 8 not present in database
Track 9 not present in database

None of the tracks are present in the AccurateRip database

End of status report

–– CUETools DB Plugin V2.1.6

[CTDB TOCID: bL.pUepFRJqxaChH8s3gy9Lphlc-] found
Submit result: already submitted
Track | CTDB Status
1 | (2/2) Accurately ripped
2 | (2/2) Accurately ripped
3 | (2/2) Accurately ripped
4 | (2/2) Accurately ripped
5 | (2/2) Accurately ripped
6 | (2/2) Accurately ripped
7 | (2/2) Accurately ripped
8 | (2/2) Accurately ripped
9 | (2/2) Accurately ripped


==== Log checksum C384C5B9935D8A78D9F58D902E29E48D79BBF7AA29F0A891A9BAD78CE9D51C06 ====

All thanks go to Alder

>>> Caravan in my Blog <<<

DOWNLOAD: