Tags
Language
Tags

Bob Dylan - Down In The Groove (1988)

Posted By: v3122
Bob Dylan - Down In The Groove (1988)

Bob Dylan - Down In The Groove (1988)
EAC | Flac(Image) + Cue + Log & MP3 CBR 320Kbps
Columbia, 460267 2 | ~ 185 or 76 Mb | Scans(png) -> 43 Mb
Folk Rock / Classic Rock

If the diffuseness of Knocked Out Loaded was excusable due to its collaborators and various recording sessions, Down in the Groove has less of an excuse, since it's relatively from the same time period, even if it's culled from several different sessions with several different backing band. Nevertheless, the main difference is that, while Knocked Out Loaded was ambitious, this is positively unassuming, at best hoping to capture the mellow roots rock of the Grateful Dead (which it does, on Dylan's irresistible collaborations with Robert Hunter, "Ugliest Girl in the World" and "Silvio"). The rest of the record strolls through covers with amiable ease, whether he's backed by ex-punks or lifetime pros. That may not make for a great record by any stretch, but it's a rather ingratiating one, a little more focused than Knocked Out Loaded and a little looser and funkier than Empire Burlesque. Actually, not as heavy on great moments as either (especially Burlesque), but it's still rather nice in its low-key way

~ allmusic
Bob Dylan - Down In The Groove (1988)


Bob Dylan - Down In The Groove (1988):

Bob Dylan - Down In The Groove (1988)

Tracklist:

Let's Stick Together
When Did You Leave Heaven
Sally Sue Brown
Death Is Not The End
Had A Dream About You, Baby
Ugliest Girl In The World
Silvio
Ninety Miles An Hour (Down A Dead End Street)
Shenandoah
Rank Strangers To Me

Exact Audio Copy V0.99 prebeta 5 from 4. May 2009

EAC extraction logfile from 29. January 2015, 21:24

BOB DYLAN / Down In The Groove ( 460267 2 )

Used drive : ASUS DRW-24B3ST Adapter: 0 ID: 0

Read mode : Secure
Utilize accurate stream : Yes
Defeat audio cache : Yes
Make use of C2 pointers : No

Read offset correction : 6
Overread into Lead-In and Lead-Out : No
Fill up missing offset samples with silence : Yes
Delete leading and trailing silent blocks : No
Null samples used in CRC calculations : Yes
Used interface : Native Win32 interface for Win NT & 2000

Used output format : User Defined Encoder
Selected bitrate : 1024 kBit/s
Quality : High
Add ID3 tag : No
Command line compressor : C:\Program Files (x86)\EAC\WV\wavpack.exe
Additional command line options : -h -hh -m %s %d


TOC of the extracted CD

Track | Start | Length | Start sector | End sector
––––––––––––––––––––––––––––-
1 | 0:00.00 | 3:08.37 | 0 | 14136
2 | 3:08.37 | 2:15.05 | 14137 | 24266
3 | 5:23.42 | 2:29.23 | 24267 | 35464
4 | 7:52.65 | 5:10.37 | 35465 | 58751
5 | 13:03.27 | 2:51.15 | 58752 | 71591
6 | 15:54.42 | 3:32.45 | 71592 | 87536
7 | 19:27.12 | 3:05.55 | 87537 | 101466
8 | 22:32.67 | 2:56.20 | 101467 | 114686
9 | 25:29.12 | 3:38.50 | 114687 | 131086
10 | 29:07.62 | 2:57.38 | 131087 | 144399


Range status and errors

Selected range

Filename W:\BOB DYLAN\BOB DYLAN - Down In The Groove (1988) (AT 1992 Columbia Records • 460267 2)\BOB DYLAN - Down In The Groove ( 460267 2 ).wav

Peak level 99.1 %
Range quality 100.0 %
Test CRC 777D5581
Copy CRC 777D5581
Copy OK

No errors occurred


AccurateRip summary

Track 1 accurately ripped (confidence 22) [E44EDED5]
Track 2 accurately ripped (confidence 22) [6A2D6E25]
Track 3 accurately ripped (confidence 22) [59016F0C]
Track 4 accurately ripped (confidence 22) [90020F3A]
Track 5 accurately ripped (confidence 22) [AC3BD521]
Track 6 accurately ripped (confidence 22) [A0DB85B3]
Track 7 accurately ripped (confidence 22) [31CE13A2]
Track 8 accurately ripped (confidence 21) [71E1B276]
Track 9 accurately ripped (confidence 22) [A8DC87F3]
Track 10 accurately ripped (confidence 22) [60FC3C00]

All tracks accurately ripped

End of status report

foobar2000 1.2.9 / Dynamic Range Meter 1.1.1
log date: 2017-03-28 19:09:49

––––––––––––––––––––––––––––––––––––––––
Analyzed: BOB DYLAN / Down In The Groove ( 460267 2 )
––––––––––––––––––––––––––––––––––––––––

DR Peak RMS Duration Track
––––––––––––––––––––––––––––––––––––––––
DR13 -0.51 dB -15.59 dB 3:08 01-Let's Stick Together
DR13 -1.59 dB -18.18 dB 2:15 02-When Did You Leave Heaven
DR13 -1.18 dB -16.09 dB 2:29 03-Sally Sue Brown
DR17 -0.08 dB -20.85 dB 5:10 04-Death Is Not The End
DR13 -2.15 dB -17.37 dB 2:51 05-Had A Dream About You, Baby
DR14 -1.04 dB -17.29 dB 3:33 06-Ugliest Girl In The World
DR14 -1.02 dB -16.06 dB 3:06 07-Silvio
DR11 -4.95 dB -19.67 dB 2:56 08-Ninety Miles An Hour (Down A Dead End Street)
DR16 -2.26 dB -20.91 dB 3:39 09-Shenandoah
DR12 -5.94 dB -23.04 dB 2:58 10-Rank Strangers To Me
––––––––––––––––––––––––––––––––––––––––

Number of tracks: 10
Official DR value: DR14

Samplerate: 44100 Hz
Channels: 2
Bits per sample: 16
Bitrate: 783 kbps
Codec: FLAC

[CUETools log; Date: 28.03.2017 19:09:37; Version: 2.1.4]
[CTDB TOCID: OZxjwvBn41UUE618h7u1bFjqh1s-] found.
Track | CTDB Status
1 | (87/88) Accurately ripped
2 | (87/88) Accurately ripped
3 | (87/88) Accurately ripped
4 | (87/88) Accurately ripped
5 | (87/88) Accurately ripped
6 | (87/88) Accurately ripped
7 | (87/88) Accurately ripped
8 | (87/88) Accurately ripped
9 | (87/88) Accurately ripped
10 | (85/88) Accurately ripped
[AccurateRip ID: 000bf41f-00607814-8a07850a] found.
Track [ CRC | V2 ] Status
01 [e44eded5|7570262e] (023+030/118) Accurately ripped
02 [6a2d6e25|b4a88e53] (023+030/118) Accurately ripped
03 [59016f0c|ca8d3142] (023+030/118) Accurately ripped
04 [90020f3a|61cae6ee] (023+030/118) Accurately ripped
05 [ac3bd521|613f660c] (023+030/118) Accurately ripped
06 [a0db85b3|124ecb61] (023+030/118) Accurately ripped
07 [31ce13a2|5fc5cdaa] (023+030/118) Accurately ripped
08 [71e1b276|c3f380d4] (022+030/116) Accurately ripped
09 [a8dc87f3|5ef72a43] (023+030/118) Accurately ripped
10 [60fc3c00|f3fb3eb5] (023+030/117) Accurately ripped
Offsetted by -947:
01 [6dd9c0a5] (027/118) Accurately ripped
02 [5bea8acb] (027/118) Accurately ripped
03 [de08b4ea] (027/118) Accurately ripped
04 [6cb2609c] (026/118) Accurately ripped
05 [865fd96b] (027/118) Accurately ripped
06 [3ab9ff7c] (027/118) Accurately ripped
07 [61cabd94] (027/118) Accurately ripped
08 [730e2565] (026/116) Accurately ripped
09 [b80cb96b] (027/118) Accurately ripped
10 [6c9bcad4] (026/117) Accurately ripped
Offsetted by -941:
01 [9235d573] (002/118) Accurately ripped
02 [df212081] (002/118) Accurately ripped
03 [213eb87e] (002/118) Accurately ripped
04 [49c417fd] (002/118) Accurately ripped
05 [3103466e] (002/118) Accurately ripped
06 [10939aec] (002/118) Accurately ripped
07 [efaf340a] (002/118) Accurately ripped
08 [78fb14b2] (002/116) Accurately ripped
09 [917c11b0] (002/118) Accurately ripped
10 [ac921f88] (002/117) Accurately ripped
Offsetted by -1310:
01 [47324d76] (000/118) No match (V2 was not tested)
02 [96d9b922] (000/118) No match (V2 was not tested)
03 [20a2729e] (000/118) No match (V2 was not tested)
04 [c8583c63] (000/118) No match (V2 was not tested)
05 [b0cbd4cc] (000/118) No match (V2 was not tested)
06 [f82a31d4] (000/118) No match (V2 was not tested)
07 [0924d1e4] (000/118) No match (V2 was not tested)
08 [b3cdc2f7] (000/116) No match (V2 was not tested)
09 [aca37318] (000/118) No match (V2 was not tested)
10 [b7a82dd1] (000/117) No match (V2 was not tested)

Track Peak [ CRC32 ] [W/O NULL] [ LOG ]
– 99,1 [777D5581] [06DD5F97] CRC32
01 94,3 [0D343B10] [4CF3F62B]
02 83,3 [2723E18A] [CD0B4AA3]
03 87,2 [618D9EDE] [D887BDA2]
04 99,1 [921729E7] [FAC9A19A]
05 78,0 [34B4C39B] [22A2D50F]
06 88,6 [B6ACCD36] [EC8DA251]
07 88,9 [3B241152] [00C6AA25]
08 56,5 [D4FB5761] [6DB90799]
09 77,1 [AC64FA33] [9C99250C]
10 50,4 [CC5E11C2] [19F9CB0C]

Bob Dylan - Down In The Groove (1988)

All thanks go to the original releaser

Bob Dylan in my Blog

Download Bob Dylan - Down In The Groove (1988):