Tags
Language
Tags
February 2023
Su Mo Tu We Th Fr Sa
29 30 31 1 2 3 4
5 6 7 8 9 10 11
12 13 14 15 16 17 18
19 20 21 22 23 24 25
26 27 28 1 2 3 4

Tony Bennett - Snowfall (1968/2013) [Official Digital Download 24-bit/96kHz]

Posted By: HDV
Tony Bennett - Snowfall (1968/2013) [Official Digital Download 24-bit/96kHz]

Tony Bennett - Snowfall: The Tony Bennett Christmas Album (1968/2013)
FLAC (tracks) 24-bit/96 kHz | Time - 29:27 minutes | 627 MB
Studio Master, Official Digital Download | Artwork: Front cover

"Snowfall" is Tony Bennett's 1968 Christmas album. Arranged and conducted by Robert Farnon, the album was Tony Bennett's first Christmas album. Bennett and Farnon had been friends since the early 1950s but had not worked together before recording this album, which included arrangements by Don Costa, Marion Evans, and Torrie Zito.

With British arranger/conductor Robert Farnon handling the transatlantic sessions, Tony Bennett's 1968 Christmas album turned into a swinging affair, from the version of "My Favorite Things" from The Sound of Music (how did this song become associated with Christmas?) to seasonal standards like "White Christmas" and "Have Yourself a Merry Little Christmas." Bennett's warm style was especially winning on this kind of material, making an inevitable assignment a winning combination of singer and songs.

Tracklist:

01 - Snowfall
02 - My Favorite Things
03 - The Christmas Song (Chestnuts Roasting on an Open Fire)
04 - Santa Claus Is Comin' to Town
05 - Medley: We Wish You a Merry Christmas / Silent Night, Holy Night / O Come, All Ye Faithful / Jingle Bells / Where Is Love
06 - Christmasland
07 - I Love the Winter Weather / I've Got My Love to Keep Me Warm
08 - White Christmas
09 - Winter Wonderland
10 - Have Yourself a Merry Little Christmas

Analyzed: Tony Bennett / Snowfall: The Tony Bennett Christmas Album
––––––––––––––––––––––––––––––––––––––––

DR Peak RMS Duration Track
––––––––––––––––––––––––––––––––––––––––
DR10 -1.30 dB -13.73 dB 2:53 01-Snowfall
DR11 -0.25 dB -13.91 dB 3:19 02-My Favorite Things
DR9 -2.73 dB -14.34 dB 2:40 03-The Christmas Song (Chestnuts Roasting on an Open Fire)
DR9 -0.83 dB -12.51 dB 2:41 04-Santa Claus Is Comin' to Town
DR10 -0.99 dB -13.49 dB 5:50 05-Medley: We Wish You a Merry Christmas / Silent Night, Holy Night / O Come, All Ye Faithful / Jingle Bells / Where Is Love
DR10 -0.90 dB -13.24 dB 2:25 06-Christmasland
DR9 -0.90 dB -12.40 dB 2:13 07-I Love the Winter Weather / I've Got My Love to Keep Me Warm
DR8 -1.00 dB -10.98 dB 2:08 08-White Christmas
DR9 -0.41 dB -12.00 dB 2:15 09-Winter Wonderland
DR8 -0.77 dB -11.34 dB 3:02 10-Have Yourself a Merry Little Christmas
––––––––––––––––––––––––––––––––––––––––

Number of tracks: 10
Official DR value: DR9

Samplerate: 96000 Hz
Channels: 2
Bits per sample: 24
Bitrate: 2908 kbps
Codec: FLAC
================================================================================


Thanks to the Original customer!