Tags
Language
Tags
February 2023
Su Mo Tu We Th Fr Sa
29 30 31 1 2 3 4
5 6 7 8 9 10 11
12 13 14 15 16 17 18
19 20 21 22 23 24 25
26 27 28 1 2 3 4

James Blunt - Back To Bedlam {Deluxe} (2004/2005/2013) [Official Digital Download 24-bit/96kHz]

Posted By: HDV
James Blunt - Back To Bedlam {Deluxe} (2004/2005/2013) [Official Digital Download 24-bit/96kHz]

James Blunt - Back To Bedlam (2004/2005/2013) [Deluxe Edition]
FLAC (tracks) 24-bit/96 kHz | Time - 48:04 minutes | 948 MB
Studio Master, Official Digital Download | Artwork: Front cover

"Back to Bedlam" is the debut studio album by English singer-songwriter James Blunt. It is named after the infamous psychiatric institution of Bethlem Royal Hospital, which is commonly known as Bedlam. "Back to Bedlam" was the highest-selling album of 2005 in the UK, with over 2.4 million copies sold. By December 2009, the album had been certified 10× Platinum by the British Phonographic Industry for sales of over 3 million, making it the best-selling album of the 2000s in the UK. As of 2017, it has sold 3.33 million copies in the UK and over 11 million copies worldwide.

Soulful British crooner James Blunt's wistful debut infuses the listener – in order – with rainy-day hope, the wistful comfort of unattainable love, and finally, world-weary resignation. While his parched and effeminate falsetto recalls Gasoline Alley-era Rod Stewart with a healthy dose of Antony and the Johnsons, it's the late Elliott Smith who casts the largest shadow on Back to Bedlam. Predictable but effective four-chord guitar motifs are the chosen vehicle for the ex-Royal Armed Forces soldier, and when they connect ("Wiseman," "Goodbye My Lover," "You Are Beautiful"), it's like a "Dear John" letter from a lover who you know will remain a close but ultimately guarded friend. Opening track "High" sets a determined midtempo pace that rarely wanes – it's like an acoustic version of "Drive" by the Cars with a Coldplay chorus. It's a pace that would sink some records, but Bedlam's perfectly rendered, under 40-minute run time ensures that the listener doesn't suffer from a melancholy overdose. Blunt recounts his harrowing experiences as part of the NATO peacekeeping force in Kosovo on the closer, "No Bravery," and it's a shock to hear all of the romantic lyricism that informed Bedlam up to this point reduced to "Old men kneel and accept their fate/Wives and daughters cut and raped/A generation drenched in hate," but it's damn effective – as is the majority of this fine debut.

Tracklist:

01 - High
02 - You're Beautiful
03 - Wisemen
04 - Goodbye My Lover
05 - Tears And Rain
06 - Out Of My Mind
07 - So Long, Jimmy
08 - Billy
09 - Cry
10 - No Bravery
11 - Goodbye My Lover (Acoustic)
12 - You're Beautiful (Acoustic)

Analyzed: James Blunt / Back To Bedlam
––––––––––––––––––––––––––––––––––––––––

DR Peak RMS Duration Track
––––––––––––––––––––––––––––––––––––––––
DR6 0.00 dB -8.42 dB 4:03 01-High
DR9 0.00 dB -10.82 dB 3:34 02-You're Beautiful
DR6 0.00 dB -8.50 dB 3:45 03-Wisemen
DR10 0.00 dB -12.71 dB 4:18 04-Goodbye My Lover
DR7 0.00 dB -10.14 dB 4:04 05-Tears And Rain
DR5 0.00 dB -8.83 dB 3:33 06-Out Of My Mind
DR7 0.00 dB -10.48 dB 4:25 07-So Long, Jimmy
DR8 0.00 dB -10.48 dB 3:36 08-Billy
DR7 0.00 dB -10.21 dB 4:06 09-Cry
DR8 0.00 dB -10.69 dB 4:02 10-No Bravery
DR9 -1.49 dB -15.11 dB 5:06 11-Goodbye My Lover (Acoustic)
DR10 -1.22 dB -15.02 dB 3:32 12-You're Beautiful (Acoustic)
––––––––––––––––––––––––––––––––––––––––

Number of tracks: 12
Official DR value: DR8

Samplerate: 96000 Hz
Channels: 2
Bits per sample: 24
Bitrate: 2288 kbps
Codec: FLAC
================================================================================


Thanks to the Original customer!