Tags
Language
Tags
February 2023
Su Mo Tu We Th Fr Sa
29 30 31 1 2 3 4
5 6 7 8 9 10 11
12 13 14 15 16 17 18
19 20 21 22 23 24 25
26 27 28 1 2 3 4

Johan Farjot, Johan Farjot & Friends - Caravan Party (2023) [Official Digital Download]

Posted By: ciklon5
Johan Farjot, Johan Farjot & Friends - Caravan Party (2023) [Official Digital Download]

Johan Farjot, Johan Farjot & Friends - Caravan Party (2023) [Official Digital Download]
FLAC (tracks), Lossless [24bit-48kHz] +Booklet | 1:11:10 | 796 Mb
Genre: Classical Jazz / Label:Klarthe Records Jazz

La magnifique étymologie persane du mot « Caravan » remonte à la nuit des temps, faite de voyages et d’entraides nomades.
Fort de cette poésie immémoriale et s’inspirant bien sûr du légendaire morceau du même nom de Juan Tizol et Duke Ellington, Caravan Party invoque l’amitié en musique, dont le miracle n’a de cesse de se renouveler au Bal Blomet, l’un des plus vieux clubs de jazz d’Europe.
Pensionnaire régulier de ce lieu historique créé en 1924, Johan Farjot a réuni bon nombre des camarades de la série qu’il y anime (aux côtés du saxophoniste Raphaël Imbert), les 1001 Nuits du jazz, avec des alliages inouïs et associations d’artistes inattendues.

Track List:
1. Brother Can You Spare a Dime (5:04)
2. Woodstock (5:24)
3. Ode to Sainte Cécile (4:24)
4. If You Knew (3:35)
5. Jesus Maria (5:18)
6. Blues for Angels (5:25)
7. Black Trombone (4:24)
8. Caravan (4:05)
9. Free Ballad (7:16)
10. Journey in Satchidananda (4:33)
11. Baby Man (4:23)
12. Gee Baby (4:32)
13. Gotham Lullaby (3:36)
14. Prends courage, oh ! (4:09)
15. Black Is the Color of My True Love's Hair (5:12)

foobar2000 1.6.10 / Dynamic Range Meter 1.1.1
log date: 2023-01-25 07:08:27

––––––––––––––––––––––––––––––––––––––––
Analyzed: Johan Farjot, Johan Farjot & Friends / Caravan Party
––––––––––––––––––––––––––––––––––––––––

DR Peak RMS Duration Track
––––––––––––––––––––––––––––––––––––––––
DR10 0.00 dB -12.86 dB 5:04 01-Brother Can You Spare a Dime
DR8 0.00 dB -10.70 dB 5:24 02-Woodstock
DR10 -0.01 dB -11.51 dB 4:24 03-Ode to Sainte Cécile
DR8 0.00 dB -12.41 dB 3:35 04-If You Knew
DR8 0.00 dB -9.86 dB 5:18 05-Jesus Maria
DR8 0.00 dB -11.30 dB 5:25 06-Blues for Angels
DR10 0.00 dB -11.77 dB 4:24 07-Black Trombone
DR9 0.00 dB -10.83 dB 4:05 08-Caravan
DR10 0.00 dB -15.28 dB 7:16 09-Free Ballad
DR8 0.00 dB -11.35 dB 4:33 10-Journey in Satchidananda
DR11 -0.02 dB -14.31 dB 4:23 11-Baby Man
DR10 0.00 dB -12.32 dB 4:32 12-Gee Baby
DR12 -0.01 dB -16.01 dB 3:36 13-Gotham Lullaby
DR10 0.00 dB -12.94 dB 4:09 14-Prends courage, oh !
DR10 0.00 dB -14.38 dB 5:12 15-Black Is the Color of My True Love's Hair
––––––––––––––––––––––––––––––––––––––––

Number of tracks: 15
Official DR value: DR9

Samplerate: 48000 Hz
Channels: 2
Bits per sample: 24
Bitrate: 1472 kbps
Codec: FLAC
================================================================================