Tags
Language
Tags
May 2024
Su Mo Tu We Th Fr Sa
28 29 30 1 2 3 4
5 6 7 8 9 10 11
12 13 14 15 16 17 18
19 20 21 22 23 24 25
26 27 28 29 30 31 1

Yozakura-san Chi no Daisakusen - 05 (Repack

Posted By: Otaku
Yozakura-san Chi no Daisakusen - 05 (Repack

Yozakura-san Chi no Daisakusen - 05 (Repack
MKV | 1280x720 | 日本語 | H264 @ 2765 kbps | AAC @ 125.376 kbps | 23 min 58 s | 500 MiB
Subtitles: Nederlands, Bokmål, Español, Svenska, Français, Română, Português, Ελληνικά, Italiano, Magyar, Čeština, Polski, Dansk, English, Deutsch, Suomi, Slovenčina



[Erai-raws] Yozakura-san Chi no Daisakusen - 05 (Repack) [720p][Multiple Subtitle][4182CCF7].mkv (500.1 MB)



General
Unique ID : 115710984853903363716395147936455079099 (0x570D20041805E45377D1D27529B234BB)
Complete name : ./[Erai-raws] Yozakura-san Chi no Daisakusen - 05 (Repack) [720p][Multiple Subtitle][4182CCF7].mkv
Format : Matroska
Format version : Version 4
File size : 500 MiB
Duration : 23 min 58 s
Overall bit rate mode : Variable
Overall bit rate : 2 917 kb/s
Encoded date : UTC 2024-05-15 00:15:02
Writing application : mkvmerge v84.0 ('Sleeper') 64-bit
Writing library : libebml v1.4.5 + libmatroska v1.7.1
Attachments : 01_APompadourSample.ttf / Bahij SultanNahia-Regular.ttf / Hacen Extender Lt.ttf / Hacen Liner XL.ttf / Hacen Liner XXL.ttf / Hacen Promoter Lt.ttf / OpenSans-Bold.ttf / OpenSans-ExtraBold.ttf / OpenSans-Italic.ttf / OpenSans-Light.ttf / OpenSans-Regular.ttf / OpenSans-Semibold.ttf / OpenSans-SemiboldItalic.ttf / times.ttf / AdobeArabic-Bold.otf

Video
ID : 1
Format : AVC
Format/Info : Advanced Video Codec
Format profile : High@L3.1
Format settings : CABAC / 4 Ref Frames
Format settings, CABAC : Yes
Format settings, Reference frames : 4 frames
Codec ID : V_MPEG4/ISO/AVC
Duration : 23 min 57 s
Bit rate mode : Variable
Bit rate : 2 766 kb/s
Maximum bit rate : 6 375 kb/s
Width : 1 280 pixels
Height : 720 pixels
Display aspect ratio : 16:9
Frame rate mode : Constant
Frame rate : 23.976 (24000/1001) FPS
Color space : YUV
Chroma subsampling : 4:2:0
Bit depth : 8 bits
Scan type : Progressive
Bits/(Pixel*Frame) : 0.125
Stream size : 474 MiB (95%)
Language : Japanese
Default : Yes
Forced : No
Color range : Limited
Color primaries : BT.709
Transfer characteristics : BT.709
Matrix coefficients : BT.709

Audio
ID : 2
Format : AAC LC
Format/Info : Advanced Audio Codec Low Complexity
Codec ID : A_AAC-2
Duration : 23 min 58 s
Bit rate : 125 kb/s
Channel(s) : 2 channels
Channel layout : L R
Sampling rate : 48.0 kHz
Frame rate : 46.875 FPS (1024 SPF)
Compression mode : Lossy
Stream size : 21.5 MiB (4%)
Language : Japanese
Default : Yes
Forced : No

Text #1
ID : 3
Format : ASS
Codec ID : S_TEXT/ASS
Codec ID/Info : Advanced Sub Station Alpha
Duration : 23 min 45 s
Bit rate : 117 b/s
Frame rate : 0.285 FPS
Count of elements : 406
Compression mode : Lossless
Stream size : 20.4 KiB (0%)
Title : English
Language : English
Default : Yes
Forced : No

Text #2
ID : 4
Format : ASS
Codec ID : S_TEXT/ASS
Codec ID/Info : Advanced Sub Station Alpha
Duration : 23 min 45 s
Bit rate : 126 b/s
Frame rate : 0.285 FPS
Count of elements : 406
Compression mode : Lossless
Stream size : 22.0 KiB (0%)
Title : English(CC)
Language : English
Default : Yes
Forced : No

Text #3
ID : 5
Format : ASS
Codec ID : S_TEXT/ASS
Codec ID/Info : Advanced Sub Station Alpha
Duration : 23 min 48 s
Bit rate : 104 b/s
Frame rate : 0.251 FPS
Count of elements : 358
Compression mode : Lossless
Stream size : 18.1 KiB (0%)
Title : Portuguese(Brazil)
Language : Portuguese
Default : No
Forced : No

Text #4
ID : 6
Format : ASS
Codec ID : S_TEXT/ASS
Codec ID/Info : Advanced Sub Station Alpha
Duration : 23 min 48 s
Bit rate : 104 b/s
Frame rate : 0.251 FPS
Count of elements : 358
Compression mode : Lossless
Stream size : 18.3 KiB (0%)
Title : Spanish(Latin_America)
Language : Spanish
Default : No
Forced : No

Text #5
ID : 7
Format : ASS
Codec ID : S_TEXT/ASS
Codec ID/Info : Advanced Sub Station Alpha
Duration : 23 min 48 s
Bit rate : 108 b/s
Frame rate : 0.249 FPS
Count of elements : 356
Compression mode : Lossless
Stream size : 18.9 KiB (0%)
Title : Spanish
Language : Spanish
Default : No
Forced : No

Text #6
ID : 8
Format : ASS
Codec ID : S_TEXT/ASS
Codec ID/Info : Advanced Sub Station Alpha
Duration : 23 min 48 s
Bit rate : 110 b/s
Frame rate : 0.251 FPS
Count of elements : 358
Compression mode : Lossless
Stream size : 19.2 KiB (0%)
Title : French
Language : French
Default : No
Forced : No

Text #7
ID : 9
Format : ASS
Codec ID : S_TEXT/ASS
Codec ID/Info : Advanced Sub Station Alpha
Duration : 23 min 48 s
Bit rate : 110 b/s
Frame rate : 0.251 FPS
Count of elements : 359
Compression mode : Lossless
Stream size : 19.3 KiB (0%)
Title : German
Language : German
Default : No
Forced : No

Text #8
ID : 10
Format : ASS
Codec ID : S_TEXT/ASS
Codec ID/Info : Advanced Sub Station Alpha
Duration : 23 min 48 s
Bit rate : 106 b/s
Frame rate : 0.251 FPS
Count of elements : 358
Compression mode : Lossless
Stream size : 18.6 KiB (0%)
Title : Italian
Language : Italian
Default : No
Forced : No

Text #9
ID : 11
Format : ASS
Codec ID : S_TEXT/ASS
Codec ID/Info : Advanced Sub Station Alpha
Duration : 23 min 48 s
Bit rate : 108 b/s
Frame rate : 0.251 FPS
Count of elements : 358
Compression mode : Lossless
Stream size : 18.9 KiB (0%)
Title : Portuguese
Language : Portuguese
Default : No
Forced : No

Text #10
ID : 12
Format : ASS
Codec ID : S_TEXT/ASS
Codec ID/Info : Advanced Sub Station Alpha
Duration : 23 min 48 s
Bit rate : 99 b/s
Frame rate : 0.250 FPS
Count of elements : 357
Compression mode : Lossless
Stream size : 17.3 KiB (0%)
Title : Polish
Language : Polish
Default : No
Forced : No

Text #11
ID : 13
Format : ASS
Codec ID : S_TEXT/ASS
Codec ID/Info : Advanced Sub Station Alpha
Duration : 23 min 48 s
Bit rate : 103 b/s
Frame rate : 0.249 FPS
Count of elements : 356
Compression mode : Lossless
Stream size : 18.0 KiB (0%)
Title : Dutch
Language : Dutch
Default : No
Forced : No

Text #12
ID : 14
Format : ASS
Codec ID : S_TEXT/ASS
Codec ID/Info : Advanced Sub Station Alpha
Duration : 23 min 48 s
Bit rate : 105 b/s
Frame rate : 0.251 FPS
Count of elements : 358
Compression mode : Lossless
Stream size : 18.3 KiB (0%)
Title : Norwegian
Language : Norwegian Bokmal
Default : No
Forced : No

Text #13
ID : 15
Format : ASS
Codec ID : S_TEXT/ASS
Codec ID/Info : Advanced Sub Station Alpha
Duration : 23 min 48 s
Bit rate : 99 b/s
Frame rate : 0.251 FPS
Count of elements : 358
Compression mode : Lossless
Stream size : 17.4 KiB (0%)
Title : Finnish
Language : Finnish
Default : No
Forced : No

Text #14
ID : 16
Format : ASS
Codec ID : S_TEXT/ASS
Codec ID/Info : Advanced Sub Station Alpha
Duration : 23 min 48 s
Bit rate : 105 b/s
Frame rate : 0.251 FPS
Count of elements : 358
Compression mode : Lossless
Stream size : 18.4 KiB (0%)
Title : Swedish
Language : Swedish
Default : No
Forced : No

Text #15
ID : 17
Format : ASS
Codec ID : S_TEXT/ASS
Codec ID/Info : Advanced Sub Station Alpha
Duration : 23 min 48 s
Bit rate : 156 b/s
Frame rate : 0.250 FPS
Count of elements : 357
Compression mode : Lossless
Stream size : 27.3 KiB (0%)
Title : Greek
Language : Greek
Default : No
Forced : No

Text #16
ID : 18
Format : ASS
Codec ID : S_TEXT/ASS
Codec ID/Info : Advanced Sub Station Alpha
Duration : 23 min 48 s
Bit rate : 108 b/s
Frame rate : 0.251 FPS
Count of elements : 358
Compression mode : Lossless
Stream size : 18.9 KiB (0%)
Title : Romanian
Language : Romanian
Default : No
Forced : No

Text #17
ID : 19
Format : ASS
Codec ID : S_TEXT/ASS
Codec ID/Info : Advanced Sub Station Alpha
Duration : 23 min 48 s
Bit rate : 107 b/s
Frame rate : 0.251 FPS
Count of elements : 358
Compression mode : Lossless
Stream size : 18.7 KiB (0%)
Title : Danish
Language : Danish
Default : No
Forced : No

Text #18
ID : 20
Format : ASS
Codec ID : S_TEXT/ASS
Codec ID/Info : Advanced Sub Station Alpha
Duration : 23 min 48 s
Bit rate : 104 b/s
Frame rate : 0.251 FPS
Count of elements : 358
Compression mode : Lossless
Stream size : 18.1 KiB (0%)
Title : Hungarian
Language : Hungarian
Default : No
Forced : No

Text #19
ID : 21
Format : ASS
Codec ID : S_TEXT/ASS
Codec ID/Info : Advanced Sub Station Alpha
Duration : 23 min 48 s
Bit rate : 107 b/s
Frame rate : 0.251 FPS
Count of elements : 358
Compression mode : Lossless
Stream size : 18.8 KiB (0%)
Title : Czech
Language : Czech
Default : No
Forced : No

Text #20
ID : 22
Format : ASS
Codec ID : S_TEXT/ASS
Codec ID/Info : Advanced Sub Station Alpha
Duration : 23 min 48 s
Bit rate : 106 b/s
Frame rate : 0.251 FPS
Count of elements : 358
Compression mode : Lossless
Stream size : 18.6 KiB (0%)
Title : Slovak
Language : Slovak
Default : No
Forced : No





Yozakura-san Chi no Daisakusen - 05 (Repack


Yozakura-san Chi no Daisakusen - 05 (Repack


Yozakura-san Chi no Daisakusen - 05 (Repack


Yozakura-san Chi no Daisakusen - 05 (Repack