Subcategories

Jordi Savall & Hesperion XXI - Jeanne D'Arc: Batailles & Prisons (2012) [2CD] {Alia Vox}

Posted By: ruskaval

Jordi Savall & Hesperion XXI - Jeanne D'Arc: Batailles & Prisons (2012) [2CD] {Alia Vox}
EAC rip (secure mode) | FLAC (tracks)+CUE+LOG -> 605 Mb | MP3 @320 -> 321 Mb
Full Artwork @ 300 dpi (jpg) -> 0.98 Gb | 5% repair rar
© 2012 Alia Vox | AVSA 9891 A+B
Classical / Chamber Music / Medieval / Renaissance

Twenty years after his work on the soundtrack of Jacques Rivette's movie Jeanne la Pucelle, Jordi Savall returns to this powerful subject matter and presents a new set dedicated to the mother figure of the struggle for French independence. The music on Joan of Arc - Battles and Prisons provides the perfect atmosphere for Savall's fresh look this historical icon. Alongside works by composers from the time of Joan of Arc (Guillaume Dufay, Josquin Desprez, Johannes Vincenet, Johannes Cornago, etc.), the set also features compositions and arrangements by Jordi Savall. The biographical program of the set is further illustrated through spoken dialogue. The accompanying 500 page, six language hardbound book is richly illustrated and provides historical perspective as well as texts and translations. The result is an amazingly vivid portrait of a troubled time.

Most of the recordings of the great Catalonian viol player and group leader Jordi Savall delve into the cultural context of early music traditions. Among them is a special group referred to here as CD-books, which combine a CD (or in this case two) with a lavishly illustrated hardbound book containing essays and relevant artwork in addition to texts and the usual listings of personnel. Kudos to Savall's grant-writers for continuing to get these things funded during Spain's fiscal crisis, and this release, Jeanne d'Arc: Batailles & Prisons (Joan of Arc: Battles and Prisons) outdoes even other similar Savall releases. With the booklet weighing in at 504 pages, awesome even if it does include text in six languages, and essays covering such topics as Joan of Arc's relevance to the modern French right wing, this is not only a musical program but a survey of the entire Joan of Arc phenomenon, and one with sufficient depth to meet most people's needs.



The two actual CDs also go beyond what has been included on other Savall releases, combining several kinds of material. There is spoken-word text, both narrative and dramatic, outlining the life of Joan the Maid, to use the contemporary English term. The music itself is of different kinds, all of it impeccably performed by Savall, his vocal group La Capella Reial de Catalunya, his instrumental group Hespérion XXI, and a small group of soloists that includes the late Montserrat Figueras; this must have been one of the last few albums she made. Savall includes these kinds of pieces: popular melodies reflecting Joan's peasant origins; the Dufay motet Veni sancte spiritus (sung by three voices, symbolizing the Trinity); the ubiquitous L'homme armé tune, evoking Joan's warrior status, military and royal fanfares, and other occasional instrumental pieces. Some of the music is by Savall himself, drawn from his score for a 1993 French film about Joan of Arc. As often happens, Savall accomplishes something slightly different from what he set out to do.



The dramatic presentation has its moments, such as when French and British troops clash with their bands playing in slightly different tunings. But in general the words are less interesting than the music, which, like so much of what this musician does, gives a feeling for the resonances of Renaissance music in the lives of its original hearers like no other performances can do. This is one of Savall's most ambitious releases, and one of his very best.


Alia Vox INFO

Personnel:
Montserrat Figueras
Louise Moaty, René Zosso, Manuel Weber

LA CAPELLA REIAL DE CATALUNYA

HESPÈRION XXI
Jordi Savall


tracklist:
CD 1
PROLOGUE

01. « Ballade de la Pucelle » (instrumental)
02. Aprez que j’ay veu et leu…
« L’Appel » : « Le Départ » & « Les Voix ». J. Savall d’après G. Dufay
03. Rondeau : « Ce jour de l’an » d’après G. Dufay
04. 21 mai 1420. Le Traité de Troyes
05. Fanfare « Dit le Burguygnon » d’après mss. anonyme (XVe s.)
06. 21 octobre 1422. Mort de Charles VI.
07. Rondeau « Fortune, par ta cruaulté » d’après J. Vincenet (ca. 1420)

I. LES VOIX
08. « Les Voix : Veni Sancte spiritus ». G. Dufay (ca. 1400-1474)
09. Quand j’eus l’âge d’environ treize ans…
10. Juillet 1428. Domrémy est pillé par les troupes des Bourguignons…
11. Janvier-février 1429. Le Voyage à Vaucouleurs.
Musique : « Saltarello » d’après mss. anonyme (XVe s.)

II. VOYAGE À CHINON ET RENCONTRE AVEC LE ROI
12. « Le départ ». J. Savall
13. Ma mie, que faites-vous ici ?
14. « Le départ ». J. Savall
15. « La Pucelle » (instrumental)
16. « Les Voix » d’après G. Dufay
17. 6 mars 1429. Rencontre avec le roi à la Cour de Chinon.
18. « Vive le Roy ». J. Desprez
19. Mars 1429. Jeanne est soumise
20. Rondeau « La Trémouille ». J. Savall
21. Musique : tambour
22. « Veni Creator Spiritus » d’après anon. VIIIe s.

III. LA DÉLIVRANCE D’ORLÉANS
23. La lettre aux Anglais
24. 29 avril 1429. La Délivrance d’Orléans.
25. 11 mai 1429. Le roi rencontre la Pucelle à Loches.
26. « L’Homme armé ». J. Savall d’après le Sanctus de la messe de G. Dufay
27. 18 juin 1429. Bataille de Patay
28. 29 juin 1429. Départ de Gien pour débuter la marche à Reims.

IV. LE SACRE DE CHARLES VII
29. « Ballade de la Pucelle » (instrumental). J. Savall
30. 17 juillet 1429. La Route du Sacre.
31. « Prière III » Fantaisie d’après anonyme XVe s. / Adoramus te
32. « Marche Royale pour le Sacre ». J. Savall
33. « Te Deum ». Jordi Savall
34. « Marche Royale pour l’Onction ». J. Savall
35. « Les Voix ». Jordi Savall d’après G. Dufay
36-37-38. « Messe de l’Homme armé ». G. Dufay
39. « Marche Royale pour l’Onction ». J. Savall
40. « Sonnerie Royale pour la fin du Sacre ». J. Savall



CD 2
V. BATAILLES ET PRISONS

01. Musique : Fanfares & tambours
02. « Bataille entre Français et Anglais ». Jordi Savall
03. 8 septembre 1429. Après quelques opérations militaires
04. « Fortuna desperata ». Josquin Desprez
05. 16 mai 1430. Le duc de Bourgogne met le siège devant Compiègne.
06. « Chiave, chiave ». Anonyme (CMM 131)
07. Le lendemain, Jeanne est capturé par les Bourguignons.
08. « Dit le Bourguignon » d’après mss. anonyme (XVe s.)
09. « Ballade de la Pucelle ». Improvisation harpe

VI. LES SOLITUDES - LE PROCÈS
10. « Fortune par ta cruauté » d’après J. Vincenet (ca. 1420)
11. 21 novembre, 1430. Jeanne est vendue…
12. « Les Solitudes Prière II » d’après Adoramus Te. Anonyme
13. 9 janvier 1431. Ouverture du Procès en condamnation de Jeanne
14. « Le départ ». Jordi Savall
15. Samedi 10 mars, 1431. Première séance du procès dans la prison.
16. « Planctus Jehanne » d’après mss. anonyme s. XV

VII. ACCUSATION, ABJURATION ET SENTENCE
17. Mercredi, 26 mars, 1431. Début du procès ordinaire
18. Prière « Fortune par ta cruauté » d’après J. Vincenet (ca. 1420)
19. Jeudi 24 mai. Abjuration de Jeanne.
20. Musique : Cloches (Inquisition) / « Adoramus te » orgue
21. « Les Voix ». Jordi Savall d’après G. Dufay

VIII. PROCÈS DE RELAPSE, CONDAMNATION ET EXÉCUTION
22. Lundi 28 mai, 1431. Dans la prison.
23. Prière « Adoramus te Domine » (Anonyme – CMM 4)
24. « Fanfare de l’Inquisition ». Jordi Savall
25. 30 mai 1431. Quand la Pucelle fut « arse » à Rouen
26. « Planctus Jehanne ». Jordi Savall d’après mss. XVe siècle
27. « Sonnerie Royale pour la fin de la Guerre ». Jordi Savall

CONCLUSION
Fin de La Guerre de Cent Ans et Annulation du Proces

28. Motet-Chanson : « Rejois toy terre de France/Vivat Rex in eternam »
(Anon. Paris, XVe s.)
29. « Le départ ». Jordi Savall harpe
30. « Hymne Patres nostri peccaverunt ». Johannes Cornago, CMM2
31. 7 Juillet 1456. Sentence de Réhabilitation
32. « Les Voix : Veni Sancte Spiritus »
33. « Ballade de la Pucelle ». J. Savall d’après L’homme armé
34. Plus que la sainte, l’inspirée, je crois que Jeanne…
35. « Le départ ». Jordi Savall



Exact Audio Copy V1.0 beta 3 from 29. August 2011

EAC extraction logfile from 18. November 2012, 14:50

La Capella Reial, Hesperion XXI, J. Savall / Jeanne D'Arc, Batailles & Prisons (CD1)

Used drive : PLEXTOR DVDR PX-880SA Adapter: 4 ID: 0

Read mode : Secure
Utilize accurate stream : Yes
Defeat audio cache : Yes
Make use of C2 pointers : No

Read offset correction : 6
Overread into Lead-In and Lead-Out : No
Fill up missing offset samples with silence : Yes
Delete leading and trailing silent blocks : No
Null samples used in CRC calculations : Yes
Used interface : Installed external ASPI interface
Gap handling : Appended to previous track

Used output format : Internal WAV Routines
Sample format : 44.100 Hz; 16 Bit; Stereo


TOC of the extracted CD

Track | Start | Length | Start sector | End sector
––––––––––––––––––––––––––––-
1 | 0:00.00 | 0:59.51 | 0 | 4475
2 | 0:59.51 | 2:01.65 | 4476 | 13615
3 | 3:01.41 | 1:19.44 | 13616 | 19584
4 | 4:21.10 | 2:47.71 | 19585 | 32180
5 | 7:09.06 | 2:05.23 | 32181 | 41578
6 | 9:14.29 | 1:44.36 | 41579 | 49414
7 | 10:58.65 | 1:38.06 | 49415 | 56770
8 | 12:36.71 | 5:11.55 | 56771 | 80150
9 | 17:48.51 | 1:03.20 | 80151 | 84895
10 | 18:51.71 | 2:02.18 | 84896 | 94063
11 | 20:54.14 | 2:11.28 | 94064 | 103916
12 | 23:05.42 | 1:44.71 | 103917 | 111787
13 | 24:50.38 | 0:43.38 | 111788 | 115050
14 | 25:34.01 | 1:43.66 | 115051 | 122841
15 | 27:17.67 | 1:54.08 | 122842 | 131399
16 | 29:12.00 | 0:40.35 | 131400 | 134434
17 | 29:52.35 | 2:11.70 | 134435 | 144329
18 | 32:04.30 | 1:15.67 | 144330 | 150021
19 | 33:20.22 | 0:22.04 | 150022 | 151675
20 | 33:42.26 | 2:09.37 | 151676 | 161387
21 | 35:51.63 | 1:37.72 | 161388 | 168734
22 | 37:29.60 | 4:49.16 | 168735 | 190425
23 | 42:19.01 | 1:40.00 | 190426 | 197925
24 | 43:59.01 | 3:00.41 | 197926 | 211466
25 | 46:59.42 | 0:42.45 | 211467 | 214661
26 | 47:42.12 | 1:59.33 | 214662 | 223619
27 | 49:41.45 | 0:57.00 | 223620 | 227894
28 | 50:38.45 | 1:57.65 | 227895 | 236734
29 | 52:36.35 | 1:07.18 | 236735 | 241777
30 | 53:43.53 | 1:51.41 | 241778 | 250143
31 | 55:35.19 | 1:22.71 | 250144 | 256364
32 | 56:58.15 | 0:39.66 | 256365 | 259355
33 | 57:38.06 | 2:33.20 | 259356 | 270850
34 | 60:11.26 | 0:40.57 | 270851 | 273907
35 | 60:52.08 | 0:40.38 | 273908 | 276945
36 | 61:32.46 | 2:01.64 | 276946 | 286084
37 | 63:34.35 | 0:47.13 | 286085 | 289622
38 | 64:21.48 | 1:10.14 | 289623 | 294886
39 | 65:31.62 | 0:38.08 | 294887 | 297744
40 | 66:09.70 | 1:26.71 | 297745 | 304265


Track 1

Filename C:\Audio\Various Composers - Jeanne D'Arc, Batailles & Prisons - La Capella Reial, Hesperion XXI, J. Savall (2012) [FLAC]\CD1\01 - Ballade de la Pucelle.wav

Pre-gap length 0:00:02.00

Peak level 77.2 %
Extraction speed 1.4 X
Track quality 100.0 %
Test CRC EDC3E7CF
Copy CRC EDC3E7CF
Track not present in AccurateRip database
Copy OK

Track 2

Filename C:\Audio\Various Composers - Jeanne D'Arc, Batailles & Prisons - La Capella Reial, Hesperion XXI, J. Savall (2012) [FLAC]\CD1\02 - Eloge de la Pucelle.wav

Peak level 30.8 %
Extraction speed 1.8 X
Track quality 100.0 %
Test CRC 632DAAAB
Copy CRC 632DAAAB
Track not present in AccurateRip database
Copy OK

Track 3

Filename C:\Audio\Various Composers - Jeanne D'Arc, Batailles & Prisons - La Capella Reial, Hesperion XXI, J. Savall (2012) [FLAC]\CD1\03 - G. Dufay - Ce jour de l'an.wav

Peak level 17.6 %
Extraction speed 1.7 X
Track quality 100.0 %
Test CRC 5A10557B
Copy CRC 5A10557B
Track not present in AccurateRip database
Copy OK

Track 4

Filename C:\Audio\Various Composers - Jeanne D'Arc, Batailles & Prisons - La Capella Reial, Hesperion XXI, J. Savall (2012) [FLAC]\CD1\04 - 21 mai 1420. Le Traite de Troyes.wav

Peak level 55.4 %
Extraction speed 1.4 X
Track quality 99.9 %
Test CRC C06C114F
Copy CRC C06C114F
Track not present in AccurateRip database
Copy OK

Track 5

Filename C:\Audio\Various Composers - Jeanne D'Arc, Batailles & Prisons - La Capella Reial, Hesperion XXI, J. Savall (2012) [FLAC]\CD1\05 - Fanfare - Dit le Burguygnon.wav

Peak level 93.5 %
Extraction speed 2.1 X
Track quality 100.0 %
Test CRC 08A0AA5F
Copy CRC 08A0AA5F
Track not present in AccurateRip database
Copy OK

Track 6

Filename C:\Audio\Various Composers - Jeanne D'Arc, Batailles & Prisons - La Capella Reial, Hesperion XXI, J. Savall (2012) [FLAC]\CD1\06 - 21 octobre 1422. Mort de Charles VI.wav

Peak level 35.5 %
Extraction speed 2.1 X
Track quality 100.0 %
Test CRC D6245B0F
Copy CRC D6245B0F
Track not present in AccurateRip database
Copy OK

Track 7

Filename C:\Audio\Various Composers - Jeanne D'Arc, Batailles & Prisons - La Capella Reial, Hesperion XXI, J. Savall (2012) [FLAC]\CD1\07 - Rondeau - Fortune par ta cruaulte.wav

Peak level 39.9 %
Extraction speed 2.1 X
Track quality 100.0 %
Test CRC EBB4C5F3
Copy CRC EBB4C5F3
Track not present in AccurateRip database
Copy OK

Track 8

Filename C:\Audio\Various Composers - Jeanne D'Arc, Batailles & Prisons - La Capella Reial, Hesperion XXI, J. Savall (2012) [FLAC]\CD1\08 - G. Dufay - Les Voix. Veni Sancte spiritus.wav

Peak level 78.6 %
Extraction speed 2.1 X
Track quality 99.9 %
Test CRC 8348FFF0
Copy CRC 8348FFF0
Track not present in AccurateRip database
Copy OK

Track 9

Filename C:\Audio\Various Composers - Jeanne D'Arc, Batailles & Prisons - La Capella Reial, Hesperion XXI, J. Savall (2012) [FLAC]\CD1\09 - Quand j'eus l'age d'environ treize ans (recit).wav

Peak level 21.3 %
Extraction speed 2.0 X
Track quality 100.0 %
Test CRC 6188F69A
Copy CRC 6188F69A
Track not present in AccurateRip database
Copy OK

Track 10

Filename C:\Audio\Various Composers - Jeanne D'Arc, Batailles & Prisons - La Capella Reial, Hesperion XXI, J. Savall (2012) [FLAC]\CD1\10 - Juillet 1428. Domremy est pille par les Bourguignons.wav

Peak level 79.6 %
Extraction speed 2.5 X
Track quality 100.0 %
Test CRC F31DA974
Copy CRC F31DA974
Track not present in AccurateRip database
Copy OK

Track 11

Filename C:\Audio\Various Composers - Jeanne D'Arc, Batailles & Prisons - La Capella Reial, Hesperion XXI, J. Savall (2012) [FLAC]\CD1\11 - Janvier-fevrier 1429. Le voyage a Vaucouleurs.wav

Peak level 28.2 %
Extraction speed 2.6 X
Track quality 100.0 %
Test CRC C9234796
Copy CRC C9234796
Track not present in AccurateRip database
Copy OK

Track 12

Filename C:\Audio\Various Composers - Jeanne D'Arc, Batailles & Prisons - La Capella Reial, Hesperion XXI, J. Savall (2012) [FLAC]\CD1\12 - 23 fevrier 1429. Le depart pour Chinon.wav

Peak level 30.2 %
Extraction speed 2.5 X
Track quality 100.0 %
Test CRC 8878003D
Copy CRC 8878003D
Track not present in AccurateRip database
Copy OK

Track 13

Filename C:\Audio\Various Composers - Jeanne D'Arc, Batailles & Prisons - La Capella Reial, Hesperion XXI, J. Savall (2012) [FLAC]\CD1\13 - Ma mie, que faites-vous ici (recit).wav

Peak level 21.4 %
Extraction speed 0.8 X
Track quality 99.7 %
Test CRC 28E2E9FD
Copy CRC 28E2E9FD
Track not present in AccurateRip database
Copy OK

Track 14

Filename C:\Audio\Various Composers - Jeanne D'Arc, Batailles & Prisons - La Capella Reial, Hesperion XXI, J. Savall (2012) [FLAC]\CD1\14 - J. Savall - Le depart.wav

Peak level 37.0 %
Extraction speed 1.5 X
Track quality 99.8 %
Test CRC 0F0D88F4
Copy CRC 0F0D88F4
Track not present in AccurateRip database
Copy OK

Track 15

Filename C:\Audio\Various Composers - Jeanne D'Arc, Batailles & Prisons - La Capella Reial, Hesperion XXI, J. Savall (2012) [FLAC]\CD1\15 - La Pucelle (d'apres L'Homme arme).wav

Peak level 29.6 %
Extraction speed 2.7 X
Track quality 100.0 %
Test CRC CFA18F65
Copy CRC CFA18F65
Track not present in AccurateRip database
Copy OK

Track 16

Filename C:\Audio\Various Composers - Jeanne D'Arc, Batailles & Prisons - La Capella Reial, Hesperion XXI, J. Savall (2012) [FLAC]\CD1\16 - Les Voix (d'apres G. Dufay).wav

Peak level 57.3 %
Extraction speed 0.8 X
Track quality 99.7 %
Test CRC A958277D
Copy CRC A958277D
Track not present in AccurateRip database
Copy OK

Track 17

Filename C:\Audio\Various Composers - Jeanne D'Arc, Batailles & Prisons - La Capella Reial, Hesperion XXI, J. Savall (2012) [FLAC]\CD1\17 - 6 mars 1429. Rencontre avec le Roi a la cour de Chinon.wav

Peak level 39.1 %
Extraction speed 2.9 X
Track quality 100.0 %
Test CRC 206C9B1B
Copy CRC 206C9B1B
Track not present in AccurateRip database
Copy OK

Track 18

Filename C:\Audio\Various Composers - Jeanne D'Arc, Batailles & Prisons - La Capella Reial, Hesperion XXI, J. Savall (2012) [FLAC]\CD1\18 - J. Desprez - Vive le Roy.wav

Peak level 28.3 %
Extraction speed 2.5 X
Track quality 100.0 %
Test CRC 945EC5B2
Copy CRC 945EC5B2
Track not present in AccurateRip database
Copy OK

Track 19

Filename C:\Audio\Various Composers - Jeanne D'Arc, Batailles & Prisons - La Capella Reial, Hesperion XXI, J. Savall (2012) [FLAC]\CD1\19 - Mars 1429. Jeanne est soumise.wav

Peak level 19.5 %
Extraction speed 1.3 X
Track quality 100.0 %
Test CRC 0C9CEBB8
Copy CRC 0C9CEBB8
Track not present in AccurateRip database
Copy OK

Track 20

Filename C:\Audio\Various Composers - Jeanne D'Arc, Batailles & Prisons - La Capella Reial, Hesperion XXI, J. Savall (2012) [FLAC]\CD1\20 - J. Savall - Rondeau 'La Tremouille'.wav

Peak level 26.4 %
Extraction speed 1.8 X
Track quality 99.9 %
Test CRC FCEDBBDE
Copy CRC FCEDBBDE
Track not present in AccurateRip database
Copy OK

Track 21

Filename C:\Audio\Various Composers - Jeanne D'Arc, Batailles & Prisons - La Capella Reial, Hesperion XXI, J. Savall (2012) [FLAC]\CD1\21 - 21 avril 1429. Jeanne est a Blois.wav

Peak level 50.3 %
Extraction speed 1.6 X
Track quality 99.8 %
Test CRC 0DEF553B
Copy CRC 0DEF553B
Track not present in AccurateRip database
Copy OK

Track 22

Filename C:\Audio\Various Composers - Jeanne D'Arc, Batailles & Prisons - La Capella Reial, Hesperion XXI, J. Savall (2012) [FLAC]\CD1\22 - Anonyme VIIIe siecle - Veni Creator Spiritus.wav

Peak level 44.5 %
Extraction speed 3.6 X
Track quality 100.0 %
Test CRC B5FFCDCE
Copy CRC B5FFCDCE
Track not present in AccurateRip database
Copy OK

Track 23

Filename C:\Audio\Various Composers - Jeanne D'Arc, Batailles & Prisons - La Capella Reial, Hesperion XXI, J. Savall (2012) [FLAC]\CD1\23 - La lettre aux Anglais.wav

Peak level 60.8 %
Extraction speed 3.0 X
Track quality 100.0 %
Test CRC 06228709
Copy CRC 06228709
Track not present in AccurateRip database
Copy OK

Track 24

Filename C:\Audio\Various Composers - Jeanne D'Arc, Batailles & Prisons - La Capella Reial, Hesperion XXI, J. Savall (2012) [FLAC]\CD1\24 - 29 avril 1429. La delivrance d'Orleans.wav

Peak level 97.5 %
Extraction speed 3.5 X
Track quality 100.0 %
Test CRC D7C102C6
Copy CRC D7C102C6
Track not present in AccurateRip database
Copy OK

Track 25

Filename C:\Audio\Various Composers - Jeanne D'Arc, Batailles & Prisons - La Capella Reial, Hesperion XXI, J. Savall (2012) [FLAC]\CD1\25 - 11 mai 1429. Le Roi rencontre la Pucelle a Loches.wav

Peak level 33.5 %
Extraction speed 2.3 X
Track quality 100.0 %
Test CRC BFA55E18
Copy CRC BFA55E18
Track not present in AccurateRip database
Copy OK

Track 26

Filename C:\Audio\Various Composers - Jeanne D'Arc, Batailles & Prisons - La Capella Reial, Hesperion XXI, J. Savall (2012) [FLAC]\CD1\26 - L'Homme arme (d'apres G. Dufay).wav

Peak level 82.9 %
Extraction speed 3.2 X
Track quality 100.0 %
Test CRC A59070FE
Copy CRC A59070FE
Track not present in AccurateRip database
Copy OK

Track 27

Filename C:\Audio\Various Composers - Jeanne D'Arc, Batailles & Prisons - La Capella Reial, Hesperion XXI, J. Savall (2012) [FLAC]\CD1\27 - 18 juin 1429. Bataille de Patay.wav

Peak level 94.9 %
Extraction speed 2.6 X
Track quality 100.0 %
Test CRC CFF28CC5
Copy CRC CFF28CC5
Track not present in AccurateRip database
Copy OK

Track 28

Filename C:\Audio\Various Composers - Jeanne D'Arc, Batailles & Prisons - La Capella Reial, Hesperion XXI, J. Savall (2012) [FLAC]\CD1\28 - 29 juin 1429. Depart de Gien.wav

Peak level 92.2 %
Extraction speed 2.0 X
Track quality 99.9 %
Test CRC 29F778D3
Copy CRC 29F778D3
Track not present in AccurateRip database
Copy OK

Track 29

Filename C:\Audio\Various Composers - Jeanne D'Arc, Batailles & Prisons - La Capella Reial, Hesperion XXI, J. Savall (2012) [FLAC]\CD1\29 - 16 juillet 1429 - Reddition de Reims.wav

Peak level 96.7 %
Extraction speed 2.8 X
Track quality 100.0 %
Test CRC 141565FE
Copy CRC 141565FE
Track not present in AccurateRip database
Copy OK

Track 30

Filename C:\Audio\Various Composers - Jeanne D'Arc, Batailles & Prisons - La Capella Reial, Hesperion XXI, J. Savall (2012) [FLAC]\CD1\30 - 17 juillet 1429 - La Route du Sacre.wav

Peak level 46.0 %
Extraction speed 2.0 X
Track quality 99.9 %
Test CRC 4264D218
Copy CRC 4264D218
Track not present in AccurateRip database
Copy OK

Track 31

Filename C:\Audio\Various Composers - Jeanne D'Arc, Batailles & Prisons - La Capella Reial, Hesperion XXI, J. Savall (2012) [FLAC]\CD1\31 - 17 juillet 1429 - Charles VII est couronne.wav

Peak level 68.1 %
Extraction speed 3.1 X
Track quality 100.0 %
Test CRC 3755C800
Copy CRC 3755C800
Track not present in AccurateRip database
Copy OK

Track 32

Filename C:\Audio\Various Composers - Jeanne D'Arc, Batailles & Prisons - La Capella Reial, Hesperion XXI, J. Savall (2012) [FLAC]\CD1\32 - J. Savall - Marche Royale pour le Sacre.wav

Peak level 89.3 %
Extraction speed 2.4 X
Track quality 100.0 %
Test CRC 6D5FC9B0
Copy CRC 6D5FC9B0
Track not present in AccurateRip database
Copy OK

Track 33

Filename C:\Audio\Various Composers - Jeanne D'Arc, Batailles & Prisons - La Capella Reial, Hesperion XXI, J. Savall (2012) [FLAC]\CD1\33 - J. Savall - Te Deum.wav

Peak level 95.5 %
Extraction speed 3.7 X
Track quality 100.0 %
Test CRC A859B10A
Copy CRC A859B10A
Track not present in AccurateRip database
Copy OK

Track 34

Filename C:\Audio\Various Composers - Jeanne D'Arc, Batailles & Prisons - La Capella Reial, Hesperion XXI, J. Savall (2012) [FLAC]\CD1\34 - J. Savall - Marche Royale pour l'Onction.wav

Peak level 17.8 %
Extraction speed 2.3 X
Track quality 100.0 %
Test CRC DAB08957
Copy CRC DAB08957
Track not present in AccurateRip database
Copy OK

Track 35

Filename C:\Audio\Various Composers - Jeanne D'Arc, Batailles & Prisons - La Capella Reial, Hesperion XXI, J. Savall (2012) [FLAC]\CD1\35 - Les Voix (d'apres G. Dufay).wav

Peak level 82.7 %
Extraction speed 1.0 X
Track quality 99.7 %
Test CRC DD97295E
Copy CRC DD97295E
Track not present in AccurateRip database
Copy OK

Track 36

Filename C:\Audio\Various Composers - Jeanne D'Arc, Batailles & Prisons - La Capella Reial, Hesperion XXI, J. Savall (2012) [FLAC]\CD1\36 - G. Dufay - Messe de l'Homme Arme - Sanctus.wav

Peak level 90.4 %
Extraction speed 2.2 X
Track quality 99.9 %
Test CRC 408577E7
Copy CRC 408577E7
Track not present in AccurateRip database
Copy OK

Track 37

Filename C:\Audio\Various Composers - Jeanne D'Arc, Batailles & Prisons - La Capella Reial, Hesperion XXI, J. Savall (2012) [FLAC]\CD1\37 - G. Dufay - Messe de l'Homme Arme - Osanna.wav

Peak level 84.6 %
Extraction speed 2.6 X
Track quality 100.0 %
Test CRC 38366A1D
Copy CRC 38366A1D
Track not present in AccurateRip database
Copy OK

Track 38

Filename C:\Audio\Various Composers - Jeanne D'Arc, Batailles & Prisons - La Capella Reial, Hesperion XXI, J. Savall (2012) [FLAC]\CD1\38 - G. Dufay - Messe de l'Homme Arme - Osanna II.wav

Peak level 86.9 %
Extraction speed 3.1 X
Track quality 100.0 %
Test CRC B12D0CC3
Copy CRC B12D0CC3
Track not present in AccurateRip database
Copy OK

Track 39

Filename C:\Audio\Various Composers - Jeanne D'Arc, Batailles & Prisons - La Capella Reial, Hesperion XXI, J. Savall (2012) [FLAC]\CD1\39 - J. Savall - Marche Royale pour l'Onction.wav

Peak level 46.8 %
Extraction speed 2.4 X
Track quality 100.0 %
Test CRC 638C7333
Copy CRC 638C7333
Track not present in AccurateRip database
Copy OK

Track 40

Filename C:\Audio\Various Composers - Jeanne D'Arc, Batailles & Prisons - La Capella Reial, Hesperion XXI, J. Savall (2012) [FLAC]\CD1\40 - J. Savall - Sonnerie Royale pour la fin du Sacre.wav

Peak level 97.5 %
Extraction speed 1.8 X
Track quality 99.8 %
Test CRC 0DF22CFB
Copy CRC 0DF22CFB
Track not present in AccurateRip database
Copy OK


None of the tracks are present in the AccurateRip database

No errors occurred

End of status report

==== Log checksum D713D0FC9F7BE9DE4699149C7635845FF2F681275C45BA396714CE799C163FC4 ====

Exact Audio Copy V1.0 beta 3 from 29. August 2011

EAC extraction logfile from 18. November 2012, 16:41

La Capella Reial, Hesperion XXI, J. Savall / Jeanne D'Arc, Batailles & Prisons (CD2)

Used drive : PLEXTOR DVDR PX-880SA Adapter: 4 ID: 0

Read mode : Secure
Utilize accurate stream : Yes
Defeat audio cache : Yes
Make use of C2 pointers : No

Read offset correction : 6
Overread into Lead-In and Lead-Out : No
Fill up missing offset samples with silence : Yes
Delete leading and trailing silent blocks : No
Null samples used in CRC calculations : Yes
Used interface : Installed external ASPI interface
Gap handling : Appended to previous track

Used output format : Internal WAV Routines
Sample format : 44.100 Hz; 16 Bit; Stereo


TOC of the extracted CD

Track | Start | Length | Start sector | End sector
––––––––––––––––––––––––––––-
1 | 0:00.00 | 0:45.70 | 0 | 3444
2 | 0:45.70 | 2:12.50 | 3445 | 13394
3 | 2:58.45 | 0:48.59 | 13395 | 17053
4 | 3:47.29 | 1:42.57 | 17054 | 24760
5 | 5:30.11 | 0:23.48 | 24761 | 26533
6 | 5:53.59 | 1:26.08 | 26534 | 32991
7 | 7:19.67 | 1:11.73 | 32992 | 38389
8 | 8:31.65 | 2:06.45 | 38390 | 47884
9 | 10:38.35 | 1:07.58 | 47885 | 52967
10 | 11:46.18 | 2:39.04 | 52968 | 64896
11 | 14:25.22 | 0:32.10 | 64897 | 67306
12 | 14:57.32 | 0:55.47 | 67307 | 71478
13 | 15:53.04 | 1:48.36 | 71479 | 79614
14 | 17:41.40 | 1:22.63 | 79615 | 85827
15 | 19:04.28 | 1:42.16 | 85828 | 93493
16 | 20:46.44 | 1:21.22 | 93494 | 99590
17 | 22:07.66 | 3:56.67 | 99591 | 117357
18 | 26:04.58 | 2:33.39 | 117358 | 128871
19 | 28:38.22 | 1:24.18 | 128872 | 135189
20 | 30:02.40 | 2:08.01 | 135190 | 144790
21 | 32:10.41 | 0:41.15 | 144791 | 147880
22 | 32:51.56 | 1:46.07 | 147881 | 155837
23 | 34:37.63 | 7:52.01 | 155838 | 191238
24 | 42:29.64 | 2:42.68 | 191239 | 203456
25 | 45:12.57 | 2:34.64 | 203457 | 215070
26 | 47:47.46 | 2:15.51 | 215071 | 225246
27 | 50:03.22 | 1:18.11 | 225247 | 231107
28 | 51:21.33 | 2:46.37 | 231108 | 243594
29 | 54:07.70 | 1:03.60 | 243595 | 248379
30 | 55:11.55 | 2:15.18 | 248380 | 258522
31 | 57:26.73 | 2:40.03 | 258523 | 270525
32 | 60:07.01 | 0:58.13 | 270526 | 274888
33 | 61:05.14 | 3:19.61 | 274889 | 289874
34 | 64:25.00 | 0:36.61 | 289875 | 292635
35 | 65:01.61 | 1:50.14 | 292636 | 300899


Track 1

Filename C:\Audio\Various Composers - Jeanne D'Arc, Batailles & Prisons - La Capella Reial, Hesperion XXI, J. Savall (2012) [FLAC]\CD2\01 - Fanfares & Tambours.wav

Pre-gap length 0:00:02.00

Peak level 47.5 %
Extraction speed 1.2 X
Track quality 100.0 %
Test CRC 2F33318A
Copy CRC 2F33318A
Track not present in AccurateRip database
Copy OK

Track 2

Filename C:\Audio\Various Composers - Jeanne D'Arc, Batailles & Prisons - La Capella Reial, Hesperion XXI, J. Savall (2012) [FLAC]\CD2\02 - J. Savall - Bataille entre Francais et Anglais.wav

Peak level 81.0 %
Extraction speed 1.9 X
Track quality 100.0 %
Test CRC 9F1CCF4C
Copy CRC 9F1CCF4C
Track not present in AccurateRip database
Copy OK

Track 3

Filename C:\Audio\Various Composers - Jeanne D'Arc, Batailles & Prisons - La Capella Reial, Hesperion XXI, J. Savall (2012) [FLAC]\CD2\03 - 8 septembre 1429. Jeanne lance un assaut sur Paris.wav

Peak level 32.8 %
Extraction speed 0.6 X
Track quality 99.7 %
Test CRC C781F44E
Copy CRC C781F44E
Track not present in AccurateRip database
Copy OK

Track 4

Filename C:\Audio\Various Composers - Jeanne D'Arc, Batailles & Prisons - La Capella Reial, Hesperion XXI, J. Savall (2012) [FLAC]\CD2\04 - J. Desprez - Fortuna desperata.wav

Peak level 37.6 %
Extraction speed 1.8 X
Track quality 100.0 %
Test CRC DF3CD32A
Copy CRC DF3CD32A
Track not present in AccurateRip database
Copy OK

Track 5

Filename C:\Audio\Various Composers - Jeanne D'Arc, Batailles & Prisons - La Capella Reial, Hesperion XXI, J. Savall (2012) [FLAC]\CD2\05 - 16 mai 1430. Le siege devant Compiegne.wav

Peak level 24.8 %
Extraction speed 1.0 X
Track quality 100.0 %
Test CRC 31CB6E7E
Copy CRC 31CB6E7E
Track not present in AccurateRip database
Copy OK

Track 6

Filename C:\Audio\Various Composers - Jeanne D'Arc, Batailles & Prisons - La Capella Reial, Hesperion XXI, J. Savall (2012) [FLAC]\CD2\06 - Anonyme (CMM 131) - Chiave, chiave.wav

Peak level 54.7 %
Extraction speed 1.9 X
Track quality 100.0 %
Test CRC 6D00EC61
Copy CRC 6D00EC61
Track not present in AccurateRip database
Copy OK

Track 7

Filename C:\Audio\Various Composers - Jeanne D'Arc, Batailles & Prisons - La Capella Reial, Hesperion XXI, J. Savall (2012) [FLAC]\CD2\07 - Le lendemain, Jeanne est capturee par les Bourguignons.wav

Peak level 32.1 %
Extraction speed 1.8 X
Track quality 100.0 %
Test CRC 9B3F7A5E
Copy CRC 9B3F7A5E
Track not present in AccurateRip database
Copy OK

Track 8

Filename C:\Audio\Various Composers - Jeanne D'Arc, Batailles & Prisons - La Capella Reial, Hesperion XXI, J. Savall (2012) [FLAC]\CD2\08 - Anonyme (XVe s.) - Dit le Bourguignon.wav

Peak level 84.1 %
Extraction speed 2.1 X
Track quality 100.0 %
Test CRC BFEC9EC0
Copy CRC BFEC9EC0
Track not present in AccurateRip database
Copy OK

Track 9

Filename C:\Audio\Various Composers - Jeanne D'Arc, Batailles & Prisons - La Capella Reial, Hesperion XXI, J. Savall (2012) [FLAC]\CD2\09 - Improvisation - Ballade de la Pucelle.wav

Peak level 30.0 %
Extraction speed 1.8 X
Track quality 100.0 %
Test CRC CD26020D
Copy CRC CD26020D
Track not present in AccurateRip database
Copy OK

Track 10

Filename C:\Audio\Various Composers - Jeanne D'Arc, Batailles & Prisons - La Capella Reial, Hesperion XXI, J. Savall (2012) [FLAC]\CD2\10 - Fortune par ta cruaute (d'apres J. Vicenet ca. 1420).wav

Peak level 27.1 %
Extraction speed 1.6 X
Track quality 99.9 %
Test CRC 145E03BC
Copy CRC 145E03BC
Track not present in AccurateRip database
Copy OK

Track 11

Filename C:\Audio\Various Composers - Jeanne D'Arc, Batailles & Prisons - La Capella Reial, Hesperion XXI, J. Savall (2012) [FLAC]\CD2\11 - 21 novembre 1430. Jeanne est vendue aux Anglais.wav

Peak level 19.2 %
Extraction speed 1.4 X
Track quality 100.0 %
Test CRC 45AAEAE6
Copy CRC 45AAEAE6
Track not present in AccurateRip database
Copy OK

Track 12

Filename C:\Audio\Various Composers - Jeanne D'Arc, Batailles & Prisons - La Capella Reial, Hesperion XXI, J. Savall (2012) [FLAC]\CD2\12 - Anonyme - Les Solitudes Priere II.wav

Peak level 34.8 %
Extraction speed 1.8 X
Track quality 100.0 %
Test CRC B9CDEFB0
Copy CRC B9CDEFB0
Track not present in AccurateRip database
Copy OK

Track 13

Filename C:\Audio\Various Composers - Jeanne D'Arc, Batailles & Prisons - La Capella Reial, Hesperion XXI, J. Savall (2012) [FLAC]\CD2\13 - 9 janvier 1431. Ouverture du proces en condamnation.wav

Peak level 48.2 %
Extraction speed 2.3 X
Track quality 100.0 %
Test CRC C84B2E98
Copy CRC C84B2E98
Track not present in AccurateRip database
Copy OK

Track 14

Filename C:\Audio\Various Composers - Jeanne D'Arc, Batailles & Prisons - La Capella Reial, Hesperion XXI, J. Savall (2012) [FLAC]\CD2\14 - J. Savall - Le depart.wav

Peak level 32.0 %
Extraction speed 2.2 X
Track quality 100.0 %
Test CRC 068BCCAB
Copy CRC 068BCCAB
Track not present in AccurateRip database
Copy OK

Track 15

Filename C:\Audio\Various Composers - Jeanne D'Arc, Batailles & Prisons - La Capella Reial, Hesperion XXI, J. Savall (2012) [FLAC]\CD2\15 - 10 mars 1431. Premiere sceance du proces dans la prison.wav

Peak level 40.5 %
Extraction speed 1.4 X
Track quality 99.8 %
Test CRC 6DD624ED
Copy CRC 6DD624ED
Track not present in AccurateRip database
Copy OK

Track 16

Filename C:\Audio\Various Composers - Jeanne D'Arc, Batailles & Prisons - La Capella Reial, Hesperion XXI, J. Savall (2012) [FLAC]\CD2\16 - Planctus Jehanne (d'apres mss. anonyme s. XV).wav

Peak level 39.4 %
Extraction speed 1.2 X
Track quality 99.8 %
Test CRC F6F8001A
Copy CRC F6F8001A
Track not present in AccurateRip database
Copy OK

Track 17

Filename C:\Audio\Various Composers - Jeanne D'Arc, Batailles & Prisons - La Capella Reial, Hesperion XXI, J. Savall (2012) [FLAC]\CD2\17 - 26 mars 1431.Debut du proces ordinaire.wav

Peak level 52.3 %
Extraction speed 3.0 X
Track quality 100.0 %
Test CRC 493B3216
Copy CRC 493B3216
Track not present in AccurateRip database
Copy OK

Track 18

Filename C:\Audio\Various Composers - Jeanne D'Arc, Batailles & Prisons - La Capella Reial, Hesperion XXI, J. Savall (2012) [FLAC]\CD2\18 - Fortune par ta cruaute (d'apres J. Vicenet ca. 1420).wav

Peak level 32.5 %
Extraction speed 2.9 X
Track quality 100.0 %
Test CRC D355783B
Copy CRC D355783B
Track not present in AccurateRip database
Copy OK

Track 19

Filename C:\Audio\Various Composers - Jeanne D'Arc, Batailles & Prisons - La Capella Reial, Hesperion XXI, J. Savall (2012) [FLAC]\CD2\19 - 24 mai. Abjuration de Jeanne.wav

Peak level 33.8 %
Extraction speed 2.5 X
Track quality 100.0 %
Test CRC 00202123
Copy CRC 00202123
Track not present in AccurateRip database
Copy OK

Track 20

Filename C:\Audio\Various Composers - Jeanne D'Arc, Batailles & Prisons - La Capella Reial, Hesperion XXI, J. Savall (2012) [FLAC]\CD2\20 - Cloches (inquisition), Adoramus te.wav

Peak level 48.6 %
Extraction speed 2.9 X
Track quality 100.0 %
Test CRC B981E9D0
Copy CRC B981E9D0
Track not present in AccurateRip database
Copy OK

Track 21

Filename C:\Audio\Various Composers - Jeanne D'Arc, Batailles & Prisons - La Capella Reial, Hesperion XXI, J. Savall (2012) [FLAC]\CD2\21 - Les Voix (d'apres G. Dufay).wav

Peak level 60.0 %
Extraction speed 1.9 X
Track quality 100.0 %
Test CRC CB8C6813
Copy CRC CB8C6813
Track not present in AccurateRip database
Copy OK

Track 22

Filename C:\Audio\Various Composers - Jeanne D'Arc, Batailles & Prisons - La Capella Reial, Hesperion XXI, J. Savall (2012) [FLAC]\CD2\22 - 28 mai 1431. Dans la prison. Proces de relapse.wav

Peak level 47.7 %
Extraction speed 2.9 X
Track quality 100.0 %
Test CRC 94336573
Copy CRC 94336573
Track not present in AccurateRip database
Copy OK

Track 23

Filename C:\Audio\Various Composers - Jeanne D'Arc, Batailles & Prisons - La Capella Reial, Hesperion XXI, J. Savall (2012) [FLAC]\CD2\23 - Anonyme (CMM 4) - Priere 'Adoramus Te Domine'.wav

Peak level 51.8 %
Extraction speed 3.7 X
Track quality 100.0 %
Test CRC 143DC8B3
Copy CRC 143DC8B3
Track not present in AccurateRip database
Copy OK

Track 24

Filename C:\Audio\Various Composers - Jeanne D'Arc, Batailles & Prisons - La Capella Reial, Hesperion XXI, J. Savall (2012) [FLAC]\CD2\24 - 30 mai 1431. Dernier jour du proces et sentence definitive.wav

Peak level 98.7 %
Extraction speed 3.4 X
Track quality 100.0 %
Test CRC 9D918B60
Copy CRC 9D918B60
Track not present in AccurateRip database
Copy OK

Track 25

Filename C:\Audio\Various Composers - Jeanne D'Arc, Batailles & Prisons - La Capella Reial, Hesperion XXI, J. Savall (2012) [FLAC]\CD2\25 - 30 mai 1431. Quand la Pucelle fut arse a Rouen.wav

Peak level 63.0 %
Extraction speed 3.4 X
Track quality 100.0 %
Test CRC 1C6A3D8D
Copy CRC 1C6A3D8D
Track not present in AccurateRip database
Copy OK

Track 26

Filename C:\Audio\Various Composers - Jeanne D'Arc, Batailles & Prisons - La Capella Reial, Hesperion XXI, J. Savall (2012) [FLAC]\CD2\26 - Planctus Jehanne (d'apres mss. XVe siecle).wav

Peak level 57.7 %
Extraction speed 3.4 X
Track quality 100.0 %
Test CRC BA790099
Copy CRC BA790099
Track not present in AccurateRip database
Copy OK

Track 27

Filename C:\Audio\Various Composers - Jeanne D'Arc, Batailles & Prisons - La Capella Reial, Hesperion XXI, J. Savall (2012) [FLAC]\CD2\27 - 17 juillet 1453. Bataille de Castillon.wav

Peak level 91.4 %
Extraction speed 3.0 X
Track quality 100.0 %
Test CRC B5017B8E
Copy CRC B5017B8E
Track not present in AccurateRip database
Copy OK

Track 28

Filename C:\Audio\Various Composers - Jeanne D'Arc, Batailles & Prisons - La Capella Reial, Hesperion XXI, J. Savall (2012) [FLAC]\CD2\28 - Fin de la Guerre de Cent Ans.wav

Peak level 97.7 %
Extraction speed 3.6 X
Track quality 100.0 %
Test CRC 792EDEE1
Copy CRC 792EDEE1
Track not present in AccurateRip database
Copy OK

Track 29

Filename C:\Audio\Various Composers - Jeanne D'Arc, Batailles & Prisons - La Capella Reial, Hesperion XXI, J. Savall (2012) [FLAC]\CD2\29 - 1455-1456. Proces de revision de la condamnation.wav

Peak level 20.8 %
Extraction speed 2.8 X
Track quality 100.0 %
Test CRC DC50AF2D
Copy CRC DC50AF2D
Track not present in AccurateRip database
Copy OK

Track 30

Filename C:\Audio\Various Composers - Jeanne D'Arc, Batailles & Prisons - La Capella Reial, Hesperion XXI, J. Savall (2012) [FLAC]\CD2\30 - J. Cornago, CMM2 - Hymne 'Patres nostri peccaverunt'.wav

Peak level 65.2 %
Extraction speed 3.6 X
Track quality 100.0 %
Test CRC 9AE2BB5D
Copy CRC 9AE2BB5D
Track not present in AccurateRip database
Copy OK

Track 31

Filename C:\Audio\Various Composers - Jeanne D'Arc, Batailles & Prisons - La Capella Reial, Hesperion XXI, J. Savall (2012) [FLAC]\CD2\31 - 7 juillet 1456. Sentence de Rehabilitation.wav

Peak level 41.0 %
Extraction speed 3.7 X
Track quality 100.0 %
Test CRC FE29A9EA
Copy CRC FE29A9EA
Track not present in AccurateRip database
Copy OK

Track 32

Filename C:\Audio\Various Composers - Jeanne D'Arc, Batailles & Prisons - La Capella Reial, Hesperion XXI, J. Savall (2012) [FLAC]\CD2\32 - Les Voix - Veni Sancte Spiritus.wav

Peak level 52.5 %
Extraction speed 2.8 X
Track quality 100.0 %
Test CRC EEDC11E6
Copy CRC EEDC11E6
Track not present in AccurateRip database
Copy OK

Track 33

Filename C:\Audio\Various Composers - Jeanne D'Arc, Batailles & Prisons - La Capella Reial, Hesperion XXI, J. Savall (2012) [FLAC]\CD2\33 - Ballade de la Pucelle (d'apres l'Homme arme).wav

Peak level 93.9 %
Extraction speed 2.8 X
Track quality 99.9 %
Test CRC 29398A0B
Copy CRC 29398A0B
Track not present in AccurateRip database
Copy OK

Track 34

Filename C:\Audio\Various Composers - Jeanne D'Arc, Batailles & Prisons - La Capella Reial, Hesperion XXI, J. Savall (2012) [FLAC]\CD2\34 - Plus que la Sainte, l'inspiree.wav

Peak level 26.5 %
Extraction speed 0.9 X
Track quality 99.7 %
Test CRC 03ECDA81
Copy CRC 03ECDA81
Track not present in AccurateRip database
Copy OK

Track 35

Filename C:\Audio\Various Composers - Jeanne D'Arc, Batailles & Prisons - La Capella Reial, Hesperion XXI, J. Savall (2012) [FLAC]\CD2\35 - J. Savall - Le depart.wav

Peak level 32.0 %
Extraction speed 3.6 X
Track quality 100.0 %
Test CRC 6D8D62F2
Copy CRC 6D8D62F2
Track not present in AccurateRip database
Copy OK


None of the tracks are present in the AccurateRip database

No errors occurred

End of status report

==== Log checksum 2AFDE0ADD95F836BD7579A5F247C34EE6E72AE99D1D20AA6692BE405DC4D26A2 ====




All thanks goes to the original releaser!